Fatboy Slim / Norman Cook - The Fatboy Slim / Norman Cook Collection (2000)

Download Now

Fatboy Slim / Norman Cook - The Fatboy Slim / Norman Cook Collection (2000)

Fatboy Slim / Norman Cook - The Fatboy Slim / Norman Cook Collection (2000)
Electronic | 1cd | EAC Rip | Flac + Cue + Log | covers
HIP-O, 314 564 787-2 | rel: 2000 | 470Mb

Before setting global music charts afire with his Fatboy Slim alias, Norman Cook was merging his love of '70s funk breaks with classic Jamaican dub sound system rhythms. Shortly following his stint with UK indie popsters the Housemartins, Cook founded Beats International as a creative outlet for his growing interest in dance music. Using studio musicians, rappers, vintage vinyl recordings, and samples, he fashioned clever, catchy pop tunes that were to become the basis for the genre now known as "funky breaks."
This collection compiles some of the high points of the Beats International catalog with some of Cook's other early production credits and remixes. Cook's debt to Jamaican producers is clearly indicated by "Tribute to King Tubby," a homage to the slain dub remix innovator, while on "Echo Chamber," he juxtaposes a Steve Miller vocal refrain with ragga vocalizations and a house-styled 4/4 pulse. This unlikely combination of sources is held together by a relaxed, dubbed-out production. Cook also borrows from French electronic music pioneers such as Jean Jacques Perry; of particular interest is the remix of Perry's "E.V.A.," which mixes kitsch melodies from a Moog synthesizer with an uptempo hip hop break. ~Allmusic

Track listing
01. Beats International / Won't Talk About It (4:36)
02. Pierre Henry / Psyche Rock (6:31)
03. Deeds+Thoughts / The World is Made Up of This & That (5:47)
04. Beats International / Echo Chamber (5:55)
05. Beats International / Dub Be Good To Me (3:38)
06. Jean Jacques Oerrey / E.V.A. (3:46)
07. A Trible Called Quest / I left My Wallet in El Segundo (3:44)
08. Beats International / The Sun Doesn't Shine (3:53)
09. Shinehead / Start an Avalanche (4:28)
10. Wildchild / Renegade Master (5:59)
11. Lunatic Calm / Roll the Dice (6:40)
12. James Brown / Payback (5:54)
13. Beats International / Tribute to King Tobby (3:39)
~ (64:30)

Exact Audio Copy V0.99 prebeta 4 from 23. January 2008

EAC extraction logfile from 13. October 2009, 10:22

Fatboy Slim / Song Remixed + Produced by Fatboy Slim/Norman Cook

Used drive : Optiarc DVD RW AD-5200S Adapter: 1 ID: 1

Read mode : Secure
Utilize accurate stream : Yes
Defeat audio cache : Yes
Make use of C2 pointers : No

Read offset correction

: 48
Overread into Lead-In and Lead-Out : No
Fill up missing offset samples with silence : Yes
Delete leading and trailing silent blocks : No
Null samples used in CRC calculations : Yes
Used interface
: Native Win32 interface for Win NT & 2000

Used output format : Internal WAV Routines
Sample format : 44.100 Hz; 16 Bit; Stereo

TOC of the extracted CD Track | Start | Length | Start sector | End sector
--1 | 0:00.00 | 4:36.30 | 0 | 20729 2 | 4:36.30 | 6:30.45 | 20730 | 50024 3 | 11:07.00 | 5:46.65 | 50025 | 76039 4 | 16:53.65 | 5:54.52 | 76040 | 102641 5 | 22:48.42 | 3:38.00 | 102642 | 118991 6 | 26:26.42 | 3:45.58 | 118992 | 135924 7 | 30:12.25 | 3:44.17 | 135925 | 152741 8 | 33:56.42 | 3:53.05 | 152742 | 170221 9 | 37:49.47 | 4:28.03 | 170222 | 190324
10 | 42:17.50 | 5:59.15 | 190325 | 217264
11 | 48:16.65 | 6:39.50 | 217265 | 247239
12 | 54:56.40 | 5:54.35 | 247240 | 273824
13 | 60:51.00 | 3:39.15 | 273825 | 290264

Range status and errors

Selected range Filename E:\Image\Fatboy Slim - Song Remixed + Produced by Fatboy Slim Norman Cook.wav Peak level 100.0 %
Range quality 99.9 %
Copy CRC 65BC3149
Copy OK

No errors occurred


AccurateRip summary

Track 1 cannot be verified as accurate (confidence 26) [1F79D794], AccurateRip returned [3FE48815]
Track 2 cannot be verified as accurate (confidence 27) [07400552], AccurateRip returned [47812196]
Track 3 cannot be verified as accurate (confidence 26) [E4E9F3BE], AccurateRip returned [A95F30C6]
Track 4 cannot be verified as accurate (confidence 26) [C27D8C36], AccurateRip returned [FBD4ADD2]
Track 5 cannot be verified as accurate (confidence 27) [6F662B57], AccurateRip returned [D7F50FA9]
Track 6 cannot be verified as accurate (confidence 27) 9D7AE88, AccurateRip returned [1D6BD831]
Track 7 cannot be verified as accurate (confidence 25) [84D3D180], AccurateRip returned [8B715946]
Track 8 cannot be verified as accurate (confidence 25) [762201A8], AccurateRip returned [8D1C42CD]
Track 9 cannot be verified as accurate (confidence 25) [13226F3E], AccurateRip returned [E2F6A9C5]
Track 10 cannot be verified as accurate (confidence 25) [440807DE], AccurateRip returned [1299CCB7]
Track 11 cannot be verified as accurate (confidence 23) [5498BFB5], AccurateRip returned [D22D184B]
Track 12 cannot be verified as accurate (confidence 24) [F60DFE26], AccurateRip returned [C2D08DED]
Track 13 cannot be verified as accurate (confidence 19) [9FD6440A], AccurateRip returned [3C16F83A]

No tracks could be verified as accurate
You may have a different pressing from the one(s) in the database

End of status report

[CUETools log; Date: 2015.08.04. 10:35:05; Version: 2.1.5]
[CTDB TOCID: DEh6FozUTEJVKpJMNk.sSR.cG10-] found.
Track | CTDB Status
1 | (20/20) Accurately ripped
2 | (20/20) Accurately ripped
3 | (20/20) Accurately ripped
4 | (20/20) Accurately ripped
5 | (19/20) Accurately ripped
6 | (19/20) Accurately ripped
7 | (20/20) Accurately ripped
8 | (20/20) Accurately ripped
9 | (18/20) Accurately ripped
10 | (19/20) Accurately ripped
11 | (17/20) Accurately ripped
12 | (18/20) Accurately ripped
13 | (17/20) Accurately ripped
[AccurateRip ID: 001f391e-0135eec3-cc0f1e0d] found.
Track [ CRC | V2 ] Status
01 [1f79d794|c1eafcd4] (02+00/64) Accurately ripped
02 [07400552|1a59c335] (02+00/65) Accurately ripped
03 [e4e9f3be|5c182322] (02+00/64) Accurately ripped
04 [c27d8c36|e5ab8c57] (02+00/64) Accurately ripped
05 [6f662b57|9f8e5399] (02+00/65) Accurately ripped
06 9d7ae88|d9cb7c38 (02+00/65) Accurately ripped
07 [84d3d180|6d05658c] (02+00/63) Accurately ripped
08 [762201a8|ab42e062] (02+00/63) Accurately ripped
09 [13226f3e|30c5148e] (02+00/62) Accurately ripped
10 [440807de|be7cc713] (02+00/63) Accurately ripped
11 [5498bfb5|766e9222] (02+00/60) Accurately ripped
12 [f60dfe26|9d0c6a62] (02+00/61) Accurately ripped
13 [9fd6440a|75ebfed5] (02+00/54) Accurately ripped
Offsetted by 659:
01 [3fe48815] (38/64) Accurately ripped
02 [47812196] (39/65) Accurately ripped
03 [a95f30c6] (38/64) Accurately ripped
04 [fbd4add2] (38/64) Accurately ripped
05 [d7f50fa9] (39/65) Accurately ripped
06 [1d6bd831] (39/65) Accurately ripped
07 [8b715946] (37/63) Accurately ripped
08 [8d1c42cd] (37/63) Accurately ripped
09 [e2f6a9c5] (36/62) Accurately ripped
10 [1299ccb7] (37/63) Accurately ripped
11 [d22d184b] (35/60) Accurately ripped
12 [c2d08ded] (35/61) Accurately ripped
13 [3c16f83a] (30/54) Accurately ripped
Offsetted by 588:
01 [677735c8] (02/64) Accurately ripped
02 [d4d97ccf] (02/65) Accurately ripped
03 [807730a6] (02/64) Accurately ripped
04 [3255e883] (02/64) Accurately ripped
05 [0d55d76b] (02/65) Accurately ripped
06 [8996f425] (02/65) Accurately ripped
07 [17d98de3] (02/63) Accurately ripped
08 [8610aff9] (02/63) Accurately ripped
09 [91a63912] (02/62) Accurately ripped
10 [8dd6d778] (02/63) Accurately ripped
11 [7aeebb1b] (02/60) Accurately ripped
12 [6b51444f] (02/61) Accurately ripped
13 [23e6ba09] (00/54) No match (V2 was not tested)
Offsetted by 649:
01 [2f2913cc] (00/64) No match (V2 was not tested)
02 [1a0054a4] (00/65) No match (V2 was not tested)
03 [fb0a28d4] (00/64) No match (V2 was not tested)
04 [41038367] (00/64) No match (V2 was not tested)
05 [5b1a0475] (00/65) No match (V2 was not tested)
06 [60cf9e0a] (00/65) No match (V2 was not tested)
07 [e210c16b] (00/63) No match (V2 was not tested)
08 [11a5a288] (00/63) No match (V2 was not tested)
09 [cebc6b0a] (00/62) No match (V2 was not tested)
10 [4d0b2069] (00/63) No match (V2 was not tested)
11 [f4679dd8] (00/60) No match (V2 was not tested)
12 [e5a2876e] (00/61) No match (V2 was not tested)
13 [a9cd404a] (00/54) No match (V2 was not tested)

Track Peak [ CRC32 ] [W/O NULL] [ LOG ]
-- 100,0 [65BC3149] [D4BB8504] CRC32
01 99,8 [9C8819A0] [CF74209E]
02 99,7 [848C5D15] [D4519906]
03 100,0 [645B0B02] [54EB2586]
04 100,0 [48B3999D] [F4053A6E]
05 99,8 [2F81CB26] [1E26F5DF]
06 99,0 [6ED2C266] [0845349E]
07 98,8 [517131F9] [82435F5F]
08 100,0 [1303437E] [1B716A62]
09 99,8 [7F35325C] F772363
10 100,0 [D4945043] [C25DA17C]
11 100,0 [6A03A8D9] [544033FA]
12 99,8 [D8D30B44] [895C46A5]
13 99,8 [E359FCE4] [C059CA72]

Thx to novo-bo

password: asd
DOWNLOAD LINKS
Buy Premium From My Links To Get Resumable Support & Max Speed & To Support Me


Links are Interchangeable - No Password - Single Extraction
Direct Download

Tags: Fatboy, Norman, Fatboy, Norman, Collection

Fatboy Slim / Norman Cook - The Fatboy Slim / Norman Cook Collection (2000) Download via Hotfile Rapidshare Fileserve Megaupload & FileSonic, Fatboy Slim / Norman Cook - The Fatboy Slim / Norman Cook Collection (2000) free torrent downloads included crack, serial, keygen.Fatboy Slim / Norman Cook - The Fatboy Slim / Norman Cook Collection (2000) Fast Download via Rapidshare Hotfile Fileserve Filesonic Megaupload, Fatboy Slim / Norman Cook - The Fatboy Slim / Norman Cook Collection (2000) Torrents and Emule Download or anything related.
Leave a Comment
Your Name:
E-Mail:
Add Comments:

Enter Code: