Journeyman - 2 Studio Albums (1994-1997)

Download Now

Journeyman - 2 Studio Albums (1994-1997)

Journeyman - 2 Studio Albums (1994-1997)
EAC Rip | FLAC (image+.cue+log) - 684 MB | MP3 CBR 320 kbps (LAME 3.93) - 340 MB | Covers - 81 MB
Genre: Dub, Downtempo, Ambient | RAR 3% Rec. | Label: Ntone

"U.K. producer Paul Frankland is best known for his recordings as Woob for the popular Nottingham-based ambient dub label Em:t Recordings. Frankland is also signed to Ninja Tune subsidiary Ntone as Journeyman, a project that has produced a pair of full-length recordings to date. Mama 6, the first of those, was among Ntone's first releases; available only on CD, it featured a heady blend of alternately house-y and downtempo beats, lush electronics, and quixotic samples, and it quickly went out of print. 1997's National Hijinx benefitted from Ninja Tune's growing prosperity by receiving a much larger pressing and availability on both vinyl and CD..."

Journeyman - 2 Studio Albums (1994-1997)

Journeyman - Mama 6 (1994)
EAC Rip | FLAC (image+.cue+log) - 334 MB | MP3 CBR 320 kbps (LAME 3.93) - 186 MB | Covers - 38 MB
Genre: Dub, Downtempo, Ambient | RAR 3% Rec. | Label: Ntone (NTONE CD2)

Tracklist:
01. Valves
02. Estarlay
03. Mama 6 Pt. 1
04. Latneiro (Woob's Sunrise Dub)
05. Mama 6 Pt. 2
06. 3001 (Edit)

Total time: 01:19:02

Exact Audio Copy V0.99 prebeta 4 from 23. January 2008

EAC extraction logfile from 24. May 2009, 16:57

Journeyman / Mama 6

Used drive : PIONEER DVD-RW DVR-111 Adapter: 3 ID: 0

Read mode : Secure
Utilize accurate stream : Yes
Defeat audio cache : Yes
Make use of C2 pointers : No

Read offset correction

: 48
Overread into Lead-In and Lead-Out : No
Fill up missing offset samples with silence : Yes
Delete leading and trailing silent blocks : No
Null samples used in CRC calculations : Yes
Used interface
: Installed external ASPI interface

Used output format : User Defined Encoder
Selected bitrate : 1024 kBit/s
Quality : High
Add ID3 tag : No
Command line compressor : C:\Program Files\Exact Audio Copy\Flac\flac.exe
Additional command line options : -8 -V -T "ARTIST=%a" -T "ALBUM=%g" -T "DATE=%y" -T "GENRE=%m" %s -o %d

TOC of the extracted CD Track | Start | Length | Start sector | End sector
--1 | 0:00.32 | 4:56.10 | 32 | 22241 2 | 4:56.42 | 10:48.35 | 22242 | 70876 3 | 15:45.02 | 21:21.25 | 70877 | 166976 4 | 37:06.27 | 15:19.60 | 166977 | 235961 5 | 52:26.12 | 13:03.65 | 235962 | 294751 6 | 65:30.02 | 13:31.68 | 294752 | 355644

Range status and errors

Selected range Filename F:\temp\nnm\Journeyman - Mama 6.wav Peak level 85.7 %
Range quality 100.0 %
Test CRC 732A6F27
Copy CRC 732A6F27
Copy OK

No errors occurred


AccurateRip summary

Track 1 accurately ripped (confidence 2) [176CC79B]
Track 2 accurately ripped (confidence 2) [72C16E11]
Track 3 accurately ripped (confidence 2) [0B752BA4]
Track 4 accurately ripped (confidence 2) [601AF4F4]
Track 5 accurately ripped (confidence 2) [1D329841]
Track 6 accurately ripped (confidence 2) [1150B55A]

All tracks accurately ripped

End of status report

[CUETools log; Date: 02.08.2015 17:02:08; Version: 2.1.4]
Pregap length 00:00:32.
[CTDB TOCID: N7IQsWkgMXQrfnb6u8ONla97cfg-] found.
Track | CTDB Status
1 | (1/1) Accurately ripped
2 | (1/1) Accurately ripped
3 | (1/1) Accurately ripped
4 | (1/1) Accurately ripped
5 | (1/1) Accurately ripped
6 | (1/1) Accurately ripped
[AccurateRip ID: 00117e77-0061170c-58128506] found.
Track [ CRC | V2 ] Status
01 [176cc79b|1b9bc619] (3+2/7) Accurately ripped
02 [72c16e11|ac6b5db4] (3+2/7) Accurately ripped
03 [0b752ba4|b5256c52] (3+2/7) Accurately ripped
04 [601af4f4|d9f55b5b] (3+2/7) Accurately ripped
05 [1d329841|759ca98b] (3+2/7) Accurately ripped
06 [1150b55a|9d1e9637] (3+2/7) Accurately ripped
Offsetted by 861:
01 [f9915528] (2/7) Accurately ripped
02 07995a1 (2/7) Accurately ripped
03 [5a1307ac] (2/7) Accurately ripped
04 [37267cc9] (2/7) Accurately ripped
05 [32f50803] (2/7) Accurately ripped
06 [7ff39891] (2/7) Accurately ripped

Track Peak [ CRC32 ] [W/O NULL] [ LOG ]
-- 85,7 [732A6F27] [C26B2CE8] CRC32
01 31,6 [D328A0FB] [ED2D5AE0]
02 35,9 [AC10243F] [F413E75F]
03 85,7 [1A12C506] [833C6F1E]
04 76,7 [367DF709] [794403D3]
05 72,9 [780F44E9] [622E3D42]
06 81,7 [96E4DED0] [E9B4556D]


Journeyman - 2 Studio Albums (1994-1997)

Journeyman - National Hijinx (1997)
EAC Rip | FLAC (image+.cue+log) - 350 MB | MP3 CBR 320 kbps (LAME 3.93) - 154 MB | Covers - 43 MB
Genre: Dub, Downtempo, Ambient | RAR 3% Rec. | Label: Ntone (NTONE CD24)

Tracklist:
01. National Hijinx
02. National Hijinx Part 2 (Mr. Swanks Menstore)
03. Rusty Beats
04. Spy
05. 50cc (Full Service History)
06. Tuft Er
07. Sloath
08. Eugolana Box
09. Sonny
10. Biscuits
11. The Darg Frog

Total time: 01:05:37

Exact Audio Copy V0.99 prebeta 4 from 23. January 2008

EAC extraction logfile from 7. March 2009, 17:07

Journeyman / National Hijinx

Used drive : PIONEER DVD-RW DVR-111 Adapter: 3 ID: 0

Read mode : Secure
Utilize accurate stream : Yes
Defeat audio cache : Yes
Make use of C2 pointers : No

Read offset correction

: 48
Overread into Lead-In and Lead-Out : No
Fill up missing offset samples with silence : Yes
Delete leading and trailing silent blocks : No
Null samples used in CRC calculations : Yes
Used interface
: Installed external ASPI interface

Used output format : User Defined Encoder
Selected bitrate : 1024 kBit/s
Quality : High
Add ID3 tag : No
Command line compressor : C:\Program Files\Exact Audio Copy\Flac\flac.exe
Additional command line options : -8 -V -T "ARTIST=%a" -T "ALBUM=%g" -T "DATE=%y" -T "GENRE=%m" %s -o %d

TOC of the extracted CD Track | Start | Length | Start sector | End sector
--1 | 0:00.00 | 9:56.07 | 0 | 44706 2 | 9:56.07 | 5:05.73 | 44707 | 67654 3 | 15:02.05 | 4:01.42 | 67655 | 85771 4 | 19:03.47 | 6:21.63 | 85772 | 114409 5 | 25:25.35 | 8:15.55 | 114410 | 151589 6 | 33:41.15 | 4:15.65 | 151590 | 170779 7 | 37:57.05 | 4:03.15 | 170780 | 189019 8 | 42:00.20 | 5:26.45 | 189020 | 213514 9 | 47:26.65 | 5:24.12 | 213515 | 237826
10 | 52:51.02 | 5:41.45 | 237827 | 263446
11 | 58:32.47 | 7:04.25 | 263447 | 295271

Range status and errors

Selected range Filename F:\temp\nnm\Journeyman - National Hijinx.wav Peak level 99.9 %
Range quality 99.9 %
Test CRC 7A81FEFA
Copy CRC 7A81FEFA
Copy OK

No errors occurred


AccurateRip summary

Track 1 accurately ripped (confidence 2) [8404812D]
Track 2 accurately ripped (confidence 2) [DB2AB8C2]
Track 3 accurately ripped (confidence 2) [C8D9A1E7]
Track 4 accurately ripped (confidence 2) [AD7162FB]
Track 5 accurately ripped (confidence 2) [F8223E45]
Track 6 accurately ripped (confidence 2) [1B5FF3D7]
Track 7 accurately ripped (confidence 2) [8DEA5A44]
Track 8 accurately ripped (confidence 2) [1AFE3339]
Track 9 accurately ripped (confidence 2) [3E195EA2]
Track 10 accurately ripped (confidence 2) [F8B7D40B]
Track 11 accurately ripped (confidence 2) [A43B0739]

All tracks accurately ripped

End of status report

[CUETools log; Date: 02.08.2015 17:01:35; Version: 2.1.4]
[CTDB TOCID: 5C9_MAy9DZ_f1dRflUssfs3jB9c-] found.
Track | CTDB Status
1 | (3/4) Accurately ripped
2 | (3/4) Accurately ripped
3 | (3/4) Accurately ripped
4 | (3/4) Accurately ripped
5 | (3/4) Accurately ripped
6 | (3/4) Accurately ripped
7 | (3/4) Accurately ripped
8 | (3/4) Accurately ripped
9 | (3/4) Accurately ripped
10 | (3/4) Accurately ripped
11 | (3/4) Accurately ripped
[AccurateRip ID: 001bfc0b-00ed83c4-960f600b] found.
Track [ CRC | V2 ] Status
01 [8404812d|138d37f3] (6+2/8) Accurately ripped
02 [db2ab8c2|b9fcfa2d] (5+2/7) Accurately ripped
03 [c8d9a1e7|d97ede23] (5+2/7) Accurately ripped
04 [ad7162fb|f348662a] (5+2/7) Accurately ripped
05 [f8223e45|221a8115] (5+2/7) Accurately ripped
06 [1b5ff3d7|4adab77b] (5+2/7) Accurately ripped
07 [8dea5a44|690c81ff] (5+2/7) Accurately ripped
08 [1afe3339|538447a9] (5+2/7) Accurately ripped
09 [3e195ea2|6b5ccbbe] (5+2/7) Accurately ripped
10 [f8b7d40b|5e1c7eb2] (5+2/7) Accurately ripped
11 [a43b0739|104ea9b2] (4+2/6) Accurately ripped

Track Peak [ CRC32 ] [W/O NULL] [ LOG ]
-- 99,9 [7A81FEFA] [8992D32E] CRC32
01 82,4 [CA9A2099] [48A54382]
02 96,5 [24971C09] [262E108A]
03 99,9 [9CF6EE1D] [C075279A]
04 90,9 [62C0E796] [43BFD18A]
05 98,3 [EA8B19AC] [D0C67AEE]
06 99,9 [09170B3C] [2C5FBAC5]
07 86,7 [69528AD8] [1CEBBA8D]
08 92,3 [9D40654A] [F1E8EAE0]
09 83,9 [7EF8F440] [D3F7E2C7]
10 91,4 [8978A717] [54534BC4]
11 90,7 [09034559] [CF82A8AC]

Thanks to _ok
DOWNLOAD LINKS
(Premium Recommended)


Links are Interchangeable - No Password - Single Extraction
Direct Download

Tags: Journeyman, Studio, Albums

Journeyman - 2 Studio Albums (1994-1997) Download via Hotfile Rapidshare Fileserve Megaupload & FileSonic, Journeyman - 2 Studio Albums (1994-1997) free torrent downloads included crack, serial, keygen.Journeyman - 2 Studio Albums (1994-1997) Fast Download via Rapidshare Hotfile Fileserve Filesonic Megaupload, Journeyman - 2 Studio Albums (1994-1997) Torrents and Emule Download or anything related.
Leave a Comment
Your Name:
E-Mail:
Add Comments:

Enter Code: