Arild Andersen - If You Look Far Enough (1993) {ECM 1493}

Download Now

Arild Andersen - If You Look Far Enough (1993) {ECM 1493}

Arild Andersen - If You Look Far Enough (1993) {ECM 1493}
EAC 0.99pb5 | FLAC tracks level 8 | Cue+Log+M3U | Full Scans 300dpi | 260MB + 5% Recovery
Genre: Jazz, Fusion

"Norwegian bassist Andersen's reputation in Europe over the decades is well established. He has appeared on a number of significant recordings, most notably Jan Garbarek's SAGN, and with his own iconoclastic ensemble Masqualero. IF YOU LOOK FAR ENOUGH distills those past endeavors into a most atmospheric, spacious outing. The more traditional elements of Andersen's heritage meet face-to-face with a profoundly European free-jazz sensibility."

Track List
01. If You Look 3:10
02. Svev 5:25
03. For All We Know 3:58
04. Backe 5:46
05. The Voice 7:43
06. The Woman 4:36
07. The Place 3:06
08. The Drink 4:58
09. Main Man 4:59
10. A Song I Used To Play 4:04
11. Far Enough 6:22
12. Jonah 4:03

musicians
Arild Andersen - acoustic bass
Ralph Towner - acoustic 12-string & nylon string guitars
Nana Vasconcelos - percussion
Auden Kleive - snare drum

Produced by Arild Andersen

Exact Audio Copy V0.99 prebeta 5 from 4. May 2009

EAC extraction logfile from 9. May 2010, 13:57

Arild Andersen, Ralph Towner & Nana Vasconcelos / If You Look Far Enough

Used drive : _NEC DVD_RW ND-3520AW Adapter: 1 ID: 0

Read mode : Secure
Utilize accurate stream : Yes
Defeat audio cache : Yes
Make use of C2 pointers : No

Read offset correction

: 48
Overread into Lead-In and Lead-Out : No
Fill up missing offset samples with silence : Yes
Delete leading and trailing silent blocks : No
Null samples used in CRC calculations : Yes
Used interface
: Native Win32 interface for Win NT & 2000
Gap handling
: Appended to previous track

Used output format : User Defined Encoder
Selected bitrate : 320 kBit/s
Quality : High
Add ID3 tag : No
Command line compressor : C:\Program Files\FLAC\flac.exe
Additional command line options : -V -8 -T "artist=%a" -T "title=%t" -T "album=%g" -T "date=%y" -T "tracknumber=%n" -T "genre=%m" %s

TOC of the extracted CD Track | Start | Length | Start sector | End sector
--1 | 0:00.33 | 3:13.65 | 33 | 14572 2 | 3:14.23 | 5:28.70 | 14573 | 39242 3 | 8:43.18 | 4:02.67 | 39243 | 57459 4 | 12:46.10 | 5:49.23 | 57460 | 83657 5 | 18:35.33 | 7:47.27 | 83658 | 118709 6 | 26:22.60 | 4:40.08 | 118710 | 139717 7 | 31:02.68 | 3:09.62 | 139718 | 153954 8 | 34:12.55 | 5:03.73 | 153955 | 176752 9 | 39:16.53 | 5:04.40 | 176753 | 199592
10 | 44:21.18 | 4:08.05 | 199593 | 218197
11 | 48:29.23 | 6:25.35 | 218198 | 247107
12 | 54:54.58 | 4:03.27 | 247108 | 265359

Track 1 Filename C:\Music\(Temp)\EAC\01 - If You Look.wav Pre-gap length 0:00:02.44 Peak level 96.4 %
Track quality 100.0 %
Test CRC D91ED6D9
Copy CRC D91ED6D9
Accurately ripped (confidence 16) [ADE3836E]
Copy OK

Track 2 Filename C:\Music\(Temp)\EAC\02 - Svev.wav Pre-gap length 0:00:03.84 Peak level 95.7 %
Track quality 100.0 %
Test CRC 342D552A
Copy CRC 342D552A
Accurately ripped (confidence 16) [0EE8F729]
Copy OK

Track 3 Filename C:\Music\(Temp)\EAC\03 - For All We Know.wav Pre-gap length 0:00:03.57 Peak level 75.3 %
Track quality 100.0 %
Test CRC 2C14607A
Copy CRC 2C14607A
Accurately ripped (confidence 16) [85E1E787]
Copy OK

Track 4 Filename C:\Music\(Temp)\EAC\04 - BackŠ¹.wav Pre-gap length 0:00:04.20 Peak level 92.2 %
Track quality 99.9 %
Test CRC 40EB1EFE
Copy CRC 40EB1EFE
Accurately ripped (confidence 16) [01574266]
Copy OK

Track 5 Filename C:\Music\(Temp)\EAC\05 - The Voice.wav Pre-gap length 0:00:02.86 Peak level 80.0 %
Track quality 100.0 %
Test CRC 1386D061
Copy CRC 1386D061
Accurately ripped (confidence 16) [442DBF01]
Copy OK

Track 6 Filename C:\Music\(Temp)\EAC\06 - The Woman.wav Pre-gap length 0:00:03.69 Peak level 72.0 %
Track quality 100.0 %
Test CRC 15167B5C
Copy CRC 15167B5C
Accurately ripped (confidence 16) [FD7EC568]
Copy OK

Track 7 Filename C:\Music\(Temp)\EAC\07 - The Place.wav Pre-gap length 0:00:03.30 Peak level 84.6 %
Track quality 100.0 %
Test CRC 5EA4330B
Copy CRC 5EA4330B
Accurately ripped (confidence 16) [E6E00BFD]
Copy OK

Track 8 Filename C:\Music\(Temp)\EAC\08 - The Drink.wav Pre-gap length 0:00:03.09 Peak level 82.4 %
Track quality 100.0 %
Test CRC C1D49794
Copy CRC C1D49794
Accurately ripped (confidence 16) [F5E0C1D3]
Copy OK

Track 9 Filename C:\Music\(Temp)\EAC\09 - Main Man.wav Pre-gap length 0:00:05.86 Peak level 99.9 %
Track quality 100.0 %
Test CRC F9F74B5F
Copy CRC F9F74B5F
Accurately ripped (confidence 16) [8C136278]
Copy OK

Track 10 Filename C:\Music\(Temp)\EAC\10 - A Song I Used to Play.wav Pre-gap length 0:00:05.04 Peak level 99.9 %
Track quality 99.9 %
Test CRC 150CEEB4
Copy CRC 150CEEB4
Accurately ripped (confidence 16) [8171C353]
Copy OK

Track 11 Filename C:\Music\(Temp)\EAC\11 - Far Enough.wav Pre-gap length 0:00:03.73 Peak level 93.9 %
Track quality 100.0 %
Test CRC F040BB52
Copy CRC F040BB52
Accurately ripped (confidence 15) [A082E6EE]
Copy OK

Track 12 Filename C:\Music\(Temp)\EAC\12 - Jonah.wav Pre-gap length 0:00:02.64 Peak level 80.3 %
Track quality 100.0 %
Test CRC 807AD5D4
Copy CRC 807AD5D4
Accurately ripped (confidence 14) [AF3237FA]
Copy OK

All tracks accurately ripped

No errors occurred

End of status report

Analyzed: Arild Andersen / If You Look Far Enough

DR Peak RMS Duration Track

DR14 -0.32 dB -23.10 dB 3:14 01-If You Look
DR13 -0.37 dB -17.26 dB 5:29 02-Svev
DR15 -2.46 dB -22.19 dB 4:03 03-For All We Know
DR14 -0.70 dB -17.04 dB 5:49 04-Backe
DR15 -1.94 dB -23.17 dB 7:47 05-The Voice
DR15 -2.84 dB -23.06 dB 4:40 06-The Woman
DR12 -1.44 dB -17.51 dB 3:10 07-The Place
DR16 -1.68 dB -23.43 dB 5:04 08-The Drink
DR15 0.00 dB -17.85 dB 5:05 09-Main Man
DR13 0.00 dB -18.64 dB 4:08 10-A Song I Used To Play
DR13 -0.54 dB -22.05 dB 6:25 11-Far Enough
DR16 -1.90 dB -22.07 dB 4:03 12-Jonah

Number of tracks: 12
Official DR value: DR14

Samplerate: 44100 Hz
Channels: 2
Bits per sample: 16
Bitrate: 381 kbps
Codec: FLAC

Arild Andersen - If You Look Far Enough (1993) {ECM 1493}

Arild Andersen - If You Look Far Enough (1993) {ECM 1493}

Arild Andersen - If You Look Far Enough (1993) {ECM 1493}

Rip by smurf781


DOWNLOAD:
Buy Premium To Support Me & Get Resumable Support & Max Speed


Links are Interchangeable - No Password
Direct Download

Tags: Andersen, Enough

Arild Andersen - If You Look Far Enough (1993) {ECM 1493} Download via Hotfile Rapidshare Fileserve Megaupload & FileSonic, Arild Andersen - If You Look Far Enough (1993) {ECM 1493} free torrent downloads included crack, serial, keygen.Arild Andersen - If You Look Far Enough (1993) {ECM 1493} Fast Download via Rapidshare Hotfile Fileserve Filesonic Megaupload, Arild Andersen - If You Look Far Enough (1993) {ECM 1493} Torrents and Emule Download or anything related.
Leave a Comment
Your Name:
E-Mail:
Add Comments:

Enter Code: