Gino Vannelli - Inconsolable Man (1990) {Romantique}

Download Now

Gino Vannelli - Inconsolable Man (1990) {Romantique}

Gino Vannelli - Inconsolable Man (1990) {Romantique}
X Lossless Decoder | FLAC tracks | Cue+Log+M3U | Full Scans 600dpi | 445MB + 5% Recovery
MP3 CBR 320 Kbps | 125MB + 5% Recovery
Genre: Jazz-Pop, Fusion

"The stories that Gino tells in this work, his 14th album, seem to be clearly reflective of life experiences of an "inconsolable". Gino looks deeply into the mirror at his own reflection, and that of the culture he lives in, critically relfects on what he sees, and lyrically and musically expresses his insights."

Track List
01. Rhythm Of Romance 4:31
02. If I Should Lose This Love 4:32
03. Shame 5:24
04. Sunset On L.A. 4:15
05. Moment To Moment 4:48
06. Cry Of Love 4:47
07. The Time Of Day 4:26
08. Bound To Cry 4:14
09. The Joker's Wild 4:46
10. Inconsolable Man 5:04

musicians
Gino Vannelli - electric guitar, keyboards, drum programming, backing vocals
Joe Vannelli - keyboards
Mike Miller - electric, acoustic and classical guitar
David Garibaldi - drums and drum programming
Mark Craney - drum programming
Kirk Whalum - soprano sax
Ron Rochette - electric guitar

Produced by Gino Vannelli and Joe Vannelli

X Lossless Decoder version 20131102 (145.0)

XLD extraction logfile from 2014-01-12 16:50:38 +0300

Gino Vannelli / Inconsolable Man (510 129-2)

Used drive : HL-DT-ST DVDRAM GE20NU11 (revision CN01)
Media type : Pressed CD

Ripper mode : XLD Secure Ripper
Disable audio cache : OK for the drive with a cache less than 1375KiB
Make use of C2 pointers : NO
Read offset correction : 667
Max retry count : 20
Gap status : Analyzed, Appended

TOC of the extracted CD
Track | Start | Length | Start sector | End sector
--1 | 00:00:33 | 04:31:50 | 33 | 20407 2 | 04:32:08 | 04:32:37 | 20408 | 40844 3 | 09:04:45 | 05:24:00 | 40845 | 65144 4 | 14:28:45 | 04:15:53 | 65145 | 84322 5 | 18:44:23 | 04:48:07 | 84323 | 105929 6 | 23:32:30 | 04:47:08 | 105930 | 127462 7 | 28:19:38 | 04:26:45 | 127463 | 147457 8 | 32:46:08 | 04:14:65 | 147458 | 166572 9 | 37:00:73 | 04:46:22 | 166573 | 188044
10 | 41:47:20 | 05:04:13 | 188045 | 210857

AccurateRip Summary
Disc not found in AccurateRip DB.

All Tracks
Album gain : -5.07 dB
Peak : 0.999969
StatisticsRead error : 0Jitter error (maybe fixed) : 0Retry sector count : 0Damaged sector count : 0

Track 01
Filename : /OdW/Gino Vannelli (1990) Inconsolable Man (510 129-2)/01. Gino Vannelli - Rhythm Of Romance.flac
Pre-gap length : 00:02:33 Track gain : -5.19 dB
Peak : 0.999969
CRC32 hash (test run) : 3A84B242
CRC32 hash : 3A84B242
CRC32 hash (skip zero) : 94A220CB
AccurateRip v1 signature : 4E70F613
AccurateRip v2 signature : CE200802->Track not present in AccurateRip database.
StatisticsRead error : 0Jitter error (maybe fixed) : 0Retry sector count : 0Damaged sector count : 0

Track 02
Filename : /OdW/Gino Vannelli (1990) Inconsolable Man (510 129-2)/02. Gino Vannelli - If I Should Lose This Love.flac Track gain : -4.06 dB
Peak : 0.893738
CRC32 hash (test run) : FB615561
CRC32 hash : FB615561
CRC32 hash (skip zero) : 3DD02E3C
AccurateRip v1 signature : 2758F63B
AccurateRip v2 signature : 6C0A768A->Track not present in AccurateRip database.
StatisticsRead error : 0Jitter error (maybe fixed) : 0Retry sector count : 0Damaged sector count : 0

Track 03
Filename : /OdW/Gino Vannelli (1990) Inconsolable Man (510 129-2)/03. Gino Vannelli - Shame.flac Track gain : -4.96 dB
Peak : 0.980988
CRC32 hash (test run) : 9A71FF13
CRC32 hash : 9A71FF13
CRC32 hash (skip zero) : 4EB755C1
AccurateRip v1 signature : B718FF9B
AccurateRip v2 signature : 2E9E58A2->Track not present in AccurateRip database.
StatisticsRead error : 0Jitter error (maybe fixed) : 0Retry sector count : 0Damaged sector count : 0

Track 04
Filename : /OdW/Gino Vannelli (1990) Inconsolable Man (510 129-2)/04. Gino Vannelli - Sunset On L.A..flac Track gain : -4.48 dB
Peak : 0.976349
CRC32 hash (test run) : FC907A72
CRC32 hash : FC907A72
CRC32 hash (skip zero) : 2BA0AA97
AccurateRip v1 signature : 61997E33
AccurateRip v2 signature : FB711BCF->Track not present in AccurateRip database.
StatisticsRead error : 0Jitter error (maybe fixed) : 0Retry sector count : 0Damaged sector count : 0

Track 05
Filename : /OdW/Gino Vannelli (1990) Inconsolable Man (510 129-2)/05. Gino Vannelli - Moment To Moment.flac Track gain : -5.21 dB
Peak : 0.968658
CRC32 hash (test run) : 51CC3CDE
CRC32 hash : 51CC3CDE
CRC32 hash (skip zero) : 4F6ACEF8
AccurateRip v1 signature : 7C7A8FDA
AccurateRip v2 signature : 3AD4D600->Track not present in AccurateRip database.
StatisticsRead error : 0Jitter error (maybe fixed) : 0Retry sector count : 0Damaged sector count : 0

Track 06
Filename : /OdW/Gino Vannelli (1990) Inconsolable Man (510 129-2)/06. Gino Vannelli - Cry Of Love.flac Track gain : -5.18 dB
Peak : 0.999969
CRC32 hash (test run) : F50C8959
CRC32 hash : F50C8959
CRC32 hash (skip zero) : 9A924BE8
AccurateRip v1 signature : B7BDC2D7
AccurateRip v2 signature : 8057CD02->Track not present in AccurateRip database.
StatisticsRead error : 0Jitter error (maybe fixed) : 0Retry sector count : 0Damaged sector count : 0

Track 07
Filename : /OdW/Gino Vannelli (1990) Inconsolable Man (510 129-2)/07. Gino Vannelli - The Time Of Day.flac Track gain : -5.85 dB
Peak : 0.989746
CRC32 hash (test run) : ABC539AA
CRC32 hash : ABC539AA
CRC32 hash (skip zero) : 8F5B49AC
AccurateRip v1 signature : A49228EA
AccurateRip v2 signature : A79218EA->Track not present in AccurateRip database.
StatisticsRead error : 0Jitter error (maybe fixed) : 0Retry sector count : 0Damaged sector count : 0

Track 08
Filename : /OdW/Gino Vannelli (1990) Inconsolable Man (510 129-2)/08. Gino Vannelli - Bound To Cry.flac Track gain : -5.40 dB
Peak : 0.969238
CRC32 hash (test run) : 324D3CDF
CRC32 hash : 324D3CDF
CRC32 hash (skip zero) : E967F3BB
AccurateRip v1 signature : A7D6ED8C
AccurateRip v2 signature : 93851C6A->Track not present in AccurateRip database.
StatisticsRead error : 0Jitter error (maybe fixed) : 0Retry sector count : 0Damaged sector count : 0

Track 09
Filename : /OdW/Gino Vannelli (1990) Inconsolable Man (510 129-2)/09. Gino Vannelli - The Joker's Wild.flac Track gain : -2.84 dB
Peak : 0.982605
CRC32 hash (test run) : 20988C53
CRC32 hash : 20988C53
CRC32 hash (skip zero) : 6F4D3BD8
AccurateRip v1 signature : 98F042FA
AccurateRip v2 signature : 57AB664D->Track not present in AccurateRip database.
StatisticsRead error : 0Jitter error (maybe fixed) : 0Retry sector count : 0Damaged sector count : 0

Track 10
Filename : /OdW/Gino Vannelli (1990) Inconsolable Man (510 129-2)/10. Gino Vannelli - Inconsolable Man.flac Track gain : -5.32 dB
Peak : 0.981110
CRC32 hash (test run) : FE35AE20
CRC32 hash : FE35AE20
CRC32 hash (skip zero) : 7BA6277E
AccurateRip v1 signature : 94DAEC61
AccurateRip v2 signature : 27EC741D->Track not present in AccurateRip database.
StatisticsRead error : 0Jitter error (maybe fixed) : 0Retry sector count : 0Damaged sector count : 0

No errors occurred

End of status report

--BEGIN XLD SIGNATURE--
4Gvm58gGCVXmxOaaGU3UPvlIOPfxRnd3oJe8toF._gmIoyGMU.MedTEY_oDH59D6rB2_3.5oeY10B8p78Ao317EM36Lox4YPMzcnCIO
--END XLD SIGNATURE--

Analyzed: Gino Vannelli / Inconsolable Man

DR Peak RMS Duration Track

DR12 0.00 dB -13.70 dB 4:32 01-Rhythm Of Romance
DR11 -0.98 dB -14.64 dB 4:32 02-If I Should Lose This Love
DR11 -0.17 dB -13.24 dB 5:24 03-Shame
DR12 -0.21 dB -13.83 dB 4:16 04-Sunset On L.A.
DR11 -0.28 dB -13.27 dB 4:48 05-Moment To Moment
DR11 0.00 dB -14.32 dB 4:47 06-Cry Of Love
DR10 -0.09 dB -13.04 dB 4:27 07-The Time Of Day
DR11 -0.27 dB -13.03 dB 4:15 08-Bound To Cry
DR12 -0.15 dB -15.82 dB 4:46 09-The Joker's Wild
DR11 -0.17 dB -13.18 dB 5:04 10-Inconsolable Man

Number of tracks: 10
Official DR value: DR11

Samplerate: 44100 Hz
Channels: 2
Bits per sample: 16
Bitrate: 975 kbps
Codec: FLAC

Gino Vannelli - Inconsolable Man (1990) {Romantique}

Gino Vannelli - Inconsolable Man (1990) {Romantique}

Gino Vannelli - Inconsolable Man (1990) {Romantique}



DOWNLOAD LINKS
Buy Premium From My Links To Get Resumable Support & Max Speed & To Support Me


Links are Interchangeable - No Password - Single Extraction
Direct Download

Tags: Vannelli, Inconsolable, Romantique

Gino Vannelli - Inconsolable Man (1990) {Romantique} Download via Hotfile Rapidshare Fileserve Megaupload & FileSonic, Gino Vannelli - Inconsolable Man (1990) {Romantique} free torrent downloads included crack, serial, keygen.Gino Vannelli - Inconsolable Man (1990) {Romantique} Fast Download via Rapidshare Hotfile Fileserve Filesonic Megaupload, Gino Vannelli - Inconsolable Man (1990) {Romantique} Torrents and Emule Download or anything related.
Leave a Comment
Your Name:
E-Mail:
Add Comments:

Enter Code: