Sean Tyla - Just Popped Out (1980) / Redneck In Babylon (1981) [2003, Mystic Records, MYS CD 164]

Download Now

Sean Tyla - Just Popped Out (1980) / Redneck In Babylon (1981) [2003, Mystic Records, MYS CD 164]

Sean Tyla - Just Popped Out (1980) / Redneck In Babylon (1981)
EAC | Flac(Image) + Cue + Log & MP3 CBR 320Kbps
Mystic Records, MYS CD 164 | ~ 536 or 194 Mb | Scans Included
Classic Rock / Pub Rock / Rock & Roll

"In 2003, Mystic Records issued Just Popped Out/Redneck in Babylon, which contained two complete albums, Just Popped Out from 1980 and Redneck in Babylon from 1981, on a single compact disc."


Tracklist:

Sean Tyla's Just Popped Out
AM (Suitable For Adults)
01. Breakfast In Marin
02. Diamond Lane
03. Undercover Lover
04. Lonelyhearts
05. Freeway In The Rain
FM (Only For Fun)
06. Credit Card Bash
07. Nosferatu
08. Big Fat Zero
09. Chase The Fire
10. Falling In Love Agin
Redneck In Babylon
11. Guten Abend
12. Casino Queen
13. Daddy Put The Bomp
14. Turn On The Fun
15. Let Me Love You
16. Phantom Of The Late Show
17. Landing Lights
18. Land Of The Buffalo Roam
19. Pink Cafe
20. The Babylon Suite
21. Paradise Lost

Exact Audio Copy V1.0 beta 3 from 29. August 2011

EAC extraction logfile from 13. March 2012, 0:31

Sean Tyla / Just Popped Out - Redneck In Babylon

Used drive : HL-DT-STDVDRAM GSA-T40N Adapter: 1 ID: 0

Read mode : Secure
Utilize accurate stream : Yes
Defeat audio cache : Yes
Make use of C2 pointers : No

Read offset correction

: 667
Overread into Lead-In and Lead-Out : No
Fill up missing offset samples with silence : Yes
Delete leading and trailing silent blocks : No
Null samples used in CRC calculations : Yes
Used interface
: Native Win32 interface for Win NT & 2000
Gap handling
: Appended to previous track

Used output format : User Defined Encoder
Selected bitrate : 1024 kBit/s
Quality : High
Add ID3 tag : No
Command line compressor : C:\Program Files\Exact Audio Copy\Flac\flac.exe
Additional command line options : -8 -V -T "ARTIST=%artist%" -T "TITLE=%title%" -T "ALBUM=%albumtitle%" -T "DATE=%year%" -T "TRACKNUMBER=%tracknr%" -T "GENRE=%genre%" -T "PERFORMER=%albuminterpret%" -T "COMPOSER=%composer%" %haslyrics%--tag-from-file=LYRICS="%lyricsfile%"%haslyrics% -T "ALBUMARTIST=%albumartist%" -T "ALBUM ARTIST=%albumartist%" -T "DISCNUMBER=%cdnumber%" -T "TOTALDISCS=%totalcds%" -T "TOTALTRACKS=%numtracks%" -T "COMMENT=EAC V1.0 beta 2, Secure Mode, Test & Copy, AccurateRip, FLAC -8" %source% -o %dest%

TOC of the extracted CD Track | Start | Length | Start sector | End sector
--1 | 0:00.00 | 3:29.32 | 0 | 15706 2 | 3:29.32 | 3:12.71 | 15707 | 30177 3 | 6:42.28 | 3:29.60 | 30178 | 45912 4 | 10:12.13 | 3:54.64 | 45913 | 63526 5 | 14:07.02 | 3:37.31 | 63527 | 79832 6 | 17:44.33 | 4:09.18 | 79833 | 98525 7 | 21:53.51 | 2:40.10 | 98526 | 110535 8 | 24:33.61 | 3:13.35 | 110536 | 125045 9 | 27:47.21 | 3:26.24 | 125046 | 140519
10 | 31:13.45 | 3:23.19 | 140520 | 155763
11 | 34:36.64 | 1:21.52 | 155764 | 161890
12 | 35:58.41 | 3:49.15 | 161891 | 179080
13 | 39:47.56 | 4:09.48 | 179081 | 197803
14 | 43:57.29 | 3:11.70 | 197804 | 212198
15 | 47:09.24 | 3:22.16 | 212199 | 227364
16 | 50:31.40 | 3:37.10 | 227365 | 243649
17 | 54:08.50 | 3:39.19 | 243650 | 260093
18 | 57:47.69 | 5:02.47 | 260094 | 282790
19 | 62:50.41 | 3:17.45 | 282791 | 297610
20 | 66:08.11 | 6:29.24 | 297611 | 326809
21 | 72:37.35 | 3:21.58 | 326810 | 341942

Track 1 Filename E:\Video\Audio\Sean Tyla - [01] Breakfast In Marin.wav Pre-gap length 0:00:02.00 Peak level 99.9 %
Extraction speed 2.3 X
Track quality 100.0 %
Test CRC 3AB543E7
Copy CRC 3AB543E7
Accurately ripped (confidence 2) [FFC91AC9] (AR v1)
Copy OK

Track 2 Filename E:\Video\Audio\Sean Tyla - [02] Diamond Lane.wav Peak level 99.9 %
Extraction speed 2.5 X
Track quality 100.0 %
Test CRC 302A370A
Copy CRC 302A370A
Accurately ripped (confidence 2) [42852420] (AR v1)
Copy OK

Track 3 Filename E:\Video\Audio\Sean Tyla - [03] Undercover Lover.wav Peak level 99.9 %
Extraction speed 2.3 X
Track quality 99.9 %
Test CRC 0BE00883
Copy CRC 0BE00883
Accurately ripped (confidence 2) [621F10A7] (AR v1)
Copy OK

Track 4 Filename E:\Video\Audio\Sean Tyla - [04] Lonelyhearts.wav Peak level 99.9 %
Extraction speed 3.0 X
Track quality 100.0 %
Test CRC F6242243
Copy CRC F6242243
Accurately ripped (confidence 2) 55F353B (AR v1)
Copy OK

Track 5 Filename E:\Video\Audio\Sean Tyla - [05] Freeway In The Rain.wav Peak level 99.9 %
Extraction speed 3.1 X
Track quality 100.0 %
Test CRC 540C7B40
Copy CRC 540C7B40
Accurately ripped (confidence 2) [2193566F] (AR v1)
Copy OK

Track 6 Filename E:\Video\Audio\Sean Tyla - [06] Creditcard Bash.wav Peak level 99.9 %
Extraction speed 3.3 X
Track quality 100.0 %
Test CRC 586D28BB
Copy CRC 586D28BB
Accurately ripped (confidence 2) [47A31FF5] (AR v1)
Copy OK

Track 7 Filename E:\Video\Audio\Sean Tyla - [07] Nosferatu.wav Peak level 99.9 %
Extraction speed 3.3 X
Track quality 100.0 %
Test CRC 9206CAA9
Copy CRC 9206CAA9
Accurately ripped (confidence 2) [4AAE63B6] (AR v1)
Copy OK

Track 8 Filename E:\Video\Audio\Sean Tyla - [08] Big Fat ZeRo.wav Peak level 99.9 %
Extraction speed 3.4 X
Track quality 100.0 %
Test CRC 336C5E90
Copy CRC 336C5E90
Accurately ripped (confidence 2) 0E6A381 (AR v1)
Copy OK

Track 9 Filename E:\Video\Audio\Sean Tyla - [09] Chase The Fire.wav Peak level 99.9 %
Extraction speed 3.6 X
Track quality 100.0 %
Test CRC 2AC01A43
Copy CRC 2AC01A43
Accurately ripped (confidence 2) [DD49AF13] (AR v1)
Copy OK

Track 10 Filename E:\Video\Audio\Sean Tyla - [10] Falling In Love Again.wav Peak level 99.9 %
Extraction speed 3.7 X
Track quality 100.0 %
Test CRC 9B918265
Copy CRC 9B918265
Accurately ripped (confidence 2) [375BBE7B] (AR v1)
Copy OK

Track 11 Filename E:\Video\Audio\Sean Tyla - [11] Guten Abend.wav Peak level 99.9 %
Extraction speed 3.0 X
Track quality 100.0 %
Test CRC 9A5D9F05
Copy CRC 9A5D9F05
Accurately ripped (confidence 2) [E6C54D81] (AR v1)
Copy OK

Track 12 Filename E:\Video\Audio\Sean Tyla - [12] Casino Queen.wav Peak level 99.9 %
Extraction speed 4.0 X
Track quality 100.0 %
Test CRC B1DB2D97
Copy CRC B1DB2D97
Accurately ripped (confidence 2) D74042A (AR v1)
Copy OK

Track 13 Filename E:\Video\Audio\Sean Tyla - [13] Daddy Put The Bomp.wav Peak level 99.9 %
Extraction speed 3.7 X
Track quality 99.9 %
Test CRC C6671B41
Copy CRC C6671B41
Accurately ripped (confidence 2) [8135AEF5] (AR v1)
Copy OK

Track 14 Filename E:\Video\Audio\Sean Tyla - [14] Turn On The Fun.wav Peak level 99.9 %
Extraction speed 4.1 X
Track quality 100.0 %
Test CRC 8072B181
Copy CRC 8072B181
Accurately ripped (confidence 2) [62E4A981] (AR v1)
Copy OK

Track 15 Filename E:\Video\Audio\Sean Tyla - [15] Let Me Love You.wav Peak level 99.9 %
Extraction speed 4.2 X
Track quality 100.0 %
Test CRC D9F0BB54
Copy CRC D9F0BB54
Accurately ripped (confidence 2) D9669C6 (AR v1)
Copy OK

Track 16 Filename E:\Video\Audio\Sean Tyla - [16] Phantom Of The Late Show.wav Peak level 99.9 %
Extraction speed 3.8 X
Track quality 99.9 %
Test CRC 77E73612
Copy CRC 77E73612
Accurately ripped (confidence 2) [EBFA4A5F] (AR v1)
Copy OK

Track 17 Filename E:\Video\Audio\Sean Tyla - [17] Landing Lights.wav Peak level 99.9 %
Extraction speed 4.5 X
Track quality 100.0 %
Test CRC 6C59F829
Copy CRC 6C59F829
Accurately ripped (confidence 2) [113EBFE0] (AR v1)
Copy OK

Track 18 Filename E:\Video\Audio\Sean Tyla - [18] Land Of The Buffalo Roam.wav Peak level 99.9 %
Extraction speed 4.8 X
Track quality 100.0 %
Test CRC F39DC0FA
Copy CRC F39DC0FA
Accurately ripped (confidence 2) [8EA1C5EF] (AR v1)
Copy OK

Track 19 Filename E:\Video\Audio\Sean Tyla - [19] Pink Cafe.wav Peak level 99.9 %
Extraction speed 4.7 X
Track quality 100.0 %
Test CRC 29F1C4C5
Copy CRC 29F1C4C5
Accurately ripped (confidence 2) [9E0823A5] (AR v1)
Copy OK

Track 20 Filename E:\Video\Audio\Sean Tyla - [20] The Babylon Suite.wav Peak level 99.9 %
Extraction speed 5.2 X
Track quality 100.0 %
Test CRC AF3BF750
Copy CRC AF3BF750
Accurately ripped (confidence 2) [272DA284] (AR v1)
Copy OK

Track 21 Filename E:\Video\Audio\Sean Tyla - [21] Paradise Lost.wav Peak level 99.9 %
Extraction speed 5.0 X
Track quality 100.0 %
Test CRC 8AB272B4
Copy CRC 8AB272B4
Accurately ripped (confidence 2) [106846F6] (AR v1)
Copy OK

All tracks accurately ripped

No errors occurred

End of status report

==== Log checksum B32C3485801DD41068C294A7CC60C1067797E6D9365B632E0BA4DF5A2F85DDB5 ====

foobar2000 1.2.9 / Dynamic Range Meter 1.1.1
log date: 2015-08-06 23:26:06

Analyzed: Sean Tyla / Just Popped Out - Redneck In Babylon

DR Peak RMS Duration Track

DR10 0.00 dB -11.71 dB 3:29 01-Breakfast In Marin
DR8 0.00 dB -10.60 dB 3:13 02-Diamond Lane
DR10 0.00 dB -11.83 dB 3:30 03-Undercover Lover
DR9 0.00 dB -11.16 dB 3:55 04-Lonelyhearts
DR9 0.00 dB -11.82 dB 3:37 05-Freeway In The Rain
DR8 0.00 dB -9.78 dB 4:09 06-Creditcard Bash
DR9 0.00 dB -11.00 dB 2:40 07-Nosferatu
DR9 0.00 dB -11.52 dB 3:13 08-Big Fat ZeRo
DR9 0.00 dB -10.18 dB 3:26 09-Chase The Fire
DR8 0.00 dB -10.95 dB 3:23 10-Falling In Love Again
DR11 0.00 dB -13.16 dB 1:22 11-Guten Abend
DR8 0.00 dB -9.83 dB 3:49 12-Casino Queen
DR9 0.00 dB -12.06 dB 4:10 13-Daddy Put The Bomp
DR10 0.00 dB -12.23 dB 3:12 14-Turn On The Fun
DR10 0.00 dB -11.61 dB 3:22 15-Let Me Love You
DR9 0.00 dB -10.52 dB 3:37 16-Phantom Of The Late Show
DR8 0.00 dB -10.34 dB 3:39 17-Landing Lights
DR9 0.00 dB -10.82 dB 5:03 18-Land Of The Buffalo Roam
DR10 0.00 dB -11.18 dB 3:18 19-Pink Cafe
DR9 0.00 dB -12.61 dB 6:29 20-The Babylon Suite
DR9 0.00 dB -11.86 dB 3:22 21-Paradise Lost

Number of tracks: 21
Official DR value: DR9

Samplerate: 44100 Hz
Channels: 2
Bits per sample: 16
Bitrate: 932 kbps
Codec: FLAC

[CUETools log; Date: 06.08.2015 22:45:37; Version: 2.1.4]
[AccurateRip ID: 0036e1f5-034c0d53-3811cf15] found.
Track [ CRC | V2 ] Status
01 [ffc91ac9|e1b0e452] (2+0/2) Accurately ripped
02 [42852420|66216a1f] (2+0/2) Accurately ripped
03 [621f10a7|19a5c9da] (2+0/2) Accurately ripped
04 55f353b|f17e5468 (2+0/2) Accurately ripped
05 [2193566f|8ef5ee0c] (2+0/2) Accurately ripped
06 [47a31ff5|d90806d0] (2+0/2) Accurately ripped
07 [4aae63b6|64517573] (2+0/2) Accurately ripped
08 0e6a381|045b0730 (2+0/2) Accurately ripped
09 [dd49af13|34a946c5] (2+0/2) Accurately ripped
10 [375bbe7b|f41dc3b7] (2+0/2) Accurately ripped
11 [e6c54d81|b61ba604] (2+0/2) Accurately ripped
12 d74042a|e22dd2fc (2+0/2) Accurately ripped
13 [8135aef5|850e76c9] (2+0/2) Accurately ripped
14 [62e4a981|9001ae7e] (2+0/2) Accurately ripped
15 d9669c6|fa1a3e81 (2+0/2) Accurately ripped
16 [ebfa4a5f|51e31712] (2+0/2) Accurately ripped
17 [113ebfe0|3e6b3596] (2+0/2) Accurately ripped
18 [8ea1c5ef|0f506f5a] (2+0/2) Accurately ripped
19 [9e0823a5|3c0d0bef] (2+0/2) Accurately ripped
20 [272da284|8e0d1123] (2+0/2) Accurately ripped
21 [106846f6|ef7da779] (2+0/2) Accurately ripped

Track Peak [ CRC32 ] [W/O NULL] [ LOG ]
-- 99,9 [D1DEB1F2] [0E5E147B]
01 99,9 [3AB543E7] [7B1C5CE4] CRC32
02 99,9 [302A370A] [A8CF8144] CRC32
03 99,9 [0BE00883] [69DA5482] CRC32
04 99,9 [F6242243] [26AD6230] CRC32
05 99,9 [540C7B40] [A8F266EB] CRC32
06 99,9 [586D28BB] [27BEE11D] CRC32
07 99,9 [9206CAA9] 2BB16D1 CRC32
08 99,9 [336C5E90] [24817C1D] CRC32
09 99,9 [2AC01A43] [27FFCE6D] CRC32
10 99,9 [9B918265] [6A371532] CRC32
11 99,9 [9A5D9F05] [61C570E4] CRC32
12 99,9 1DB2D97 [1FB88A81] CRC32
13 99,9 [C6671B41] [DB87DD8E] CRC32
14 99,9 [8072B181] [28223CFE] CRC32
15 99,9 [D9F0BB54] [A84FE019] CRC32
16 99,9 [77E73612] [F1533C9B] CRC32
17 99,9 [6C59F829] [2226803B] CRC32
18 99,9 [F39DC0FA] [83F03141] CRC32
19 99,9 [29F1C4C5] [4551178B] CRC32
20 99,9 [AF3BF750] [1A0C3AA5] CRC32
21 99,9 [8AB272B4] [AF62ADE8] CRC32

Sean Tyla - Just Popped Out (1980) / Redneck In Babylon (1981) [2003, Mystic Records, MYS CD 164]

DOWNLOAD LINKS
Buy Premium From My Links To Get Resumable Support & Max Speed & To Support Me


Links are Interchangeable - No Password - Single Extraction
Direct Download

Tags: Popped, Redneck, Babylon, Mystic, Records

Sean Tyla - Just Popped Out (1980) / Redneck In Babylon (1981) [2003, Mystic Records, MYS CD 164] Download via Hotfile Rapidshare Fileserve Megaupload & FileSonic, Sean Tyla - Just Popped Out (1980) / Redneck In Babylon (1981) [2003, Mystic Records, MYS CD 164] free torrent downloads included crack, serial, keygen.Sean Tyla - Just Popped Out (1980) / Redneck In Babylon (1981) [2003, Mystic Records, MYS CD 164] Fast Download via Rapidshare Hotfile Fileserve Filesonic Megaupload, Sean Tyla - Just Popped Out (1980) / Redneck In Babylon (1981) [2003, Mystic Records, MYS CD 164] Torrents and Emule Download or anything related.
Leave a Comment
Your Name:
E-Mail:
Add Comments:

Enter Code: