Fight (Rob Halford): Discography (1993-2008) [7CD + DVD]

Download Now

Fight (Rob Halford): Discography (1993-2008) [7CD + DVD]

Fight (Rob Halford): Discography (1993-2008)
EAC | Flac(Image) + Cue + Log & MP3 CBR 320Kbps
7CD | Label: Various | ~ 2926 or 947 Mb | Scans(png) -> 6.99 Mb
DVD5: NTSC 4:3 (720x480) VBR | Dolby AC3, 2 ch, 192 kbps -> 4.26 Gb
Heavy Metal

"When lead singer and heavy metal legend Rob Halford left Judas Priest in the early '90s (following two decades of service in the veteran band), he quickly rebounded with a ferocious new metal band called Fight, which he co-founded with Priest drummer Scott Travis. Fleshing out the group's lineup with guitarists Russ Parrish and Brian Tilse and bassist Jay Jay, Halford took Fight into the studio and recorded War of Words in 1993..."

Taking a deliberate step away from the old-school tendencies and cartoon metal lyrics of his former band, Halford based the Fight's sound on the more sleek, thrash-oriented approach of newer metal outfits like Pantera and matched the intense sound with decidedly more topical and socially relevant lyrics. Although it didn't make much of a splash in the mainstream world, War of Words proved to be a hit among Halford's fans, and Fight embarked on a successful tour in 1993 and 1994.

Abandoning the elaborate staging, lights, and props that Priest was famous for, Halford and company delivered their material with the stripped-down intensity and hunger of a baby band while paying a debt to its past (and showing its commitment to heavy metal) with covers of Priest's "Freewheel Burning" and Black Sabbath's "Symptom of the Universe." Mutations, an EP of live tracks and remixes, was released in 1994, followed by Fight's second full-length release, 1995's A Small Deadly Space, which saw Russ Parrish replaced by new guitarist Mark Chaussee. The album, featuring a more collaborative songwriting approach from the band, offered a slightly toned-down version of War of Words' full-bore intensity and lacked the excitement of Parrish's fluid soloing, but otherwise maintained the straightforward metal sound and Halford's darker, real-life horror lyrical themes. A Small Deadly Space would be Fight's final offering; Halford disbanded the group in 1996 and moved on to new stylistic pastures with his next project, the Trent Reznor-produced Two.


by Andy Hinds, AMG
"

Fight (Rob Halford): Discography (1993-2008) [7CD + DVD]

Fight at Wiki | Fight at Discogs | Fight at Allmusic

***********
Fight (Rob Halford): Discography (1993-2008):

Fight (Rob Halford): Discography (1993-2008) [7CD + DVD]

CD01: Fight - War Of Words (1993)
EAC | Flac(Image) + Cue + Log & MP3 CBR 320Kbps
Epic / Sony, EK 57372 | ~ 430 or 162 Mb | Scans Included
Heavy Metal

"In some ways, this could have been a Judas Priest album. Since it was the first disc that Rob Halford worked on after his extended tenure in that group, that is certainly understandable. Clearly, he was most likely still aligned in that musical vein and a lot of the sounds here represent that fact. However, there are definitely some differences. First, you can hear a rawer, almost punk-ish aggressive texture on much of the material ("Nailed to the Gun" comes to mind). Next, Halford shows a wider range of vocal styles here than he did with Priest. In fact, there are several points where he sounds like Alice Cooper, and he tries his hand at the more guttural death metal vocal style. The lyrical content on the album has a maturity that Priest seldom, if ever, achieved as well. The recitation of the First Amendment during the title track is brilliant. In some ways, it's too bad that this group only lasted a couple of years. They had a lot of potential. The stunning power ballad "For All Eternity" alone is worth the price of admission for this part of their voyage.


by Gary Hill, AMG
"


Tracklist:

01. Into The Pit (4:13)
02. Nailed to the Gun (3:39)
03. Life In Black (4:35)
04. Immortal Sin (4:39)
05. War Of Words (4:29)
06. Laid To Rest (4:41)
07. For All Eternity (4:43)
08. Little Crazy (3:50)
09. Contortion (4:35)
10. Kill It (3:30)
11. Vicious (3:12)
12. Reality, A New Beginning / Jesus Saves (13:19)

Exact Audio Copy V1.0 beta 3 from 29. August 2011

EAC extraction logfile from 10. September 2014, 15:51

Fight / War Of Words [Epic, EK 57372, USA]

Used drive : PIONEER DVD-RW DVR-220L Adapter: 5 ID: 0

Read mode : Secure
Utilize accurate stream : Yes
Defeat audio cache : Yes
Make use of C2 pointers : No

Read offset correction

: 6
Overread into Lead-In and Lead-Out : No
Fill up missing offset samples with silence : Yes
Delete leading and trailing silent blocks : No
Null samples used in CRC calculations : Yes
Used interface
: Installed external ASPI interface

Used output format : User Defined Encoder
Selected bitrate : 1024 kBit/s
Quality : High
Add ID3 tag : No
Command line compressor : H:\Program Files\Exact Audio Copy\Flac\flac.exe
Additional command line options : -V -8 -T "Date=%year%" -T "Genre=%genre%" %source%

TOC of the extracted CD Track | Start | Length | Start sector | End sector
--1 | 0:00.00 | 4:13.37 | 0 | 19011 2 | 4:13.37 | 3:38.50 | 19012 | 35411 3 | 7:52.12 | 4:34.48 | 35412 | 56009 4 | 12:26.60 | 4:39.02 | 56010 | 76936 5 | 17:05.62 | 4:29.28 | 76937 | 97139 6 | 21:35.15 | 4:40.50 | 97140 | 118189 7 | 26:15.65 | 4:42.50 | 118190 | 139389 8 | 30:58.40 | 3:49.70 | 139390 | 156634 9 | 34:48.35 | 4:35.12 | 156635 | 177271
10 | 39:23.47 | 3:30.00 | 177272 | 193021
11 | 42:53.47 | 3:11.73 | 193022 | 207419
12 | 46:05.45 | 13:18.62 | 207420 | 267331

Range status and errors

Selected range Filename C:\CDRip by Deminbek\Fight - War Of Words [Epic, EK 57372, USA].wav Peak level 95.5 %
Extraction speed 7.8 X
Range quality 100.0 %
Test CRC 2B860E90
Copy CRC 2B860E90
Copy OK

No errors occurred


AccurateRip summary

Track 1 accurately ripped (confidence 6) [E0F1791E] (AR v2)
Track 2 accurately ripped (confidence 7) [4C4B8ADC] (AR v2)
Track 3 accurately ripped (confidence 7) [D8B1B02A] (AR v2)
Track 4 accurately ripped (confidence 6) [C4C8757B] (AR v2)
Track 5 accurately ripped (confidence 7) [66114310] (AR v2)
Track 6 accurately ripped (confidence 7) [AA785893] (AR v2)
Track 7 accurately ripped (confidence 7) [C293DDD5] (AR v2)
Track 8 accurately ripped (confidence 7) [5A0C9D3B] (AR v2)
Track 9 accurately ripped (confidence 7) [7EE41E7B] (AR v2)
Track 10 accurately ripped (confidence 7) [4E1C7FB8] (AR v2)
Track 11 accurately ripped (confidence 7) [5D1E7A56] (AR v2)
Track 12 accurately ripped (confidence 6) [9D03AD45] (AR v2)

All tracks accurately ripped

End of status report

- CUETools DB Plugin V2.1.4

[CTDB TOCID: t7VgofU7.yx2S.Y2dB4opO6awms-] found
Submit result: t7VgofU7.yx2S.Y2dB4opO6awms- has been confirmed
Track | CTDB Status
1 | (24/25) Accurately ripped
2 | (25/25) Accurately ripped
3 | (25/25) Accurately ripped
4 | (24/25) Accurately ripped
5 | (25/25) Accurately ripped
6 | (25/25) Accurately ripped
7 | (25/25) Accurately ripped
8 | (25/25) Accurately ripped
9 | (25/25) Accurately ripped
10 | (25/25) Accurately ripped
11 | (25/25) Accurately ripped
12 | (24/25) Accurately ripped

==== Log checksum CAEA66C6CCFBDEA86D686EDEB6AB4F6846240751312C681047E20D0B3C249E1D ====

foobar2000 1.2.9 / Dynamic Range Meter 1.1.1
log date: 2015-08-06 07:30:19

Analyzed: Fight / War Of Words [Epic, EK 57372, USA]

DR Peak RMS Duration Track

DR8 -0.40 dB -9.65 dB 4:13 01-Into The Pit
DR8 -0.40 dB -9.73 dB 3:39 02-Nailed to the Gun
DR8 -0.40 dB -10.01 dB 4:35 03-Life In Black
DR8 -0.57 dB -10.20 dB 4:39 04-Immortal Sin
DR8 -0.40 dB -9.73 dB 4:29 05-War Of Words
DR8 -0.45 dB -9.58 dB 4:41 06-Laid To Rest
DR9 -0.40 dB -12.06 dB 4:43 07-For All Eternity
DR8 -0.40 dB -9.88 dB 3:50 08-Little Crazy
DR8 -0.40 dB -10.77 dB 4:35 09-Contortion
DR7 -0.40 dB -8.96 dB 3:30 10-Kill It
DR8 -0.40 dB -9.30 dB 3:12 11-Vicious
DR8 -0.40 dB -12.94 dB 13:19 12-Reality, A New Beginning / Jesus Saves

Number of tracks: 12
Official DR value: DR8

Samplerate: 44100 Hz
Channels: 2
Bits per sample: 16
Bitrate: 932 kbps
Codec: FLAC

[CUETools log; Date: 04.08.2015 15:39:44; Version: 2.1.4]
[CTDB TOCID: t7VgofU7.yx2S.Y2dB4opO6awms-] found.
Track | CTDB Status
1 | (41/42) Accurately ripped
2 | (42/42) Accurately ripped
3 | (42/42) Accurately ripped
4 | (41/42) Accurately ripped
5 | (42/42) Accurately ripped
6 | (42/42) Accurately ripped
7 | (42/42) Accurately ripped
8 | (42/42) Accurately ripped
9 | (42/42) Accurately ripped
10 | (42/42) Accurately ripped
11 | (42/42) Accurately ripped
12 | (41/42) Accurately ripped
[AccurateRip ID: 00178e5c-00ddfd55-b40dec0c] found.
Track [ CRC | V2 ] Status
01 [978dfcf8|e0f1791e] (20+07/65) Accurately ripped
02 [847e3a45|4c4b8adc] (20+08/66) Accurately ripped
03 [22d14bec|d8b1b02a] (20+08/64) Accurately ripped
04 [757c7239|c4c8757b] (19+07/63) Accurately ripped
05 [31d18c7d|66114310] (19+08/62) Accurately ripped
06 [874aab8b|aa785893] (19+08/62) Accurately ripped
07 [e56956c1|c293ddd5] (19+08/62) Accurately ripped
08 [8c9930e5|5a0c9d3b] (19+08/65) Accurately ripped
09 [31d730a2|7ee41e7b] (19+08/62) Accurately ripped
10 [6e254306|4e1c7fb8] (19+08/62) Accurately ripped
11 [831269c0|5d1e7a56] (19+08/62) Accurately ripped
12 [a31cad20|9d03ad45] (19+07/60) Accurately ripped
Offsetted by -110:
01 [9d4ee2e0] (06/65) Accurately ripped
02 [e8f818f0] (06/66) Accurately ripped
03 [a7d49f46] (06/64) Accurately ripped
04 [9e58e864] (06/63) Accurately ripped
05 [f44212db] (06/62) Accurately ripped
06 [25cbdbb7] (06/62) Accurately ripped
07 [e0ff804b] (06/62) Accurately ripped
08 [d9d42ed1] (06/65) Accurately ripped
09 9b35a08 (06/62) Accurately ripped
10 [cf4e18c6] (06/62) Accurately ripped
11 [26e36975] (06/62) Accurately ripped
12 [1ea9094f] (06/60) Accurately ripped
Offsetted by 223:
01 [56f6dccd] (09/65) Accurately ripped
02 [f5d11b8f] (09/66) Accurately ripped
03 [cbe4a790] (09/64) Accurately ripped
04 [a93bbf15] (09/63) Accurately ripped
05 [ef43cf61] (09/62) Accurately ripped
06 [2cdaa745] (09/62) Accurately ripped
07 [329a0b98] (09/62) Accurately ripped
08 [c3d4bf4e] (09/65) Accurately ripped
09 [04090350] (09/62) Accurately ripped
10 [3d0212cb] (09/62) Accurately ripped
11 [fd46b99b] (09/62) Accurately ripped
12 [53fc688e] (09/60) Accurately ripped
Offsetted by 477:
01 [2f9b43ed] (04/65) Accurately ripped
02 [e03d72ed] (04/66) Accurately ripped
03 [7b2f2936] (04/64) Accurately ripped
04 [8271a280] (04/63) Accurately ripped
05 [dbb13e54] (04/62) Accurately ripped
06 [2e6026b1] (04/62) Accurately ripped
07 [4af80ebc] (04/62) Accurately ripped
08 [2886d905] (04/65) Accurately ripped
09 [486b8efa] (04/62) Accurately ripped
10 [5b9328fd] (04/62) Accurately ripped
11 [9eff6e4b] (04/62) Accurately ripped
12 [280426f7] (03/60) Accurately ripped
Offsetted by 598:
01 3e14776 (03/65) Accurately ripped
02 [f07dfcd9] (03/66) Accurately ripped
03 [85360f62] (03/64) Accurately ripped
04 [96178438] (02/63) Accurately ripped
05 [042b3680] (03/62) Accurately ripped
06 [968122e7] (03/62) Accurately ripped
07 [6d1f5069] (03/62) Accurately ripped
08 [cbbd0943] (03/65) Accurately ripped
09 [dbdc554f] (03/62) Accurately ripped
10 [96b55548] (03/62) Accurately ripped
11 [91a69e95] (03/62) Accurately ripped
12 [90f5548a] (03/60) Accurately ripped
Offsetted by 133:
01 [dbb16f84] (00/65) No match (V2 was not tested)
02 [27cc267f] (00/66) No match (V2 was not tested)
03 [ab42a7d5] (00/64) No match (V2 was not tested)
04 [54b4fec4] (00/63) No match (V2 was not tested)
05 [3fe7a9d7] (00/62) No match (V2 was not tested)
06 76fc202 (00/62) No match (V2 was not tested)
07 [dbb0d4e5] (00/62) No match (V2 was not tested)
08 [8a605c5e] (00/65) No match (V2 was not tested)
09 [74c6ab5e] (00/62) No match (V2 was not tested)
10 460b770 (00/62) No match (V2 was not tested)
11 [a9ab29d9] (00/62) No match (V2 was not tested)
12 [65934448] (00/60) No match (V2 was not tested)
Offsetted by 182:
01 [a8562d7c] (02/65) Accurately ripped
02 [5b0f2556] (02/66) Accurately ripped
03 [2993bc15] (02/64) Accurately ripped
04 [4c922e2f] (02/63) Accurately ripped
05 [f820ed10] (02/62) Accurately ripped
06 [3f3dc256] (02/62) Accurately ripped
07 [11c9ad6d] (02/62) Accurately ripped
08 [17764ee8] (02/65) Accurately ripped
09 [1efc4d18] (02/62) Accurately ripped
10 39d9e94 (02/62) Accurately ripped
11 [e1f2294f] (02/62) Accurately ripped
12 [ce7320d6] (00/60) No match (V2 was not tested)

Track Peak [ CRC32 ] [W/O NULL] [ LOG ]
-- 95,5 [2B860E90] [677D9243] CRC32
01 95,5 [D10E2867] [6622BF6B]
02 95,5 [400C9011] [A2D246CB]
03 95,5 [2BA6AE2C] [776B564E]
04 93,6 [F081AD9F] [0E4C27B6]
05 95,5 [71AEB9D3] [E8637641]
06 94,9 [408E231C] [ACC6732A]
07 95,5 [4F451A0D] E5ED4FA
08 95,5 [64F3BAE8] [E3E01A0E]
09 95,5 [0A043D8A] [3770AE67]
10 95,5 [67330EFC] [A120767F]
11 95,5 [D121FA43] [71DF8424]
12 95,5 [7FEB1005] [599F9383]

* * * * *

Fight (Rob Halford): Discography (1993-2008) [7CD + DVD]

CD02: Fight - Mutations (1994)
EAC | Flac(Image) + Cue + Log & MP3 CBR 320Kbps
Sony, SICP-2430 | ~ 399 or 127 Mb | Scans(png) -> 72 Mb
Heavy Metal

"Four live tracks (including Priest's "Freewheel Burning") and five remixes from War of Words are featured on this second release. The remixes are noteworthy because of their tendency toward industrial dance sounds, and are the precursor to Halford's work with guitarist John Lowery in the post-Fight group Two.


by Bryan Reesman, AMG
"


Tracklist:

01. Into the pit (live) (4:11)
02. Nailed to the gun (live) (3:35)
03. Freewheel burning (live) (4:45)
04. Little crazy (live) (4:57)
05. War of words (Bloody Tongue mix) (6:48)
06. Kill it (Dutch death mix) (3:52)
07. Vicious (Middle finger mix) (6:07)
08. Immortal sin (Tolerance mix) (5:49)
09. Little crazy (Straight jacket mix) (5:55)
10. Culture of corruption (War of words-bonusremix) (3:47)
11. Lost faith mix (Kill it-Bonus remix) (3:53)

Exact Audio Copy V0.99 prebeta 5 from 4. May 2009

Archivo Log de extracciones desde 19. Junio 2015, 20:29

Fight / Mutations - Japan (SICP-2430)

Usar unidad : HL-DT-STDVDRAM GH22NS70 Adapter: 0 ID: 0

Modo de Lectura : Seguro
Utilizar Corriente Exacta : Sн
Descartar Audio cachй : Sн
Utilizar los punteros C2 : No

Correcciуn de Desplazamiento de Lectura : 667
Sobreleer tanto en Lead-In como en Lead-Out : No
Rellenar las muestras faltantes con silencios : Sн
Eliminar silencios inicial y final : No
Se han usado muestras nulas en los cбlculos CRC : Sн
Interfaz usada
: Interfaz propio de Win32 para Windowns NT y 2000

Formato de Salida utilizado : Compresor definido por el usuario
Bitrate seleccionado

: 32 kBit/s
Calidad
: Alta
Aсadir Etiqueta ID3

: No
Compresor de linea de comandos : C:\Program Files (x86)\Exact Audio Copy\Flac\flac.exe
Opciones adicionales en lнnea de comandos : -6 -V %s

TOC del CD extraido Pista | Inicio | Duraciуn | Sector inicial | Sector final
1 | 0:00.00 | 4:10.73 | 0 | 18822 2 | 4:10.73 | 3:34.65 | 18823 | 34937 3 | 7:45.63 | 4:45.02 | 34938 | 56314 4 | 12:30.65 | 4:56.67 | 56315 | 78581 5 | 17:27.57 | 6:48.14 | 78582 | 109195 6 | 24:15.71 | 3:51.71 | 109196 | 126591 7 | 28:07.67 | 6:06.57 | 126592 | 154098 8 | 34:14.49 | 5:49.27 | 154099 | 180300 9 | 40:04.01 | 5:55.19 | 180301 | 206944
10 | 45:59.20 | 3:47.29 | 206945 | 223998
11 | 49:46.49 | 3:53.01 | 223999 | 241474

Gama de estados y errores

Seleccionar gama Nombre de Archivo E:\Mъsica\EAC\Fight\Mutations\Fight - Mutations - Japan (SICP-2430).wav Nivel Pico 100.0 %
Gama de Calidad 100.0 %
Test CRC E3A54F21
Copiar CRC E3A54F21
Copia OK

Sin Errores


Resumen AccurateRip

Pista 1 no se puede verificar como preciso (confianza 1) [25C1E3B4], AccurateRip devuelto 8278754
Pista 2 no se puede verificar como preciso (confianza 1) [8F44628B], AccurateRip devuelto [4ABB4657]
Pista 3 no se puede verificar como preciso (confianza 1) E349D7B, AccurateRip devuelto [6BE1ABFA]
Pista 4 no se puede verificar como preciso (confianza 1) [C0F18326], AccurateRip devuelto [74042490]
Pista 5 no se puede verificar como preciso (confianza 1) [3B075DC9], AccurateRip devuelto 648646A
Pista 6 no se puede verificar como preciso (confianza 1) [AF9B9248], AccurateRip devuelto [E45E9CAF]
Pista 7 no se puede verificar como preciso (confianza 1) [738614E3], AccurateRip devuelto [92D8A6E4]
Pista 8 no se puede verificar como preciso (confianza 1) [5EF3FDB1], AccurateRip devuelto [FA538A4B]
Pista 9 no se puede verificar como preciso (confianza 1) [4EBE42DC], AccurateRip devuelto [5DEE43FE]
Pista 10 no se puede verificar como preciso (confianza 1) [2C334098], AccurateRip devuelto [0F38797A]
Pista 11 no se puede verificar como preciso (confianza 1) [CD6D798B], AccurateRip devuelto [5C2AE380]

No se verificarб ninguna pista como precisa
Puede que tengas una ediciуn diferente a la(s) de la base de datos

Final del Informe

foobar2000 1.2.9 / Dynamic Range Meter 1.1.1
log date: 2015-08-06 11:02:32

Analyzed: Fight / Mutations - Japan (SICP-2430)

DR Peak RMS Duration Track

DR9 0.00 dB -10.18 dB 4:11 01-Into the pit (live)
DR9 0.00 dB -10.29 dB 3:35 02-Nailed to the gun (live)
DR9 0.00 dB -10.13 dB 4:45 03-Freewheel burning (live)
DR10 0.00 dB -11.96 dB 4:57 04-Little crazy (live)
DR9 -1.00 dB -11.90 dB 6:48 05-War of words (Bloody Tongue mix)
DR8 -1.00 dB -10.01 dB 3:52 06-Kill it (Dutch death mix)
DR9 -1.00 dB -11.45 dB 6:07 07-Vicious (Middle finger mix)
DR6 -1.35 dB -9.04 dB 5:49 08-Immortal sin (Tolerance mix)
DR10 -1.20 dB -12.28 dB 5:55 09-Little crazy (Straight jacket mix)
DR9 -0.10 dB -10.05 dB 3:47 10-Culture of corruption (War of words-bonusremix)
DR9 -0.10 dB -9.73 dB 3:53 11-Lost faith mix (Kill it-Bonus remix)

Number of tracks: 11
Official DR value: DR9

Samplerate: 44100 Hz
Channels: 2
Bits per sample: 16
Bitrate: 1009 kbps
Codec: FLAC

[CUETools log; Date: 04.08.2015 15:42:35; Version: 2.1.4]
[CTDB TOCID: e0hcOpDANOJ39Ki89AbAzmQ.iQQ-] disk not present in database.
[AccurateRip ID: 0015d6e1-00c0162f-a50c930b] found.
Track [ CRC | V2 ] Status
01 [25c1e3b4|b8278754] (0+1/1) Accurately ripped
02 [8f44628b|4abb4657] (0+1/1) Accurately ripped
03 e349d7b|6be1abfa (0+1/1) Accurately ripped
04 [c0f18326|74042490] (0+1/1) Accurately ripped
05 [3b075dc9|b648646a] (0+1/1) Accurately ripped
06 [af9b9248|e45e9caf] (0+1/1) Accurately ripped
07 [738614e3|92d8a6e4] (0+1/1) Accurately ripped
08 [5ef3fdb1|fa538a4b] (0+1/1) Accurately ripped
09 [4ebe42dc|5dee43fe] (0+1/1) Accurately ripped
10 [2c334098|0f38797a] (0+1/1) Accurately ripped
11 [cd6d798b|5c2ae380] (0+1/1) Accurately ripped

Track Peak [ CRC32 ] [W/O NULL]
-- 100,0 [E3A54F21] [4C8E98A0]
01 100,0 [51C26378] [C8CA49BF]
02 100,0 [9E1424E2] [A0C111D3]
03 100,0 [C55CD3F1] [FD5B8711]
04 100,0 [2D2640DC] [5FCE605B]
05 89,1 [188FA43F] [EB1F3F97]
06 89,1 [0DBFBB70] [30C47625]
07 89,1 [F380D062] [E3C33646]
08 85,5 [5DB288E6] F4140AA
09 87,1 [31A6BEEA] [36C349C6]
10 98,8 [26A8E0A4] [6C08CE0D]
11 98,8 [15D789A0] [3B62719C]

* * * * *

Fight (Rob Halford): Discography (1993-2008) [7CD + DVD]

CD03: Fight - A Small Deadly Space (1995)
EAC | Flac(Image) + Cue + Log & MP3 CBR 320Kbps
Sony, SICP-2431 | ~ 370 or 115 Mb | Scans(png) -> 105 Mb
Heavy Metal

"The final album from Rob Halford's first post-Judas Priest band, Fight, A Small Deadly Space is definitely a strong one. The main course for the meal that Halford and the rest of the band (Brian Tilse, Jay Jay, Mark Chaussee, and Scott Travis) have served up is heavy metal. There is no real surprise there. However, there are actually quite a few moments that show off more progressive influences. You just have to give a cursory listen to "In a World of My Own Making" to spot them. The disc found Halford seeming like he was making a solid effort to not reproduce his Judas Priest sound. Indeed, the disc showed a Rob Halford who was staying more to the lower end of the register rather than screaming out in a Priest-ish display of vocal pyrotechnics. Overall, this is a great album, and certainly a nice bookend for the group's brief career.


by Gary Hill, AMG
"


Tracklist:

01. Beneath The Violence (5:06)
02. Legacy Of Hate (4:39)
03. Never Again (3:56)
04. Mouthpiece (3:22)
05. I Am Alive (5:03)
06. A Small Deadly Space (5:21)
07. Gretna Greene (3:56)
08. Human Crate (6:04)
09. Blowout In The Radio Room (4:14)
10. In A World Of My Own Making (7:01)

Exact Audio Copy V0.99 prebeta 5 from 4. May 2009

Archivo Log de extracciones desde 19. Junio 2015, 20:09

Fight / A Small Deadly Space - Japan (SICP-2431)

Usar unidad : HL-DT-STDVDRAM GH22NS70 Adapter: 0 ID: 0

Modo de Lectura : Seguro
Utilizar Corriente Exacta : Sн
Descartar Audio cachй : Sн
Utilizar los punteros C2 : No

Correcciуn de Desplazamiento de Lectura : 667
Sobreleer tanto en Lead-In como en Lead-Out : No
Rellenar las muestras faltantes con silencios : Sн
Eliminar silencios inicial y final : No
Se han usado muestras nulas en los cбlculos CRC : Sн
Interfaz usada
: Interfaz propio de Win32 para Windowns NT y 2000

Formato de Salida utilizado : Compresor definido por el usuario
Bitrate seleccionado

: 32 kBit/s
Calidad
: Alta
Aсadir Etiqueta ID3

: No
Compresor de linea de comandos : C:\Program Files (x86)\Exact Audio Copy\Flac\flac.exe
Opciones adicionales en lнnea de comandos : -6 -V %s

TOC del CD extraido Pista | Inicio | Duraciуn | Sector inicial | Sector final
1 | 0:00.00 | 5:06.32 | 0 | 22981 2 | 5:06.32 | 4:38.68 | 22982 | 43899 3 | 9:45.25 | 3:56.37 | 43900 | 61636 4 | 13:41.62 | 3:22.25 | 61637 | 76811 5 | 17:04.12 | 5:02.39 | 76812 | 99500 6 | 22:06.51 | 5:21.23 | 99501 | 123598 7 | 27:27.74 | 3:56.33 | 123599 | 141331 8 | 31:24.32 | 6:04.14 | 141332 | 168645 9 | 37:28.46 | 4:13.64 | 168646 | 187684
10 | 41:42.35 | 7:00.65 | 187685 | 219249

Gama de estados y errores

Seleccionar gama Nombre de Archivo E:\Mъsica\EAC\Fight\A Small Deadly Space\Fight - A Small Deadly Space - Japan (SICP-2431).wav Nivel Pico 100.0 %
Gama de Calidad 100.0 %
Test CRC 2E06DE0F
Copiar CRC 2E06DE0F
Copia OK

Sin Errores


Resumen AccurateRip

Pista 1 no presente en la base de datos
Pista 2 no presente en la base de datos
Pista 3 no presente en la base de datos
Pista 4 no presente en la base de datos
Pista 5 no presente en la base de datos
Pista 6 no presente en la base de datos
Pista 7 no presente en la base de datos
Pista 8 no presente en la base de datos
Pista 9 no presente en la base de datos
Pista 10 no presente en la base de datos

Ninguna de las pistas estб presente en la base de datos AccurateRip

foobar2000 1.2.9 / Dynamic Range Meter 1.1.1
log date: 2015-08-06 11:02:53

Analyzed: Fight / A Small Deadly Space - Japan (SICP-2431)

DR Peak RMS Duration Track

DR6 0.00 dB -8.05 dB 5:06 01-Beneath The Violence
DR7 0.00 dB -8.07 dB 4:39 02-Legacy Of Hate
DR7 -0.18 dB -7.82 dB 3:56 03-Never Again
DR6 -0.17 dB -7.64 dB 3:22 04-Mouthpiece
DR8 0.00 dB -8.67 dB 5:03 05-I Am Alive
DR7 0.00 dB -7.89 dB 5:21 06-A Small Deadly Space
DR7 0.00 dB -7.89 dB 3:56 07-Gretna Greene
DR7 0.00 dB -8.70 dB 6:04 08-Human Crate
DR7 -0.27 dB -8.76 dB 4:14 09-Blowout In The Radio Room
DR8 -0.01 dB -11.78 dB 7:01 10-In A World Of My Own Making

Number of tracks: 10
Official DR value: DR7

Samplerate: 44100 Hz
Channels: 2
Bits per sample: 16
Bitrate: 1031 kbps
Codec: FLAC

[CUETools log; Date: 04.08.2015 15:45:09; Version: 2.1.4]
[CTDB TOCID: azd3H_TWFHOGHF2BVfcmE2I9i4s-] disk not present in database.
[AccurateRip ID: 00117a00-008c7ef6-840b6b0a] disk not present in database.

Track Peak [ CRC32 ] [W/O NULL]
-- 100,0 [2E06DE0F] [84C93FD6]
01 100,0 [113EC6A9] [146D9DAD]
02 100,0 [C6CDC705] [89BA1D81]
03 97,9 [5D707BB7] [93CADC53]
04 98,0 [7E8951CB] 7564446
05 100,0 [183FDEF5] [A7692102]
06 100,0 [6F17BA91] [83BA343B]
07 100,0 [0FDBA3E7] 965DB5E
08 100,0 [91ADAB9D] [46244411]
09 96,9 [3B3E58DF] [F57554E5]
10 99,8 [656D276F] [EA53B32A]

* * * * *

Fight (Rob Halford): Discography (1993-2008) [7CD + DVD]

CD04: Fight - K5 - War Of Words Demos (2006)
EAC | Flac(Image) + Cue + Log & MP3 CBR 320Kbps
Sony, SICP-1739 | ~ 594 or 178 Mb | Scans(png) -> 261 Mb
Heavy Metal

"K5 - The War of Words Demos is a compilation album from the heavy metal band Fight, released on CD in 2007. The album consists of demo recordings made by Fight in July 1992 in Phoenix, Arizona.


~ wiki
"


Tracklist:

01. Into The Pit (4:35)
02. Nailed To The Gun (3:35)
03. Now You Die (New 2006) (3:39)
04. Life In Black (4:54)
05. Kill It (3:34)
06. Contortion (4:22)
07. Forbidden (New 2006) (4:44)
08. War Of Words (4:59)
09. Psycho Suicide (4:48)
10. Down (New 2006) (4:41)
11. Vicious (3:16)
12. Beast Denies (New 2006) (4:49)
13. Laid To Rest (5:24)
14. Jesus Saves (3:40)
15. Dead Men Talk (New 2006) (5:12)
16. For All Eternity (4:38)
17. Solar Angels (Live Bonus Track for Japan) (4:35)

Exact Audio Copy V0.99 prebeta 5 from 4. May 2009

Archivo Log de extracciones desde 25. Febrero 2015, 0:08

FIGHT / The War Of Words Demos - Japan (SICP 1739)

Usar unidad : HL-DT-STDVDRAM GH22NS70 Adapter: 0 ID: 0

Modo de Lectura : Seguro
Utilizar Corriente Exacta : Sн
Descartar Audio cachй : Sн
Utilizar los punteros C2 : No

Correcciуn de Desplazamiento de Lectura : 667
Sobreleer tanto en Lead-In como en Lead-Out : No
Rellenar las muestras faltantes con silencios : Sн
Eliminar silencios inicial y final : No
Se han usado muestras nulas en los cбlculos CRC : Sн
Interfaz usada
: Interfaz propio de Win32 para Windowns NT y 2000

Formato de Salida utilizado : Compresor definido por el usuario
Bitrate seleccionado

: 32 kBit/s
Calidad
: Alta
Aсadir Etiqueta ID3

: No
Compresor de linea de comandos : C:\Program Files (x86)\Exact Audio Copy\Flac\flac.exe
Opciones adicionales en lнnea de comandos : -6 -V %s

TOC del CD extraido Pista | Inicio | Duraciуn | Sector inicial | Sector final
1 | 0:00.00 | 4:35.16 | 0 | 20640 2 | 4:35.16 | 3:35.32 | 20641 | 36797 3 | 8:10.48 | 3:38.49 | 36798 | 53196 4 | 11:49.22 | 4:53.65 | 53197 | 75236 5 | 16:43.12 | 3:34.28 | 75237 | 91314 6 | 20:17.40 | 4:21.41 | 91315 | 110930 7 | 24:39.06 | 4:44.06 | 110931 | 132236 8 | 29:23.12 | 4:59.24 | 132237 | 154685 9 | 34:22.36 | 4:48.16 | 154686 | 176301
10 | 39:10.52 | 4:41.05 | 176302 | 197381
11 | 43:51.57 | 3:15.66 | 197382 | 212072
12 | 47:07.48 | 4:48.65 | 212073 | 233737
13 | 51:56.38 | 5:23.50 | 233738 | 258012
14 | 57:20.13 | 3:40.33 | 258013 | 274545
15 | 61:00.46 | 5:12.12 | 274546 | 297957
16 | 66:12.58 | 4:38.10 | 297958 | 318817
17 | 70:50.68 | 4:34.69 | 318818 | 339436

Gama de estados y errores

Seleccionar gama Nombre de Archivo E:\Mъsica\EAC\Fight\FIGHT - The War Of Words Demos - Japan (SICP 1739).wav Nivel Pico 100.0 %
Gama de Calidad 100.0 %
Test CRC E9DD710A
Copiar CRC E9DD710A
Copia OK

Sin Errores


Resumen AccurateRip

Pista 1 extraido de modo preciso (nivel de confianza 1) [3D2F2390]
Pista 2 extraido de modo preciso (nivel de confianza 1) [8AA6ABB3]
Pista 3 extraido de modo preciso (nivel de confianza 1) [05F71BCE]
Pista 4 extraido de modo preciso (nivel de confianza 1) [0A02C041]
Pista 5 extraido de modo preciso (nivel de confianza 1) [CA68461E]
Pista 6 extraido de modo preciso (nivel de confianza 1) [84E7554D]
Pista 7 extraido de modo preciso (nivel de confianza 1) [AD357DD0]
Pista 8 extraido de modo preciso (nivel de confianza 1) [AFB2278F]
Pista 9 extraido de modo preciso (nivel de confianza 1) [57B5DD18]
Pista 10 extraido de modo preciso (nivel de confianza 1) [F6217701]
Pista 11 extraido de modo preciso (nivel de confianza 1) [3B8E285B]
Pista 12 extraido de modo preciso (nivel de confianza 1) [6AB5260D]
Pista 13 extraido de modo preciso (nivel de confianza 1) [2D87CB7D]
Pista 14 extraido de modo preciso (nivel de confianza 1) [6C11030B]
Pista 15 extraido de modo preciso (nivel de confianza 1) [56CBBF7F]
Pista 16 extraido de modo preciso (nivel de confianza 1) [3A24F42D]
Pista 17 extraido de modo preciso (nivel de confianza 1) [C2916152]

Todas las pistas extraidas de modo preciso

Final del Informe

foobar2000 1.2.9 / Dynamic Range Meter 1.1.1
log date: 2015-08-06 11:03:20

Analyzed: FIGHT / The War Of Words Demos - Japan (SICP 1739)

DR Peak RMS Duration Track

DR6 0.00 dB -7.19 dB 4:35 01-Into The Pit
DR6 -0.30 dB -7.29 dB 3:35 02-Nailed To The Gun
DR6 -0.30 dB -6.56 dB 3:39 03-Now You Die (New 2006)
DR6 -0.30 dB -7.84 dB 4:54 04-Life In Black
DR6 -0.30 dB -7.63 dB 3:34 05-Kill It
DR6 -0.30 dB -8.32 dB 4:22 06-Contortion
DR7 -0.08 dB -7.98 dB 4:44 07-Forbidden (New 2006)
DR6 -0.30 dB -7.91 dB 4:59 08-War Of Words
DR6 -0.30 dB -7.14 dB 4:48 09-Psycho Suicide
DR7 -0.30 dB -8.27 dB 4:41 10-Down (New 2006)
DR4 -0.60 dB -5.98 dB 3:16 11-Vicious
DR5 -0.27 dB -7.80 dB 4:49 12-Beast Denies (New 2006)
DR6 -0.30 dB -7.25 dB 5:24 13-Laid To Rest
DR7 0.00 dB -7.42 dB 3:40 14-Jesus Saves
DR6 -0.30 dB -7.37 dB 5:12 15-Dead Men Talk (New 2006)
DR7 -0.30 dB -9.56 dB 4:38 16-For All Eternity
DR5 -0.10 dB -6.70 dB 4:35 17-Solar Angels (Live Bonus Track for Japan)

Number of tracks: 17
Official DR value: DR6

Samplerate: 44100 Hz
Channels: 2
Bits per sample: 16
Bitrate: 1069 kbps
Codec: FLAC

[CUETools log; Date: 04.08.2015 15:47:35; Version: 2.1.4]
[CTDB TOCID: X7PWUWEGaIRDA_wQBFkMpcMCkP4-] disk not present in database.
[AccurateRip ID: 002d858d-0244c103-e811ad11] found.
Track [ CRC | V2 ] Status
01 [3d2f2390|f01151bf] (1+0/1) Accurately ripped
02 [8aa6abb3|3f34564c] (1+0/1) Accurately ripped
03 [05f71bce|8c3ba14d] (1+0/1) Accurately ripped
04 [0a02c041|f6399a21] (1+0/1) Accurately ripped
05 [ca68461e|b1e0b747] (1+0/1) Accurately ripped
06 [84e7554d|e837afef] (1+0/1) Accurately ripped
07 [ad357dd0|d8fa90fd] (1+0/1) Accurately ripped
08 [afb2278f|321a8343] (1+0/1) Accurately ripped
09 [57b5dd18|34f0b4b7] (1+0/1) Accurately ripped
10 [f6217701|ad293edf] (1+0/1) Accurately ripped
11 [3b8e285b|105e41fe] (1+0/1) Accurately ripped
12 [6ab5260d|e524d75d] (1+0/1) Accurately ripped
13 [2d87cb7d|8296a7be] (1+0/1) Accurately ripped
14 [6c11030b|00ea0407] (1+0/1) Accurately ripped
15 [56cbbf7f|9f745c03] (1+0/1) Accurately ripped
16 [3a24f42d|e623db95] (1+0/1) Accurately ripped
17 [c2916152|9641a344] (1+0/1) Accurately ripped

Track Peak [ CRC32 ] [W/O NULL]
-- 100,0 [E9DD710A] [190D5FB6]
01 100,0 [6BCFC3AD] [67FDA8E6]
02 96,6 [6CB03BA0] [0DE195A6]
03 96,6 [76E8EC8F] [1EB9691A]
04 96,6 [58639336] [5C48BB20]
05 96,6 [51E5F91B] [4515DB14]
06 96,6 [0F52C273] [433C496F]
07 99,1 [A3F866AB] [FA83E479]
08 96,6 [6FC37257] [4ADF706A]
09 96,6 [2693AEBD] [2BBBFEE9]
10 96,6 3F36E18 [806A80E2]
11 93,3 [69670245] [3A89F39B]
12 96,9 [6369BAA0] [E43D2C85]
13 96,6 [55995584] [FB2534B1]
14 100,0 [2AB2125A] C354FB0
15 96,6 [246AB802] [448264C0]
16 96,6 [0B5B75F3] [4D6F7667]
17 98,8 [1785F51E] 35CE494

* * * * *

Fight (Rob Halford): Discography (1993-2008) [7CD + DVD]

CD05-07: Fight - Into The Pit (2008)
EAC | Flac(Image) + Cue + Log & MP3 CBR 320Kbps
3CD | Metal God Ent., MGE7077130 | ~ 1133 or 365 Mb | Scans(png) -> 261 Mb
DVD5: NTSC 4:3 (720x480) VBR | Dolby AC3, 2 ch, 192 kbps -> 4.26 Gb
Heavy Metal

"For a brief period of time during the early to mid-'90s, it seemed like Rob Halford would be set to carry on in his metallic path with Fight for the foreseeable future. His first band after leaving Judas Priest in 1991, Fight continued in the 100-percent pure metal direction of the final Halford/Priest album, 1990s Painkiller, with a healthy dose of Pantera's power metal thrown in for good measure. However, Fight only mustered a total of three releases during their tenure together (one of which was a half live/half remix set) -- 1993's War of Words, 1994's Mutations, and 1995's A Small Deadly Space -- before splitting up. With these albums out of print by the early 21st century (and Halford's spotlight heightened by rejoining Priest around this time), it was only a matter of time until Fight's trio of releases was remastered and/or reissued. And in 2008, Fight got the box set treatment, with the three CD/one DVD set, Into the Pit. All three of the aforementioned discs are included here, and they sound as viciously metallic as they did during the first go 'round. But it's the DVD that will probably convince most Halford-holics to take the plunge with this set, as it contains a live concert, as well as a healthy helping of various footage circa this era. Overall, Into the Pit is a pretty darn impressively assembled package.


by Greg Prato, AMG
"


Tracklist CD1:

01. Into The Pit (4:26)
02. Nailed To The Gun (3:42)
03. Life In Black (4:37)
04. Immortal Sin (4:44)
05. War Of Words (4:55)
06. Laid To Rest (4:44)
07. For All Eternity (4:52)
08. Little Crazy (3:53)
09. Contortion (4:38)
10. Kill It (3:36)
11. Vicious (3:16)
12. Reality - A New Beginning (4:43)

Exact Audio Copy V1.0 beta 3 from 29. August 2011

EAC extraction logfile from 1. June 2014, 16:04

Fight / Into The Pit CD1 - War Of Words Remixed & Remastered

Used drive : TSSTcorpCDDVDW SH-222BB Adapter: 1 ID: 0

Read mode : Secure
Utilize accurate stream : Yes
Defeat audio cache : Yes
Make use of C2 pointers : No

Read offset correction

: 6
Overread into Lead-In and Lead-Out : No
Fill up missing offset samples with silence : Yes
Delete leading and trailing silent blocks : No
Null samples used in CRC calculations : Yes
Used interface
: Native Win32 interface for Win NT & 2000

Used output format : User Defined Encoder
Selected bitrate : 1024 kBit/s
Quality : High
Add ID3 tag : No
Command line compressor : C:\Program Files\Exact Audio Copy\FLAC\FLAC.EXE
Additional command line options : -V -8 -T "Date=%year%" -T "Genre=%genre%" %source%

TOC of the extracted CD Track | Start | Length | Start sector | End sector
--1 | 0:00.00 | 4:25.45 | 0 | 19919 2 | 4:25.45 | 3:41.50 | 19920 | 36544 3 | 8:07.20 | 4:37.07 | 36545 | 57326 4 | 12:44.27 | 4:43.45 | 57327 | 78596 5 | 17:27.72 | 4:55.36 | 78597 | 100757 6 | 22:23.33 | 4:44.37 | 100758 | 122094 7 | 27:07.70 | 4:52.05 | 122095 | 143999 8 | 32:00.00 | 3:53.16 | 144000 | 161490 9 | 35:53.16 | 4:38.23 | 161491 | 182363
10 | 40:31.39 | 3:35.47 | 182364 | 198535
11 | 44:07.11 | 3:15.38 | 198536 | 213198
12 | 47:22.49 | 4:43.06 | 213199 | 234429

Range status and errors

Selected range Filename C:\Users\inotuh\Desktop\Fight - Into The Pit CD1 - War Of Words Remixed & Remastered.wav Peak level 98.1 %
Extraction speed 7.5 X
Range quality 100.0 %
Test CRC 1664766B
Copy CRC 1664766B
Copy OK

No errors occurred


AccurateRip summary

Track 1 accurately ripped (confidence 6) [7F3E6905] (AR v2)
Track 2 accurately ripped (confidence 6) [5EC54BF0] (AR v2)
Track 3 accurately ripped (confidence 6) [5225DCB7] (AR v2)
Track 4 accurately ripped (confidence 6) 3894A04 (AR v2)
Track 5 accurately ripped (confidence 6) [C649AC82] (AR v2)
Track 6 accurately ripped (confidence 6) [ABBB8F8A] (AR v2)
Track 7 accurately ripped (confidence 6) [7FA41920] (AR v2)
Track 8 accurately ripped (confidence 6) EB8462C (AR v2)
Track 9 accurately ripped (confidence 6) [E03374FB] (AR v2)
Track 10 accurately ripped (confidence 6) [D67380DA] (AR v2)
Track 11 accurately ripped (confidence 6) [A1801759] (AR v2)
Track 12 accurately ripped (confidence 6) [EE091D62] (AR v2)

All tracks accurately ripped

End of status report

- CUETools DB Plugin V2.1.5

[CTDB TOCID: xUlrRFs6R9.W7YIcFD8._mJtNiw-] found
Submit result: xUlrRFs6R9.W7YIcFD8._mJtNiw- has been confirmed
Track | CTDB Status
1 | (3/3) Accurately ripped
2 | (3/3) Accurately ripped
3 | (3/3) Accurately ripped
4 | (3/3) Accurately ripped
5 | (3/3) Accurately ripped
6 | (3/3) Accurately ripped
7 | (3/3) Accurately ripped
8 | (3/3) Accurately ripped
9 | (3/3) Accurately ripped
10 | (3/3) Accurately ripped
11 | (3/3) Accurately ripped
12 | (3/3) Accurately ripped

==== Log checksum 6D240594B6A3E1D84773F6FC6DA353EDB49446F3E070D89141A8B006988DAA68 ====

foobar2000 1.2.9 / Dynamic Range Meter 1.1.1
log date: 2015-08-06 11:03:40

Analyzed: Fight / Into The Pit CD1 - War Of Words Remixed & Remastered

DR Peak RMS Duration Track

DR8 -0.16 dB -9.81 dB 4:26 01-Into The Pit
DR7 -0.21 dB -8.38 dB 3:42 02-Nailed To The Gun
DR8 -0.17 dB -9.73 dB 4:37 03-Life In Black
DR8 -0.21 dB -9.44 dB 4:44 04-Immortal Sin
DR7 -0.17 dB -9.30 dB 4:55 05-War Of Words
DR8 -0.17 dB -9.19 dB 4:44 06-Laid To Rest
DR8 -0.20 dB -10.96 dB 4:52 07-For All Eternity
DR8 -0.20 dB -10.36 dB 3:53 08-Little Crazy
DR8 -0.17 dB -10.05 dB 4:38 09-Contortion
DR8 -0.22 dB -9.58 dB 3:36 10-Kill It
DR8 -0.17 dB -9.12 dB 3:16 11-Vicious
DR9 -0.21 dB -10.54 dB 4:43 12-Reality - A New Beginning

Number of tracks: 12
Official DR value: DR8

Samplerate: 44100 Hz
Channels: 2
Bits per sample: 16
Bitrate: 961 kbps
Codec: FLAC

[CUETools log; Date: 04.08.2015 15:32:01; Version: 2.1.4]
[CTDB TOCID: xUlrRFs6R9.W7YIcFD8._mJtNiw-] found.
Track | CTDB Status
1 | (7/7) Accurately ripped
2 | (7/7) Accurately ripped
3 | (7/7) Accurately ripped
4 | (7/7) Accurately ripped
5 | (7/7) Accurately ripped
6 | (7/7) Accurately ripped
7 | (7/7) Accurately ripped
8 | (7/7) Accurately ripped
9 | (7/7) Accurately ripped
10 | (7/7) Accurately ripped
11 | (7/7) Accurately ripped
12 | (7/7) Accurately ripped
[AccurateRip ID: 0017a3ce-00dc7cfb-b40c350c] found.
Track [ CRC | V2 ] Status
01 [a5d1c1ca|7f3e6905] (04+07/18) Accurately ripped
02 [a3304176|5ec54bf0] (04+07/19) Accurately ripped
03 [1eb81573|5225dcb7] (04+07/18) Accurately ripped
04 [6f55794e|b3894a04] (04+07/18) Accurately ripped
05 [927a0e67|c649ac82] (04+07/19) Accurately ripped
06 [7265a297|abbb8f8a] (04+07/18) Accurately ripped
07 [0cbd7d0d|7fa41920] (04+07/19) Accurately ripped
08 [47f679d7|beb8462c] (04+07/18) Accurately ripped
09 [87920a61|e03374fb] (04+07/19) Accurately ripped
10 [5917f2fa|d67380da] (04+07/18) Accurately ripped
11 8b70904|a1801759 (04+07/18) Accurately ripped
12 9284ba4|ee091d62 (04+07/18) Accurately ripped
Offsetted by 646:
01 [67098d08] (05/18) Accurately ripped
02 [6e586714] (05/19) Accurately ripped
03 [64455acb] (05/18) Accurately ripped
04 [abdbcde8] (05/18) Accurately ripped
05 [d60308fd] (05/19) Accurately ripped
06 [aba2da07] (05/18) Accurately ripped
07 6f9e2f3 (05/19) Accurately ripped
08 [0b4f870b] (05/18) Accurately ripped
09 [32aa9a0d] (05/19) Accurately ripped
10 [cd8e899e] (05/18) Accurately ripped
11 [6a314ff6] (05/18) Accurately ripped
12 [ccbf4818] (05/18) Accurately ripped

Track Peak [ CRC32 ] [W/O NULL] [ LOG ]
-- 98,1 [1664766B] [52968998] CRC32
01 98,1 [328A604D] [2325262D]
02 97,5 [7EE224C9] [1773A192]
03 98,1 [CD3F209B] [0BFC2417]
04 97,6 573C55E [D268C72A]
05 98,0 [9670BA08] [4A6A9BF2]
06 98,0 [443AB8D1] CF8E8BA
07 97,7 [E5A8C966] [4EF03DC6]
08 97,7 [D1A053CF] [27F3496B]
09 98,0 [182B38CB] [605D6750]
10 97,4 [50BB254A] [C6B6872A]
11 98,0 [EBC9DA33] [F11D36B3]
12 97,5 [CB8041E6] [AAC74747]

Tracklist CD2:

01. Into The Pit (Live) (4:11)
02. Nailed To The Gun (Live) (3:35)
03. Freewheel Burning (Live) (4:45)
04. Little Crazy (Live) (4:57)
05. War Of Words (Bloody Tongue Mix) (6:48)
06. Kill It (Dutch Death Mix) (3:52)
07. Vicious (Middle Finger Mix) (6:07)
08. Immortal Sin (Tolerance Mix) (5:49)
09. Little Crazy (Straight Jacket Mix) (5:55)
10. Culture Of Corruption Mix (War Of Words - Bonus Remix) (3:47)
11. Lost Faith Mix (Kill It - Bonus Remix) (3:53)

Exact Audio Copy V1.0 beta 3 from 29. August 2011

EAC extraction logfile from 1. June 2014, 21:42

Fight / Into The Pit CD2 - Mutations Remastered

Used drive : TSSTcorpCDDVDW SH-222BB Adapter: 1 ID: 0

Read mode : Secure
Utilize accurate stream : Yes
Defeat audio cache : Yes
Make use of C2 pointers : No

Read offset correction

: 6
Overread into Lead-In and Lead-Out : No
Fill up missing offset samples with silence : Yes
Delete leading and trailing silent blocks : No
Null samples used in CRC calculations : Yes
Used interface
: Native Win32 interface for Win NT & 2000

Used output format : User Defined Encoder
Selected bitrate : 1024 kBit/s
Quality : High
Add ID3 tag : No
Command line compressor : C:\Program Files\Exact Audio Copy\FLAC\FLAC.EXE
Additional command line options : -V -8 -T "Date=%year%" -T "Genre=%genre%" %source%

TOC of the extracted CD Track | Start | Length | Start sector | End sector
--1 | 0:00.00 | 4:10.73 | 0 | 18822 2 | 4:10.73 | 3:34.66 | 18823 | 34938 3 | 7:45.64 | 4:45.03 | 34939 | 56316 4 | 12:30.67 | 4:56.68 | 56317 | 78584 5 | 17:27.60 | 6:48.14 | 78585 | 109198 6 | 24:15.74 | 3:51.71 | 109199 | 126594 7 | 28:07.70 | 6:06.57 | 126595 | 154101 8 | 34:14.52 | 5:49.27 | 154102 | 180303 9 | 40:04.04 | 5:55.19 | 180304 | 206947
10 | 45:59.23 | 3:47.29 | 206948 | 224001
11 | 49:46.52 | 3:53.01 | 224002 | 241477

Range status and errors

Selected range Filename C:\Users\inotuh\Desktop\Fight - Into The Pit CD2 - Mutations Remastered.wav Peak level 100.0 %
Extraction speed 7.5 X
Range quality 100.0 %
Test CRC 3E616983
Copy CRC 3E616983
Copy OK

No errors occurred


AccurateRip summary

Track 1 accurately ripped (confidence 3) [A16F1CFC] (AR v2)
Track 2 accurately ripped (confidence 4) [E1742684] (AR v2)
Track 3 accurately ripped (confidence 4) 5D78BED (AR v2)
Track 4 accurately ripped (confidence 4) [FEDC3E4F] (AR v2)
Track 5 accurately ripped (confidence 4) [1E4E24DC] (AR v2)
Track 6 accurately ripped (confidence 4) [FA0EF50E] (AR v2)
Track 7 accurately ripped (confidence 4) [CF3448C1] (AR v2)
Track 8 accurately ripped (confidence 4) [107B610D] (AR v2)
Track 9 accurately ripped (confidence 4) [006D1F20] (AR v2)
Track 10 accurately ripped (confidence 4) [A288ACA3] (AR v2)
Track 11 accurately ripped (confidence 4) [1CC4D257] (AR v2)

All tracks accurately ripped

End of status report

- CUETools DB Plugin V2.1.5

[CTDB TOCID: 2HyW1K5Knh2L4LNoXZq.UfcUSSM-] found
Submit result: 2HyW1K5Knh2L4LNoXZq.UfcUSSM- has been confirmed
Track | CTDB Status
1 | (3/3) Accurately ripped
2 | (3/3) Accurately ripped
3 | (3/3) Accurately ripped
4 | (3/3) Accurately ripped
5 | (3/3) Accurately ripped
6 | (3/3) Accurately ripped
7 | (3/3) Accurately ripped
8 | (3/3) Accurately ripped
9 | (3/3) Accurately ripped
10 | (3/3) Accurately ripped
11 | (3/3) Accurately ripped

==== Log checksum BCFA9EFDDB9909FA87EBBB7319BCEE1D0C47437C2F06F1AC6E3F47D5038B3165 ====

foobar2000 1.2.9 / Dynamic Range Meter 1.1.1
log date: 2015-08-06 11:04:00

Analyzed: Fight / Into The Pit CD2 - Mutations Remastered

DR Peak RMS Duration Track

DR9 0.00 dB -10.18 dB 4:11 01-Into The Pit (Live)
DR9 0.00 dB -10.29 dB 3:35 02-Nailed To The Gun (Live)
DR9 0.00 dB -10.12 dB 4:45 03-Freewheel Burning (Live)
DR10 0.00 dB -11.96 dB 4:57 04-Little Crazy (Live)
DR9 -1.00 dB -11.90 dB 6:48 05-War Of Words (Bloody Tongue Mix)
DR8 -1.00 dB -10.01 dB 3:52 06-Kill It (Dutch Death Mix)
DR9 -1.00 dB -11.45 dB 6:07 07-Vicious (Middle Finger Mix)
DR6 -1.35 dB -9.04 dB 5:49 08-Immortal Sin (Tolerance Mix)
DR10 -1.20 dB -12.28 dB 5:55 09-Little Crazy (Straight Jacket Mix)
DR9 -0.10 dB -10.05 dB 3:47 10-Culture Of Corruption Mix (War Of Words - Bonus Remix)
DR9 -0.10 dB -9.73 dB 3:53 11-Lost Faith Mix (Kill It - Bonus Remix)

Number of tracks: 11
Official DR value: DR9

Samplerate: 44100 Hz
Channels: 2
Bits per sample: 16
Bitrate: 1002 kbps
Codec: FLAC

[CUETools log; Date: 04.08.2015 15:34:24; Version: 2.1.4]
[CTDB TOCID: 2HyW1K5Knh2L4LNoXZq.UfcUSSM-] found.
Track | CTDB Status
1 | (6/6) Accurately ripped
2 | (6/6) Accurately ripped
3 | (6/6) Accurately ripped
4 | (6/6) Accurately ripped
5 | (6/6) Accurately ripped
6 | (6/6) Accurately ripped
7 | (6/6) Accurately ripped
8 | (6/6) Accurately ripped
9 | (6/6) Accurately ripped
10 | (6/6) Accurately ripped
11 | (6/6) Accurately ripped
[AccurateRip ID: 0015d6fc-00c01706-a50c930b] found.
Track [ CRC | V2 ] Status
01 [ff268fe8|a16f1cfc] (03+04/11) Accurately ripped
02 [79587302|e1742684] (03+05/12) Accurately ripped
03 [28879db9|b5d78bed] (03+05/12) Accurately ripped
04 [86c36444|fedc3e4f] (03+05/12) Accurately ripped
05 [72a04a2f|1e4e24dc] (03+05/12) Accurately ripped
06 [17d0b40a|fa0ef50e] (03+05/12) Accurately ripped
07 [9ad2534f|cf3448c1] (03+05/12) Accurately ripped
08 [6d0bbf8b|107b610d] (03+05/12) Accurately ripped
09 [e6bdc056|006d1f20] (03+05/12) Accurately ripped
10 [3cf4e03b|a288aca3] (03+05/12) Accurately ripped
11 [db856824|1cc4d257] (03+05/12) Accurately ripped
Offsetted by 748:
01 [a6a25f61] (04/11) Accurately ripped
02 [51390409] (04/12) Accurately ripped
03 [6f04e96f] (04/12) Accurately ripped
04 [6ac997a2] (04/12) Accurately ripped
05 [0cbd5bb3] (04/12) Accurately ripped
06 [4b7ae502] (04/12) Accurately ripped
07 [fc92a617] (04/12) Accurately ripped
08 856ef87 (04/12) Accurately ripped
09 [da334412] (04/12) Accurately ripped
10 [e8f44532] (04/12) Accurately ripped
11 [93c416e5] (04/12) Accurately ripped

Track Peak [ CRC32 ] [W/O NULL] [ LOG ]
-- 100,0 [3E616983] [0C67B4F2] CRC32
01 100,0 [EB9A2A44] [25C4EC08]
02 100,0 [5137F432] [DFBACFCD]
03 100,0 [11CC714C] [E713CE04]
04 100,0 [993C4DA9] [33029288]
05 89,1 [23ACBC60] [EB1F3F97]
06 89,1 [E4A2D688] [E7B2824C]
07 89,1 [88234464] [E3C33646]
08 85,5 [DFAF64C1] F4140AA
09 87,1 [94047163] [36C349C6]
10 98,8 [F9C9FC73] [395E65DD]
11 98,8 [423F2EC1] [9F87B5D2]

Tracklist CD3:

01. Beneath The Violence (5:07)
02. Legacy Of Hate (4:39)
03. Never Again (3:57)
04. Mouthpiece (3:22)
05. I Am Alive (5:03)
06. Small Deadly Space (5:21)
07. Gretna Greene (3:56)
08. Human Crate (6:04)
09. Blowout In The Radio Room (4:14)
10. In A World Of My Own Making (7:01)

Exact Audio Copy V1.0 beta 3 from 29. August 2011

EAC extraction logfile from 1. June 2014, 22:27

Fight / Into The Pit CD3 - A Small Deadly Space Remixed & Remastered

Used drive : TSSTcorpCDDVDW SH-222BB Adapter: 1 ID: 0

Read mode : Secure
Utilize accurate stream : Yes
Defeat audio cache : Yes
Make use of C2 pointers : No

Read offset correction

: 6
Overread into Lead-In and Lead-Out : No
Fill up missing offset samples with silence : Yes
Delete leading and trailing silent blocks : No
Null samples used in CRC calculations : Yes
Used interface
: Native Win32 interface for Win NT & 2000

Used output format : User Defined Encoder
Selected bitrate : 1024 kBit/s
Quality : High
Add ID3 tag : No
Command line compressor : C:\Program Files\Exact Audio Copy\FLAC\FLAC.EXE
Additional command line options : -V -8 -T "Date=%year%" -T "Genre=%genre%" %source%

TOC of the extracted CD Track | Start | Length | Start sector | End sector
--1 | 0:00.00 | 5:06.43 | 0 | 22992 2 | 5:06.43 | 4:38.53 | 22993 | 43895 3 | 9:45.21 | 3:56.41 | 43896 | 61636 4 | 13:41.62 | 3:22.25 | 61637 | 76811 5 | 17:04.12 | 5:02.39 | 76812 | 99500 6 | 22:06.51 | 5:21.31 | 99501 | 123606 7 | 27:28.07 | 3:56.33 | 123607 | 141339 8 | 31:24.40 | 6:04.06 | 141340 | 168645 9 | 37:28.46 | 4:13.64 | 168646 | 187684
10 | 41:42.35 | 7:00.65 | 187685 | 219249

Range status and errors

Selected range Filename C:\Users\inotuh\Desktop\Fight - Into The Pit CD3 - A Small Deadly Space Remixed & Remastered.wav Peak level 100.0 %
Extraction speed 7.1 X
Range quality 100.0 %
Test CRC 31EDDBA5
Copy CRC 31EDDBA5
Copy OK

No errors occurred


AccurateRip summary

Track 1 accurately ripped (confidence 5) [275F1E08] (AR v2)
Track 2 accurately ripped (confidence 5) [D183F79C] (AR v2)
Track 3 accurately ripped (confidence 5) [3E1EB546] (AR v2)
Track 4 accurately ripped (confidence 5) [216E0A76] (AR v2)
Track 5 accurately ripped (confidence 5) [3D56D56C] (AR v2)
Track 6 accurately ripped (confidence 5) [19C3F07E] (AR v2)
Track 7 accurately ripped (confidence 5) [7966B26F] (AR v2)
Track 8 accurately ripped (confidence 5) 0B55881 (AR v2)
Track 9 accurately ripped (confidence 5) [DEBF26AA] (AR v2)
Track 10 accurately ripped (confidence 5) [3D9C0AE9] (AR v2)

All tracks accurately ripped

End of status report

- CUETools DB Plugin V2.1.5

[CTDB TOCID: Gvpl7d7utjaHj_WViw4rJ1i6.8I-] found
Submit result: Gvpl7d7utjaHj_WViw4rJ1i6.8I- has been confirmed
Track | CTDB Status
1 | (3/3) Accurately ripped
2 | (3/3) Accurately ripped
3 | (3/3) Accurately ripped
4 | (3/3) Accurately ripped
5 | (3/3) Accurately ripped
6 | (3/3) Accurately ripped
7 | (3/3) Accurately ripped
8 | (3/3) Accurately ripped
9 | (3/3) Accurately ripped
10 | (3/3) Accurately ripped

==== Log checksum 2BBA6CB4594CDABE894E8575E1E9A3AF0274365527D52372EA7600BBCD466E5D ====

foobar2000 1.2.9 / Dynamic Range Meter 1.1.1
log date: 2015-08-06 11:04:19

Analyzed: Fight / Into The Pit CD3 - A Small Deadly Space Remixed & Remastered

DR Peak RMS Duration Track

DR6 0.00 dB -8.05 dB 5:07 01-Beneath The Violence
DR7 0.00 dB -8.07 dB 4:39 02-Legacy Of Hate
DR7 -0.18 dB -7.82 dB 3:57 03-Never Again
DR6 -0.17 dB -7.64 dB 3:22 04-Mouthpiece
DR8 0.00 dB -8.67 dB 5:03 05-I Am Alive
DR7 0.00 dB -7.89 dB 5:21 0
Direct Download

Tags: Halford, Discography

Fight (Rob Halford): Discography (1993-2008) [7CD + DVD] Download via Hotfile Rapidshare Fileserve Megaupload & FileSonic, Fight (Rob Halford): Discography (1993-2008) [7CD + DVD] free torrent downloads included crack, serial, keygen.Fight (Rob Halford): Discography (1993-2008) [7CD + DVD] Fast Download via Rapidshare Hotfile Fileserve Filesonic Megaupload, Fight (Rob Halford): Discography (1993-2008) [7CD + DVD] Torrents and Emule Download or anything related.
Leave a Comment
Your Name:
E-Mail:
Add Comments:

Enter Code: