Hawkwind - The Friday Rock Show Sessions (1992)

Download Now

Hawkwind - The Friday Rock Show Sessions (1992)

Hawkwind - The Friday Rock Show Sessions (1992)
Rock | 1cd | EAC Rip | Ape + Cue + Log | covers
Raw Fruit, FRSCD 005 | rec: 1986 | 450Mb

Recorded live at the 1986 Reading Festival, where Hawkwind truly were one of the high points of an otherwise squalid lineup, Friday Rock Show Sessions takes its title from the BBC radio program that broadcasted the event to the rest of the nation and takes its contents directly from that broadcast -- hence the omission of much of the set and hence, too, the abbreviation of the closing "Silver Machine," a performance rendered all the more memorable by the guest appearance of former bassist Lemmy.
The concert itself caught Hawkwind still reveling in the absolute reinvention of their fortunes that was woven by the Chronicle of the Black Sword album and stage show. However, just one song from that tapestry, the insistent "Needle Gun," is included here, as the band instead delved into the back catalog for a performance riven by classic memories and dreadnought riffs. Recounted in excellent sound quality, from the opening "Magnu" on, the emphasis is on Hawkwind's most primal instincts, a barrage of battering rams that culminates with a positively brutal "Assassins of Allah." There are only a handful of Hawkwind live albums that are truly worth spending your money on. This is one of them. ~Allmusic

Track listing
01. Magnu / Angels Of Death (8:25)
02. Pulsing Cavern (3:19)
03. Assault And Battery (4:40)
04. Needle Gun (4:46)
05. Master Of The Universe (4:45)
06. Utopia (4:36)
07. Dream Worker (12:47)
08. Assassins Of Allah (Hassan I Sahba) (6:32)
09. Silver Machine (11:32)
~(61:21)

Personnel
- Harvey Bainbridge / keyboards, vocals
- Dave Brock / guitar, keyboards, vocals
- Alan Davey / bass, vocals
- Huw Lloyd Langton / guitar, vocals
- Danny Thompson / drums

EAC extraction logfile from 16. December 2006, 9:21 for CD
Hawkwind / The Friday Rock Show Sessions

Used drive : SAMSUNG CD-R/RW SW-248F Adapter: 0 ID: 0
Read mode : Secure with NO C2, accurate stream, disable cache
Combined read/write offset correction : 97
Overread into Lead-In and Lead-Out : No

Used output format : Internal WAV Routines 44.100 Hz; 16 Bit; Stereo

Other options :
Fill up missing offset samples with silence : Yes
Delete leading and trailing silent blocks : No
Installed external ASPI interface

Range status and errors
Selected range
Filename E:\Hawkwind - The Friday Rock Show Sessions.by.rat.HQcovers.eac-ape\Hawkwind - The Friday Rock Show Sessions.by.rat.HQcovers.eac-ape.wav Peak level 100.0 %
Range quality 99.9 %
CRC 5FA8664C
Copy OK

No errors occured

End of status report

[CUETools log; Date: 2015.08.06. 23:16:33; Version: 2.1.5]
Pregap length 00:00:33.
[CTDB TOCID: o2yl8qaYXsyQAGtiSH5OrmwWI8M-] found.
Track | CTDB Status
1 | (2/2) Accurately ripped
2 | (2/2) Accurately ripped
3 | (2/2) Accurately ripped
4 | (2/2) Accurately ripped
5 | (2/2) Accurately ripped
6 | (2/2) Accurately ripped
7 | (2/2) Accurately ripped
8 | (2/2) Accurately ripped
9 | (2/2) Accurately ripped
[AccurateRip ID: 0012725f-00896434-8c0e6109] found.
Track [ CRC | V2 ] Status
01 [f0ae4967|9c399a0c] (5+2/7) Accurately ripped
02 [494d5f2c|e6fc7115] (5+2/7) Accurately ripped
03 [3f108561|00baa85a] (5+2/7) Accurately ripped
04 [171bc7a7|11967156] (5+2/7) Accurately ripped
05 [77610965|a7ed4109] (5+2/7) Accurately ripped
06 [46cbb79d|cbaf420e] (5+2/7) Accurately ripped
07 [6d3094d4|33de6667] (5+2/7) Accurately ripped
08 91a59c8|7c104728 (5+2/7) Accurately ripped
09 [0013ba71|0ce19596] (5+2/7) Accurately ripped
Offsetted by -778:
01 [7409369a] (0/7) No match (V2 was not tested)
02 [817ac94c] (0/7) No match (V2 was not tested)
03 [9e523a36] (0/7) No match (V2 was not tested)
04 [03dc911a] (0/7) No match (V2 was not tested)
05 [822f067a] (0/7) No match (V2 was not tested)
06 [11791a8f] (0/7) No match (V2 was not tested)
07 [6746b3d1] (0/7) No match (V2 was not tested)
08 [d86e1b94] (0/7) No match (V2 was not tested)
09 [d6c38ca2] (0/7) No match (V2 was not tested)

Track Peak [ CRC32 ] [W/O NULL] [ LOG ]
-- 100,0 [5FA8664C] [FEE7288D] CRC32
01 82,3 [8A75ED38] [A19230B5]
02 60,0 [E588EF17] [6B1AF169]
03 94,0 [FB4C4571] [ED0486B4]
04 93,0 [779AF345] [72FFDF32]
05 97,2 [812139BB] [D06406F7]
06 100,0 [449E1CFF] [AC8BA95F]
07 95,8 [69EE589C] [CC781F4E]
08 100,0 [19C6AE04] [0226566C]
09 100,0 F5CEFF7 13C3E20
password: asd
DOWNLOAD LINKS:
Buy Premium To Support Me & Get Resumable Support & Max Speed


Links are Interchangeable - No Password - Single Extraction
Direct Download

Tags: Hawkwind, Friday, Sessions

Hawkwind - The Friday Rock Show Sessions (1992) Download via Hotfile Rapidshare Fileserve Megaupload & FileSonic, Hawkwind - The Friday Rock Show Sessions (1992) free torrent downloads included crack, serial, keygen.Hawkwind - The Friday Rock Show Sessions (1992) Fast Download via Rapidshare Hotfile Fileserve Filesonic Megaupload, Hawkwind - The Friday Rock Show Sessions (1992) Torrents and Emule Download or anything related.
Leave a Comment
Your Name:
E-Mail:
Add Comments:

Enter Code: