Lux - Voces8 (2015)

Download Now

Lux - Voces8 (2015)

Lux - Voces8 (2015)
EAC Rip | Flac (Tracks + cue + log) | 258 MB | MP3 320Kbps CBR | 147 MB | 1 CD | Full Scans
Genre: Classical | Label: Decca | Catalog Number: 002260102

"LUX' is a luminous selection of pieces spanning over 400 years: from Thomas Tallis and Gregorio Allegri to Massive Attack (Teardrop) and Ben Folds (The Luckiest - which appeared on the soundtrack for Richard Curtis's film About Time) sung . The album includes popular classics such as Allegri's Miserere and Elgar's Nimrod along with Paul Mealor's Ubi Caritas, commissioned by Prince William, which was sung at the Prince's wedding to Catherine Middleton in 2011."

Tracklisting:

1. Gjeilo: Ubi Caritas
2. Tallis: O Nata Lux
3. Elgar: Lux Aeterna (Nimrod)
4. Massive Attack: Teardrop
5. Tavener: Mother of God Here I Stand
6. Allegri: Miserere Mei
7. Esenvalds: Stars
8. Dubra: Ave Maria 1
9. Hawes: Prayer to a Guardian Angel
10. Rachmaninov: Bogoroditsye Dyevo
11. Lauridsen: O Nata Lux (from Lux aeterna)
12. Ben Folds: The Luckiest
13. Anon: Corde Natus Ex Parentis
14. Todd: My Lord Has Come
15. Mealor: Ubi Caritas

Exact Audio Copy V1.0 beta 2 from 29. April 2011

EAC extraction logfile from 28. July 2015, 10:24

Voces8 / LUX

Used drive : HL-DT-STDVDRWBD GBC-H20N Adapter: 0 ID: 1

Read mode : Secure
Utilize accurate stream : Yes
Defeat audio cache : Yes
Make use of C2 pointers : No

Read offset correction

: 667
Overread into Lead-In and Lead-Out : No
Fill up missing offset samples with silence : Yes
Delete leading and trailing silent blocks : No
Null samples used in CRC calculations : Yes
Used interface
: Native Win32 interface for Win NT & 2000
Gap handling
: Appended to previous track

Used output format : User Defined Encoder
Selected bitrate : 1024 kBit/s
Quality : High
Add ID3 tag : No
Command line compressor : C:\Program Files (x86)\Exact Audio Copy\Flac\flac.exe
Additional command line options : -8 -V -T "ARTIST=%artist%" -T "TITLE=%title%" -T "ALBUM=%albumtitle%" -T "DATE=%year%" -T "TRACKNUMBER=%tracknr%" -T "GENRE=%genre%" -T "PERFORMER=%albuminterpret%" -T "COMPOSER=%composer%" %haslyrics%--tag-from-file=LYRICS

TOC of the extracted CD Track | Start | Length | Start sector | End sector
--1 | 0:00.00 | 3:48.57 | 0 | 17156 2 | 3:48.57 | 2:57.59 | 17157 | 30490 3 | 6:46.41 | 3:53.14 | 30491 | 47979 4 | 10:39.55 | 4:31.69 | 47980 | 68373 5 | 15:11.49 | 2:52.20 | 68374 | 81293 6 | 18:03.69 | 7:07.11 | 81294 | 113329 7 | 25:11.05 | 4:04.29 | 113330 | 131658 8 | 29:15.34 | 3:44.26 | 131659 | 148484 9 | 32:59.60 | 2:58.05 | 148485 | 161839
10 | 35:57.65 | 3:06.71 | 161840 | 175860
11 | 39:04.61 | 4:27.43 | 175861 | 195928
12 | 43:32.29 | 5:05.16 | 195929 | 218819
13 | 48:37.45 | 3:57.36 | 218820 | 236630
14 | 52:35.06 | 3:37.42 | 236631 | 252947
15 | 56:12.48 | 3:48.04 | 252948 | 270051

Track 1 Filename P:\Music\Voces8\Voces8 - LUX (2015) [FLAC]\01 - Ubi Caritas.wav Pre-gap length 0:00:02.00 Peak level 77.9 %
Extraction speed 0.9 X
Track quality 99.9 %
Test CRC B7274707
Copy CRC B7274707
Accurately ripped (confidence 2) [3C490492] (AR v2)
Copy OK

Track 2 Filename P:\Music\Voces8\Voces8 - LUX (2015) [FLAC]\02 - O Nata Lux.wav Peak level 72.9 %
Extraction speed 1.1 X
Track quality 100.0 %
Test CRC 411DE866
Copy CRC 411DE866
Accurately ripped (confidence 2) [508ED83B] (AR v2)
Copy OK

Track 3 Filename P:\Music\Voces8\Voces8 - LUX (2015) [FLAC]\03 - Lux Aeterna (Nimrod).wav Peak level 93.1 %
Extraction speed 1.2 X
Track quality 100.0 %
Test CRC 55202742
Copy CRC 55202742
Accurately ripped (confidence 2) [C10E8525] (AR v2)
Copy OK

Track 4 Filename P:\Music\Voces8\Voces8 - LUX (2015) [FLAC]\04 - Teardrop.wav Peak level 82.1 %
Extraction speed 1.1 X
Track quality 99.9 %
Test CRC 507DF50C
Copy CRC 507DF50C
Accurately ripped (confidence 2) [C37A170E] (AR v2)
Copy OK

Track 5 Filename P:\Music\Voces8\Voces8 - LUX (2015) [FLAC]\05 - Mother of God, Here I Stand (The Veil of the Temple).wav Peak level 83.3 %
Extraction speed 1.2 X
Track quality 100.0 %
Test CRC 5D0CCE99
Copy CRC 5D0CCE99
Accurately ripped (confidence 2) [4E87862A] (AR v2)
Copy OK

Track 6 Filename P:\Music\Voces8\Voces8 - LUX (2015) [FLAC]\06 - Miserere.wav Peak level 86.6 %
Extraction speed 1.5 X
Track quality 100.0 %
Test CRC DE2D7867
Copy CRC DE2D7867
Accurately ripped (confidence 2) [6E81F2F0] (AR v2)
Copy OK

Track 7 Filename P:\Music\Voces8\Voces8 - LUX (2015) [FLAC]\07 - Stars.wav Peak level 88.1 %
Extraction speed 0.9 X
Track quality 100.0 %
Test CRC 5E7A57B1
Copy CRC 5E7A57B1
Accurately ripped (confidence 2) [925016C6] (AR v2)
Copy OK

Track 8 Filename P:\Music\Voces8\Voces8 - LUX (2015) [FLAC]\08 - Ave Maria I.wav Peak level 88.5 %
Extraction speed 1.0 X
Track quality 100.0 %
Test CRC D8D25963
Copy CRC D8D25963
Accurately ripped (confidence 2) [6F1390D4] (AR v2)
Copy OK

Track 9 Filename P:\Music\Voces8\Voces8 - LUX (2015) [FLAC]\09 - Prayer to a Guardian Angel.wav Peak level 91.0 %
Extraction speed 1.0 X
Track quality 100.0 %
Test CRC B0F09BA5
Copy CRC B0F09BA5
Accurately ripped (confidence 2) [D869645B] (AR v2)
Copy OK

Track 10 Filename P:\Music\Voces8\Voces8 - LUX (2015) [FLAC]\10 - Bogoroditse Devo (All-night Vigil, Op. 37,6).wav Peak level 91.6 %
Extraction speed 1.0 X
Track quality 100.0 %
Test CRC F014020A
Copy CRC F014020A
Accurately ripped (confidence 2) [840D2D26] (AR v2)
Copy OK

Track 11 Filename P:\Music\Voces8\Voces8 - LUX (2015) [FLAC]\11 - O Nata Lux (Lux aeterna).wav Peak level 84.3 %
Extraction speed 1.4 X
Track quality 99.9 %
Test CRC B69351C6
Copy CRC B69351C6
Accurately ripped (confidence 2) [F2041E0A] (AR v2)
Copy OK

Track 12 Filename P:\Music\Voces8\Voces8 - LUX (2015) [FLAC]\12 - The Luckiest.wav Peak level 81.7 %
Extraction speed 1.7 X
Track quality 100.0 %
Test CRC C573C6A5
Copy CRC C573C6A5
Accurately ripped (confidence 2) [F3EDDDFC] (AR v2)
Copy OK

Track 13 Filename P:\Music\Voces8\Voces8 - LUX (2015) [FLAC]\13 - Corde Natus Ex Parents (''Picardy'').wav Peak level 70.7 %
Extraction speed 1.6 X
Track quality 100.0 %
Test CRC 7B51018C
Copy CRC 7B51018C
Accurately ripped (confidence 2) [5143D623] (AR v2)
Copy OK

Track 14 Filename P:\Music\Voces8\Voces8 - LUX (2015) [FLAC]\14 - My Lord Has Come.wav Peak level 83.8 %
Extraction speed 1.7 X
Track quality 100.0 %
Test CRC D2F8856C
Copy CRC D2F8856C
Accurately ripped (confidence 2) [747D9D04] (AR v2)
Copy OK

Track 15 Filename P:\Music\Voces8\Voces8 - LUX (2015) [FLAC]\15 - Ubi Caritas.wav Peak level 82.3 %
Extraction speed 1.7 X
Track quality 100.0 %
Test CRC D73DE754
Copy CRC D73DE754
Accurately ripped (confidence 2) [5B37A03C] (AR v2)
Copy OK

All tracks accurately ripped

No errors occurred

End of status report

==== Log checksum EF1697043198B78B530A7DC4F8A2C1506F8822F4D2492A82A6F45C72E901D30A ====

Thanks to the original releaser
DOWNLOAD LINKS:
(Premium Recommended)


All above links are interchangable. No password
Direct Download

Lux - Voces8 (2015) Download via Hotfile Rapidshare Fileserve Megaupload & FileSonic, Lux - Voces8 (2015) free torrent downloads included crack, serial, keygen.Lux - Voces8 (2015) Fast Download via Rapidshare Hotfile Fileserve Filesonic Megaupload, Lux - Voces8 (2015) Torrents and Emule Download or anything related.
Leave a Comment
Your Name:
E-Mail:
Add Comments:

Enter Code: