The Cranberries - Stars: The Best Of 1992-2002 (2002)

Download Now

The Cranberries - Stars: The Best Of 1992-2002 (2002)

The Cranberries - Stars - The Best Of 1992-2002 (2002)
EAC Rip | FLAC (Img) + Cue + Log ~ 607 Mb | MP3 CBR320 ~ 210 Mb
Covers Included (JPG, 300 dpi) | RAR 5% Recovery
Alternative Rock | Island Records #063277-2

"This 20 songs compilation encompasses 10 years of singles released during the Cranberries career. "Hollywood" and "You and Me" were only released in certain countries but never the less have been included. Two brand new tracks were recorded specially for this album. As there are 20 tracks on the album we used a number of different single versions of several songs, plus created a few new edits. This is a sample of Cranberries music across 5 albums. Tracks 19 & 20 are previously unreleased and recorded in Miami at Criteria Hit Factory Studios on June 3-6 2002..."

Wiki | Discogs | All Music
***************

The Cranberries - Stars: The Best Of 1992-2002 (2002)

Track List:

01. Dreams [04:16]
02. Linger [04:35]
03. Zombie [05:08]
04. Ode To My Family [04:32]
05. I Can't Be With You [03:08]
06. Ridiculous Thoughts (Radio Edit) [03:37]
07. Salvation [02:25]
08. Free To Decide [03:24]
09. When You're Gone [03:53]
10. Hollywood [04:20]
11. Promises [03:33]
12. Animal Instinct [03:33]
13. Just My Imagination [03:14]
14. You & Me [03:18]
15. Analyse [04:07]
16. Time Is Ticking Out [03:02]
17. This Is The Day [04:16]
18. Daffodil Lament [06:07]
19. New New York [04:10]
20. Stars [03:32]

Exact Audio Copy V1.0 beta 3 from 29. August 2011

EAC extraction logfile from 5. August 2015, 22:03

The Cranberries / Stars - The Best Of 1992-2002

Used drive : TSSTcorpDVDWBD SH-B123L Adapter: 4 ID: 0

Read mode : Secure
Utilize accurate stream : Yes
Defeat audio cache : Yes
Make use of C2 pointers : No

Read offset correction

: 6
Overread into Lead-In and Lead-Out : No
Fill up missing offset samples with silence : Yes
Delete leading and trailing silent blocks : No
Null samples used in CRC calculations : Yes
Used interface
: Installed external ASPI interface

Used output format : User Defined Encoder
Selected bitrate : 128 kBit/s
Quality : High
Add ID3 tag : Yes
Command line compressor : G:\Program Files (x86)\Exact Audio Copy\Flac\flac.exe
Additional command line options : -V -8 -T "Date=%year%" -T "Genre=%genre%" %source%

TOC of the extracted CD Track | Start | Length | Start sector | End sector
--1 | 0:00.00 | 4:15.70 | 0 | 19194 2 | 4:15.70 | 4:34.58 | 19195 | 39802 3 | 8:50.53 | 5:07.32 | 39803 | 62859 4 | 13:58.10 | 4:31.35 | 62860 | 83219 5 | 18:29.45 | 3:07.70 | 83220 | 97314 6 | 21:37.40 | 3:36.13 | 97315 | 113527 7 | 25:13.53 | 2:24.25 | 113528 | 124352 8 | 27:38.03 | 3:23.32 | 124353 | 139609 9 | 31:01.35 | 3:52.70 | 139610 | 157079
10 | 34:54.30 | 4:19.08 | 157080 | 176512
11 | 39:13.38 | 3:32.20 | 176513 | 192432
12 | 42:45.58 | 3:32.57 | 192433 | 208389
13 | 46:18.40 | 3:13.28 | 208390 | 222892
14 | 49:31.68 | 3:17.07 | 222893 | 237674
15 | 52:49.00 | 4:06.60 | 237675 | 256184
16 | 56:55.60 | 3:01.68 | 256185 | 269827
17 | 59:57.53 | 4:15.22 | 269828 | 288974
18 | 64:13.00 | 6:06.63 | 288975 | 316487
19 | 70:19.63 | 4:09.25 | 316488 | 335187
20 | 74:29.13 | 3:31.17 | 335188 | 351029

Range status and errors

Selected range Filename D:\MUSIC\The Cranberries - Stars - The Best Of 1992-2002.wav Peak level 99.2 %
Extraction speed 6.8 X
Range quality 99.9 %
Test CRC AB08D100
Copy CRC AB08D100
Copy OK

No errors occurred


AccurateRip summary

Track 1 accurately ripped (confidence 147) [956D2091] (AR v2)
Track 2 accurately ripped (confidence 149) [1ACF6E22] (AR v2)
Track 3 accurately ripped (confidence 145) [9D72FC50] (AR v2)
Track 4 accurately ripped (confidence 146) [CA2AC908] (AR v2)
Track 5 accurately ripped (confidence 145) [24C9F12C] (AR v2)
Track 6 accurately ripped (confidence 144) [FA6E647D] (AR v2)
Track 7 accurately ripped (confidence 145) [24B42FAC] (AR v2)
Track 8 accurately ripped (confidence 144) [D4FCFDCA] (AR v2)
Track 9 accurately ripped (confidence 145) [279DEF53] (AR v2)
Track 10 accurately ripped (confidence 145) [AEF8AE95] (AR v2)
Track 11 accurately ripped (confidence 145) [9AEE7DC4] (AR v2)
Track 12 accurately ripped (confidence 145) [3EF9E00D] (AR v2)
Track 13 accurately ripped (confidence 148) [6300F252] (AR v2)
Track 14 accurately ripped (confidence 144) [04BA6BBB] (AR v2)
Track 15 accurately ripped (confidence 147) [04DA9873] (AR v2)
Track 16 accurately ripped (confidence 145) [3A28CB36] (AR v2)
Track 17 accurately ripped (confidence 142) [576EA07A] (AR v2)
Track 18 accurately ripped (confidence 141) [9BE9B15C] (AR v2)
Track 19 accurately ripped (confidence 142) 4AF1B44 (AR v2)
Track 20 accurately ripped (confidence 136) [F51ABB58] (AR v2)

All tracks accurately ripped

End of status report

==== Log checksum 48DE3B816BBD17C917F7FAD34B7A09FDF863F7CD2846A403F5AB4A871E2AB687 ====

foobar2000 1.2.6 / Dynamic Range Meter 1.1.1
log date: 2015-08-09 01:12:45

Analyzed: The Cranberries / Stars - The Best Of 1992-2002

DR Peak RMS Duration Track

DR8 -0.10 dB -8.81 dB 4:16 01-Dreams
DR9 -0.10 dB -10.98 dB 4:35 02-Linger
DR7 -0.08 dB -8.40 dB 5:07 03-Zombie
DR8 -0.07 dB -9.51 dB 4:31 04-Ode To My Family
DR6 -0.10 dB -7.17 dB 3:08 05-I Can't Be With You
DR7 -0.10 dB -8.48 dB 3:36 06-Ridiculous Thoughts (Radio Edit)
DR6 -0.14 dB -7.72 dB 2:24 07-Salvation
DR7 -0.14 dB -8.46 dB 3:23 08-Free To Decide
DR8 -0.14 dB -9.93 dB 3:53 09-When You're Gone
DR6 -0.10 dB -8.25 dB 4:19 10-Hollywood
DR5 -0.17 dB -6.80 dB 3:32 11-Promises
DR6 -0.19 dB -7.58 dB 3:33 12-Animal Instinct
DR7 -0.14 dB -8.51 dB 3:13 13-Just My Imagination
DR7 -0.18 dB -10.27 dB 3:17 14-You & Me
DR6 -0.10 dB -7.49 dB 4:07 15-Analyse
DR6 -0.14 dB -7.89 dB 3:02 16-Time Is Ticking Out
DR6 -0.10 dB -7.57 dB 4:15 17-This Is The Day
DR8 -0.10 dB -11.37 dB 6:07 18-Daffodil Lament
DR6 -0.14 dB -7.91 dB 4:09 19-New New York
DR6 -0.14 dB -7.84 dB 3:31 20-Stars

Number of tracks: 20
Official DR value: DR7

Samplerate: 44100 Hz
Channels: 2
Bits per sample: 16
Bitrate: 996 kbps
Codec: FLAC

[CUETools log; Date: 09.08.2015 1:12:50; Version: 2.1.5]
[CTDB TOCID: mHmkGC8JDPYTaPXIH4FSPTkreiM-] found.
Track | CTDB Status
1 | (169/170) Accurately ripped
2 | (169/170) Accurately ripped
3 | (164/170) Accurately ripped, or (4/170) differs in 13 samples @05:06:46
4 | (164/170) Accurately ripped, or (4/170) differs in 1678 samples @04:30:52-04:30:54
5 | (169/170) Accurately ripped
6 | (168/170) Accurately ripped
7 | (169/170) Accurately ripped
8 | (170/170) Accurately ripped
9 | (169/170) Accurately ripped
10 | (168/170) Accurately ripped
11 | (166/170) Accurately ripped
12 | (168/170) Accurately ripped
13 | (169/170) Accurately ripped
14 | (168/170) Accurately ripped
15 | (166/170) Accurately ripped
16 | (168/170) Accurately ripped
17 | (168/170) Accurately ripped
18 | (169/170) Accurately ripped
19 | (168/170) Accurately ripped
20 | (165/170) Accurately ripped
[AccurateRip ID: 00385812-033299d0-28124814] found.
Track [ CRC | V2 ] Status
01 [3c4443ab|956d2091] (110+147/290) Accurately ripped
02 [51151a5d|1acf6e22] (111+149/293) Accurately ripped
03 [7610fbd3|9d72fc50] (111+145/292) Accurately ripped
04 [f12aea43|ca2ac908] (111+146/293) Accurately ripped
05 ef72026|24c9f12c (111+145/292) Accurately ripped
06 [94d22cd0|fa6e647d] (111+144/289) Accurately ripped
07 [0cf0f684|24b42fac] (112+145/292) Accurately ripped
08 [29182aff|d4fcfdca] (111+144/288) Accurately ripped
09 [fae94b74|279def53] (111+145/292) Accurately ripped
10 [94770f3f|aef8ae95] (112+145/292) Accurately ripped
11 [0fd4f4eb|9aee7dc4] (111+145/291) Accurately ripped
12 [1f98773d|3ef9e00d] (111+145/287) Accurately ripped
13 [51f5f5e5|6300f252] (112+148/293) Accurately ripped
14 [e86da941|04ba6bbb] (111+144/290) Accurately ripped
15 [7df8c3d8|04da9873] (111+147/290) Accurately ripped
16 [57ead502|3a28cb36] (111+145/289) Accurately ripped
17 [c2bcf749|576ea07a] (111+142/286) Accurately ripped
18 [ae9356a5|9be9b15c] (109+141/281) Accurately ripped
19 [3075280a|b4af1b44] (107+142/278) Accurately ripped
20 [5bd0bf6e|f51abb58] (106+136/265) Accurately ripped
Offsetted by -658:
01 [7b3c0dc1] (003/290) Accurately ripped
02 [1c502ec5] (003/293) Accurately ripped
03 [1ef359d9] (003/292) Accurately ripped
04 [67ab80cd] (003/293) Accurately ripped
05 3c04102 (003/292) Accurately ripped
06 [ed8f99d6] (003/289) Accurately ripped
07 [0d818148] (003/292) Accurately ripped
08 [acd0b9fd] (003/288) Accurately ripped
09 [ce44f44a] (003/292) Accurately ripped
10 [79007c29] (003/292) Accurately ripped
11 [c11986cf] (003/291) Accurately ripped
12 [d6088feb] (003/287) Accurately ripped
13 [66d33d2f] (003/293) Accurately ripped
14 [8a48832d] (003/290) Accurately ripped
15 [9060e014] (003/290) Accurately ripped
16 [7816d0de] (003/289) Accurately ripped
17 [d9c3a265] (003/286) Accurately ripped
18 [01f2b075] (003/281) Accurately ripped
19 [3ca8aade] (003/278) Accurately ripped
20 [65b40e4a] (003/265) Accurately ripped
Offsetted by -646:
01 [74a3b15d] (003/290) Accurately ripped
02 [6e3317d5] (003/293) Accurately ripped
03 [2aa7a2d5] (003/292) Accurately ripped
04 [40eff771] (003/293) Accurately ripped
05 [dadc7d1a] (003/292) Accurately ripped
06 [9d5a58d2] (003/289) Accurately ripped
07 [8ac5ad70] (003/292) Accurately ripped
08 [d3a73ba9] (003/288) Accurately ripped
09 [3a76a366] (003/292) Accurately ripped
10 [0401de8d] (003/292) Accurately ripped
11 [fdac1e37] (003/291) Accurately ripped
12 [ed298877] (003/287) Accurately ripped
13 [6fc83353] (003/293) Accurately ripped
14 [302ebbe5] (004/290) Accurately ripped
15 [9c7e19ec] (004/290) Accurately ripped
16 [02c8faf6] (004/289) Accurately ripped
17 [339b0cfd] (004/286) Accurately ripped
18 [20548c95] (004/281) Accurately ripped
19 [699129a6] (003/278) Accurately ripped
20 [f707d662] (002/265) Accurately ripped
Offsetted by -173:
01 [860377a2] (012/290) Accurately ripped
02 [df387a61] (012/293) Accurately ripped
03 [e2a9dfa2] (013/292) Accurately ripped
04 4e53bdc (013/293) Accurately ripped
05 [35cabdcc] (013/292) Accurately ripped
06 [ae7c961f] (011/289) Accurately ripped
07 [69af79ee] (012/292) Accurately ripped
08 [63d9083a] (012/288) Accurately ripped
09 [631d044b] (013/292) Accurately ripped
10 [15cdc4c8] (012/292) Accurately ripped
11 [fbe8ee25] (012/291) Accurately ripped
12 [a77d22b0] (010/287) Accurately ripped
13 [d0d5195e] (011/293) Accurately ripped
14 [a60bf78f] (012/290) Accurately ripped
15 [24a8c1ee] (011/290) Accurately ripped
16 [f30cf628] (012/289) Accurately ripped
17 [de30b68f] (012/286) Accurately ripped
18 [633b312d] (012/281) Accurately ripped
19 [fe5d599c] (011/278) Accurately ripped
20 [c2039014] (007/265) Accurately ripped
Offsetted by -6:
01 f9071dd (002/290) Accurately ripped
02 [2823a5d5] (002/293) Accurately ripped
03 [f036d755] (002/292) Accurately ripped
04 [8488aef1] (002/293) Accurately ripped
05 [ab69021a] (002/292) Accurately ripped
06 [3ceccd52] (002/289) Accurately ripped
07 [4e4ee070] (002/292) Accurately ripped
08 [95acea29] (002/288) Accurately ripped
09 [c4d073e6] (002/292) Accurately ripped
10 [4ef65e0d] (002/292) Accurately ripped
11 [f18ba937] (002/291) Accurately ripped
12 [1407faf7] (002/287) Accurately ripped
13 [4d7b7ad3] (002/293) Accurately ripped
14 [157a8ce5] (002/290) Accurately ripped
15 [77ea26ec] (002/290) Accurately ripped
16 [9291bff6] (002/289) Accurately ripped
17 [95d141fd] (002/286) Accurately ripped
18 [1f626895] (002/281) Accurately ripped
19 [1a00e8a6] (002/278) Accurately ripped
20 [9326db62] (002/265) Accurately ripped
Offsetted by -2546:
01 [de34d5e1] (000/290) No match (V2 was not tested)
02 [e1779fb9] (000/293) No match (V2 was not tested)
03 [c2e02985] (000/292) No match (V2 was not tested)
04 [e04296ad] (000/293) No match (V2 was not tested)
05 [ffbb5242] (000/292) No match (V2 was not tested)
06 [e39f8ef6] (000/289) No match (V2 was not tested)
07 [66465e08] (000/292) No match (V2 was not tested)
08 [23a65d9d] (000/288) No match (V2 was not tested)
09 [4fbc006a] (000/292) No match (V2 was not tested)
10 57c0409 (000/292) No match (V2 was not tested)
11 [31ac798f] (000/291) No match (V2 was not tested)
12 [49c5248b] (000/287) No match (V2 was not tested)
13 [e59bf70f] (000/293) No match (V2 was not tested)
14 [3f75a76d] (000/290) No match (V2 was not tested)
15 [c9155354] (000/290) No match (V2 was not tested)
16 [8fecf21e] (000/289) No match (V2 was not tested)
17 [f80a1fa5] (000/286) No match (V2 was not tested)
18 [ab236775] (000/281) No match (V2 was not tested)
19 [4dc56a9e] (000/278) No match (V2 was not tested)
20 f8bbf8a (000/265) No match (V2 was not tested)
Offsetted by -1037:
01 [60dd73c2] (000/290) No match (V2 was not tested)
02 [d766ede1] (000/293) No match (V2 was not tested)
03 [97f558c2] (000/292) No match (V2 was not tested)
04 [99a3ddbc] (000/293) No match (V2 was not tested)
05 [35d9d70c] (000/292) No match (V2 was not tested)
06 [3d76df3f] (000/289) No match (V2 was not tested)
07 [2e830eae] (000/292) No match (V2 was not tested)
08 [77848fda] (000/288) No match (V2 was not tested)
09 [f523c46b] (000/292) No match (V2 was not tested)
10 [fd6a18a8] (000/292) No match (V2 was not tested)
11 [f2ae58e5] (000/291) No match (V2 was not tested)
12 [26373b50] (000/287) No match (V2 was not tested)
13 [4befdf3e] (000/293) No match (V2 was not tested)
14 [fd4c03cf] (000/290) No match (V2 was not tested)
15 c707d2e (000/290) No match (V2 was not tested)
16 [f0f11f68] (000/289) No match (V2 was not tested)
17 [999abbcf] (000/286) No match (V2 was not tested)
18 [d7b5482d] (000/281) No match (V2 was not tested)
19 [5cf9b15c] (000/278) No match (V2 was not tested)
20 [e2734954] (000/265) No match (V2 was not tested)
Offsetted by -685:
01 [4a12dda2] (003/290) Accurately ripped
02 [e411a261] (003/293) Accurately ripped
03 [449db5a2] (003/292) Accurately ripped
04 [7ed175dc] (003/293) Accurately ripped
05 [5bc0b9cc] (003/292) Accurately ripped
06 [62076c1f] (003/289) Accurately ripped
07 [33a81dee] (003/292) Accurately ripped
08 [956e163a] (003/288) Accurately ripped
09 [5ad52a4b] (003/292) Accurately ripped
10 [403d5ec8] (003/292) Accurately ripped
11 [38cfb225] (003/291) Accurately ripped
12 [21fe60b0] (003/287) Accurately ripped
13 [52ac135e] (002/293) Accurately ripped
14 [5502838f] (002/290) Accurately ripped
15 [751f1dee] (000/290) No match (V2 was not tested)
16 [8005f228] (000/289) No match (V2 was not tested)
17 [8f9ef28f] (000/286) No match (V2 was not tested)
18 [fd96812d] (000/281) No match
19 [d79d8d9c] (000/278) No match
20 [deb78c14] (000/265) No match
Offsetted by -12:
01 [42dca00f] (000/290) No match (V2 was not tested)
02 [ff32314d] (000/293) No match (V2 was not tested)
03 [6a5cb2d7] (000/292) No match (V2 was not tested)
04 [17e6739f] (000/293) No match (V2 was not tested)
05 [97dae40e] (000/292) No match (V2 was not tested)
06 [e5076dd4] (000/289) No match (V2 was not tested)
07 [8facca5c] (000/292) No match (V2 was not tested)
08 [0241a953] (000/288) No match (V2 was not tested)
09 [8eb79c58] (000/292) No match (V2 was not tested)
10 [0975acdb] (000/292) No match (V2 was not tested)
11 [d3425d83] (000/291) No match (V2 was not tested)
12 [08777eb1] (000/287) No match (V2 was not tested)
13 [4900ffc1] (000/293) No match (V2 was not tested)
14 [42877089] (000/290) No match (V2 was not tested)
15 [71db8a00] (000/290) No match (V2 was not tested)
16 [cd38aaea] (000/289) No match (V2 was not tested)
17 [68e58cb1] (000/286) No match (V2 was not tested)
18 [90317a85] (000/281) No match (V2 was not tested)
19 [038ca942] (000/278) No match (V2 was not tested)
20 [ca7cf756] (000/265) No match (V2 was not tested)

Track Peak [ CRC32 ] [W/O NULL] [ LOG ]
-- 99,2 [AB08D100] [34272995] CRC32
01 98,8 [ADF6658F] [D5227F55]
02 98,8 [96328AD6] [FA49CB8D]
03 99,1 36C7653 [64D52538]
04 99,2 25551BD [72418B24]
05 98,8 [763D9AE0] [24F222FD]
06 98,8 [88B8CA91] [3B7B8733]
07 98,4 [9DDEE835] [9207ECEB]
08 98,4 [53E98518] 31CE446
09 98,4 [2D8F130C] [FBE9347B]
10 98,8 90B945D [307BA107]
11 98,0 [203A0387] [F1B40D93]
12 97,8 [2EEF5388] [0FCA452D]
13 98,4 C5E2568 [CBCF2E3E]
14 97,9 [0FBB0824] [025C5501]
15 98,8 [086EE12C] 307679D
16 98,4 [1669BBEB] [585000E7]
17 98,8 [C8DB7700] [DA2706D1]
18 98,8 [CAEEEC34] [82B5DA84]
19 98,4 [D25C2B40] [78BB63CB]
20 98,4 [964E444F] [7EF79500]

The Cranberries - Stars: The Best Of 1992-2002 (2002)

All thanks go to rd


DOWNLOAD LINKS
Buy Premium From My Links To Get Resumable Support & Max Speed & To Support Me


Links are Interchangeable - No Password - Single Extraction
Direct Download

Tags: Cranberries

The Cranberries - Stars: The Best Of 1992-2002 (2002) Download via Hotfile Rapidshare Fileserve Megaupload & FileSonic, The Cranberries - Stars: The Best Of 1992-2002 (2002) free torrent downloads included crack, serial, keygen.The Cranberries - Stars: The Best Of 1992-2002 (2002) Fast Download via Rapidshare Hotfile Fileserve Filesonic Megaupload, The Cranberries - Stars: The Best Of 1992-2002 (2002) Torrents and Emule Download or anything related.
Leave a Comment
Your Name:
E-Mail:
Add Comments:

Enter Code: