Quiet Force - Absolute Meditation (1994) [Reissue 2009]

Download Now

Quiet Force - Absolute Meditation (1994) [Reissue 2009]

Quiet Force - Absolute Meditation (1994) [Reissue 2009]
EAC Rip | FLAC (tracks+.cue+log) - 293 MB | MP3 CBR 320 kbps (LAME 3.93) - 144 MB | Covers - 89 MB
Genre: New Age | RAR 3% Rec. | Label: Da Music (CD 873252-2)

"Meditation can be a very pleasant and easy way to gain deep relaxation for yourself - it can improve the general well-being, if one practiced it regularly. Calm your mind and body, you leave behind stress and tension. This CD can help you, to guide you into deep states of meditation. The ultimate goal should be the physical body to perform in a meditative state of half-sleep, the mind and your awareness remain while wide awake. Immerse yourself in the relaxing world of meditation."

Tracklist:
01. Endless Space
02. Deep Down
03. Between The Senses
04. To Find A Place
05. A Place To Find
06. I Get Back There
07. Back To The Beat
08. Finale

Total time: 01:01:12

Exact Audio Copy V1.0 beta 1 from 15. November 2010

EAC extraction logfile from 26. September 2014, 16:21

Steven Toeteberg / Quiet Force, Free Form Meditation

Used drive : ASUS DRW-1814BL Adapter: 0 ID: 0

Read mode : Secure
Utilize accurate stream : Yes
Defeat audio cache : Yes
Make use of C2 pointers : No

Read offset correction

: 6
Overread into Lead-In and Lead-Out : No
Fill up missing offset samples with silence : Yes
Delete leading and trailing silent blocks : No
Null samples used in CRC calculations : Yes
Used interface
: Installed external ASPI interface
Gap handling
: Appended to previous track

Used output format : User Defined Encoder
Selected bitrate : 192 kBit/s
Quality : High
Add ID3 tag : No
Command line compressor : C:\Program Files\Exact Audio Copy\Flac\flac.exe
Additional command line options : -8 -V -T "ARTIST=%a" -T "TITLE=%t" -T "ALBUM=%g" -T "DATE=%y" -T "TRACKNUMBER=%n" -T "GENRE=%m" -T "COMMENT=EAC FLAC -8" %s

TOC of the extracted CD Track | Start | Length | Start sector | End sector
--1 | 0:00.00 | 7:21.00 | 0 | 33074 2 | 7:21.00 | 10:18.37 | 33075 | 79461 3 | 17:39.37 | 10:10.25 | 79462 | 125236 4 | 27:49.62 | 13:46.50 | 125237 | 187236 5 | 41:36.37 | 6:04.50 | 187237 | 214586 6 | 47:41.12 | 5:46.00 | 214587 | 240536 7 | 53:27.12 | 6:17.38 | 240537 | 268849 8 | 59:44.50 | 1:27.25 | 268850 | 275399

Track 1 Filename L:\music\goa_flac\0_my\0\Quiet Force, Free Form Meditation\01-Steven Toeteberg - Endless Space.wav Pre-gap length 0:00:02.00 Peak level 74.7 %
Extraction speed 2.9 X
Track quality 100.0 %
Test CRC BD8200E2
Copy CRC BD8200E2
Accurately ripped (confidence 1) [DBB40EFD]
Copy OK

Track 2 Filename L:\music\goa_flac\0_my\0\Quiet Force, Free Form Meditation\02-Steven Toeteberg - Deep Down.wav Pre-gap length 0:00:01.00 Peak level 75.1 %
Extraction speed 3.5 X
Track quality 100.0 %
Test CRC 2FBA1E8F
Copy CRC 2FBA1E8F
Accurately ripped (confidence 1) [51310BAF]
Copy OK

Track 3 Filename L:\music\goa_flac\0_my\0\Quiet Force, Free Form Meditation\03-Steven Toeteberg - Between the Senses.wav Pre-gap length 0:00:01.49 Peak level 91.2 %
Extraction speed 2.7 X
Track quality 99.9 %
Test CRC 37ECA1BE
Copy CRC 37ECA1BE
Accurately ripped (confidence 1) [75555195]
Copy OK

Track 4 Filename L:\music\goa_flac\0_my\0\Quiet Force, Free Form Meditation\04-Steven Toeteberg - To Find A Place.wav Pre-gap length 0:00:00.82 Peak level 41.6 %
Extraction speed 3.3 X
Track quality 100.0 %
Test CRC 255D821C
Copy CRC 255D821C
Accurately ripped (confidence 1) [3DA6ADE1]
Copy OK

Track 5 Filename L:\music\goa_flac\0_my\0\Quiet Force, Free Form Meditation\05-Steven Toeteberg - A Place To Find.wav Pre-gap length 0:00:00.49 Peak level 59.6 %
Extraction speed 3.3 X
Track quality 100.0 %
Test CRC C1B559D6
Copy CRC C1B559D6
Accurately ripped (confidence 1) [478EE517]
Copy OK

Track 6 Filename L:\music\goa_flac\0_my\0\Quiet Force, Free Form Meditation\06-Steven Toeteberg - I Get Back There.wav Pre-gap length 0:00:01.16 Peak level 76.8 %
Extraction speed 3.1 X
Track quality 99.9 %
Test CRC 18A9E13F
Copy CRC 18A9E13F
Accurately ripped (confidence 1) [AA81872D]
Copy OK

Track 7 Filename L:\music\goa_flac\0_my\0\Quiet Force, Free Form Meditation\07-Steven Toeteberg - Back To the Beat.wav Pre-gap length 0:00:01.16 Peak level 59.4 %
Extraction speed 3.4 X
Track quality 100.0 %
Test CRC 420A233F
Copy CRC 420A233F
Accurately ripped (confidence 1) [D47F4F8F]
Copy OK

Track 8 Filename L:\music\goa_flac\0_my\0\Quiet Force, Free Form Meditation\08-Steven Toeteberg - Finale.wav Pre-gap length 0:00:01.66 Peak level 67.0 %
Extraction speed 1.9 X
Track quality 99.8 %
Test CRC F389DBA0
Copy CRC F389DBA0
Accurately ripped (confidence 1) [7ECA7531]
Copy OK

All tracks accurately ripped

No errors occurred

End of status report

==== Log checksum D078498A18AF8C19CBED6A78FE8B42EE783582E59384B0EF9B22BF7C474280A7 ====

[CUETools log; Date: 10.08.2015 21:17:48; Version: 2.1.4]
[CTDB TOCID: ikUX9.we22MzOGHcQV5AhmzJl7k-] found.
Track | CTDB Status
1 | (4/4) Accurately ripped
2 | (4/4) Accurately ripped
3 | (4/4) Accurately ripped
4 | (4/4) Accurately ripped
5 | (4/4) Accurately ripped
6 | (4/4) Accurately ripped
7 | (4/4) Accurately ripped
8 | (4/4) Accurately ripped
[AccurateRip ID: 0015bc01-008e8d8f-720e5808] found.
Track [ CRC | V2 ] Status
01 [dbb40efd|6c48c665] (1+1/4) Accurately ripped
02 [51310baf|7c9fa5c0] (1+1/4) Accurately ripped
03 [75555195|3b0858c7] (1+1/4) Accurately ripped
04 [3da6ade1|db7d7d47] (1+1/4) Accurately ripped
05 [478ee517|a9e22618] (1+1/4) Accurately ripped
06 [aa81872d|5c04b981] (1+1/4) Accurately ripped
07 [d47f4f8f|0f5b8429] (1+1/4) Accurately ripped
08 [7eca7531|e026448d] (1+1/4) Accurately ripped
Offsetted by 664:
01 [45b9a415] (1/4) Accurately ripped
02 [9a7077bf] (1/4) Accurately ripped
03 [09144a15] (1/4) Accurately ripped
04 [c9391271] (1/4) Accurately ripped
05 [584f97ff] (1/4) Accurately ripped
06 [23df2455] (1/4) Accurately ripped
07 [c00f2a7f] (0/4) No match (V2 was not tested)
08 [87258659] (1/4) Accurately ripped

Track Peak [ CRC32 ] [W/O NULL] [ LOG ]
-- 91,2 [791ED591] DEE42A3
01 74,7 D8200E2 [6A28A26A] CRC32
02 75,1 [2FBA1E8F] [A0344344] CRC32
03 91,2 [37ECA1BE] [17634FE6] CRC32
04 41,6 [255D821C] [637FD24A] CRC32
05 59,6 [C1B559D6] [444B6083] CRC32
06 76,8 [18A9E13F] [895C659A] CRC32
07 59,4 [420A233F] [D3CE1859] CRC32
08 67,0 [F389DBA0] [649E2D45] CRC32
Thanks to loh27
DOWNLOAD LINKS
Buy Premium From My Links To Get Resumable Support & Max Speed & To Support Me


Links are Interchangeable - No Password - Single Extraction
Direct Download

Tags: Absolute, Meditation, Reissue

Quiet Force - Absolute Meditation (1994) [Reissue 2009] Download via Hotfile Rapidshare Fileserve Megaupload & FileSonic, Quiet Force - Absolute Meditation (1994) [Reissue 2009] free torrent downloads included crack, serial, keygen.Quiet Force - Absolute Meditation (1994) [Reissue 2009] Fast Download via Rapidshare Hotfile Fileserve Filesonic Megaupload, Quiet Force - Absolute Meditation (1994) [Reissue 2009] Torrents and Emule Download or anything related.
Leave a Comment
Your Name:
E-Mail:
Add Comments:

Enter Code: