Neal Schon - Vortex (2015) 2CD

Download Now

Neal Schon - Vortex (2015) 2CD

Neal Schon - Vortex (2015) 2CD
EAC | FLAC | Image (Cue&Log) ~ 708 Mb (incl 5%) | Time: 01:37:06 | Scans included
Genre: Instrumental Guitar Rock, Hard Rock, Fusion | Label: Music Theories Recordings | # MTR74655

"All-Instrumental album featuring Legendary Guitarist Schon with Keyboardist Jan Hammer and Journey's Steve Smith. The 2-CD album utilizes rock as its foundation, while also embracing elements of jazz, classical and world music in an 18-track stunning, sonically explosive collection of original compositions."

"Forty-six years of musical genius culminates in this double CD from Neal Schon. Aptly christened "Vortex" by Carlos Santana for his unending creativity and virtuosity, Neal Schon's melodies turn sound into emotions for the listener. These works from the master take the audience through a varied musical tapestry that leaves one both gasping for air at times, and utterly serene at other times. Intense, focused, and layered with tasteful melodies, these songs prove that Neal is one of the premier guitarists and writers of our generation. His peers, who are also some of his biggest fans (think Santana, Satriani, Vai, etc...), will especially appreciate the precise and pristine manner in which he executes his solos. Musicians will surely appreciate the complexity of what is recorded and non-musicians will feel the emotive outpouring from his instrument. The sound production is flawless and the talents of Steve Smith, Igor Len, Jan Hammer, all combine to demonstrate what the term "best of the best" really means. Great artwork graces this incredible double CD set as well. Thank you Neal for sharing your talents and pushing the boundaries of music!

Review by Franco B, Amazon.com
"




Tracklist:

CD1:

01. Miles Beyond (06:54)
02. Awakening (05:21)
03. Cuban Fly Zone (04:44)
04. El Matador (03:51)
05. Eternal Love (02:20)
06. In a Cloud (04:56)
07. Irish Cream (05:49)
08. Lady M (Our love Remains) (04:53)
09. Airliner NS910 (05:43)

CD2:

01. Tortured Souls (10:19)
02. Schon & Hammer Now (07:10)
03. NS Vortex (08:15)
04. Unspoken Faith (01:55)
05. Twilight - Spellbound (05:29)
06. Triumph of Love (06:30)
07. Mom (01:36)
08. Talk to Me (08:26)
09. White Light (02:46)


Exact Audio Copy V1.0 beta 3 from 29. August 2011

EAC extraction logfile from 11. July 2015, 8:08

Neal Schon / Vortex CD1

Used drive : PLEXTOR BD-R PX-B940SA Adapter: 5 ID: 0

Read mode : Secure
Utilize accurate stream : Yes
Defeat audio cache : Yes
Make use of C2 pointers : No

Read offset correction

: 667
Overread into Lead-In and Lead-Out : No
Fill up missing offset samples with silence : Yes
Delete leading and trailing silent blocks : No
Null samples used in CRC calculations : Yes
Used interface
: Installed external ASPI interface

Used output format : User Defined Encoder
Selected bitrate : 128 kBit/s
Quality : High
Add ID3 tag : Yes
Command line compressor : G:\Program Files (x86)\Exact Audio Copy\Flac\flac.exe
Additional command line options : -V -8 -T "Date=%year%" -T "Genre=%genre%" %source%

TOC of the extracted CD Track | Start | Length | Start sector | End sector
--1 | 0:00.00 | 6:54.50 | 0 | 31099 2 | 6:54.50 | 5:21.73 | 31100 | 55247 3 | 12:16.48 | 4:44.45 | 55248 | 76592 4 | 17:01.18 | 3:51.01 | 76593 | 93918 5 | 20:52.19 | 2:20.54 | 93919 | 104472 6 | 23:12.73 | 4:56.57 | 104473 | 126729 7 | 28:09.55 | 5:49.05 | 126730 | 152909 8 | 33:58.60 | 4:53.02 | 152910 | 174886 9 | 38:51.62 | 5:43.43 | 174887 | 200654

Range status and errors

Selected range Filename D:\MUSIC\Neal Schon - Vortex CD1.wav Peak level 100.0 %
Extraction speed 2.6 X
Range quality 99.9 %
Test CRC DD46B286
Copy CRC DD46B286
Copy OK

No errors occurred


AccurateRip summary

Track 1 cannot be verified as accurate (confidence 2) [EAE1AFC9], AccurateRip returned [3C6E48FC] (AR v2)
Track 2 cannot be verified as accurate (confidence 2) [D45FB75F], AccurateRip returned [A2CE9848] (AR v2)
Track 3 cannot be verified as accurate (confidence 2) [5C6F8E07], AccurateRip returned [A1377B7C] (AR v2)
Track 4 cannot be verified as accurate (confidence 2) [D38709BF], AccurateRip returned 626391F (AR v2)
Track 5 cannot be verified as accurate (confidence 2) [C3F77FDB], AccurateRip returned [F126EF79] (AR v2)
Track 6 cannot be verified as accurate (confidence 2) [D6CDE384], AccurateRip returned [38349268] (AR v2)
Track 7 cannot be verified as accurate (confidence 2) [0D19C683], AccurateRip returned [22617AB1] (AR v2)
Track 8 cannot be verified as accurate (confidence 2) [DF0B2C4C], AccurateRip returned [F604A16C] (AR v2)
Track 9 cannot be verified as accurate (confidence 2) [AC4540D0], AccurateRip returned [C413C4C4] (AR v2)

No tracks could be verified as accurate
You may have a different pressing from the one(s) in the database

End of status report

==== Log checksum CACF8676DE5F052B2A525BB76F8A2A5CB9A18F0E318F27E4525BEC98AA9F9721 ====

foobar2000 1.2 / Dynamic Range Meter 1.1.1
log date: 2015-08-12 15:43:13

Analyzed: Neal Schon / Vortex CD1

DR Peak RMS Duration Track

DR5 0.00 dB -7.18 dB 6:55 01-1. Miles Beyond
DR6 0.00 dB -7.19 dB 5:22 02-2. Awakening
DR5 0.00 dB -6.44 dB 4:45 03-3. Cuban Fly Zone
DR5 0.00 dB -6.57 dB 3:51 04-4. El Matador
DR11 0.00 dB -15.58 dB 2:21 05-5. Eternal Love
DR5 0.00 dB -7.35 dB 4:57 06-6. In a Cloud
DR5 0.00 dB -6.03 dB 5:49 07-7. Irish Cream
DR5 0.00 dB -6.26 dB 4:53 08-8. Lady M (Our love Remains)
DR5 0.00 dB -6.28 dB 5:44 09-9. Airliner NS910

Number of tracks: 9
Official DR value: DR6

Samplerate: 44100 Hz
Channels: 2
Bits per sample: 16
Bitrate: 951 kbps
Codec: FLAC

Exact Audio Copy V1.0 beta 3 from 29. August 2011

EAC extraction logfile from 11. July 2015, 7:24

Neal Schon / Vortex CD2

Used drive : PLEXTOR BD-R PX-B940SA Adapter: 5 ID: 0

Read mode : Secure
Utilize accurate stream : Yes
Defeat audio cache : Yes
Make use of C2 pointers : No

Read offset correction

: 667
Overread into Lead-In and Lead-Out : No
Fill up missing offset samples with silence : Yes
Delete leading and trailing silent blocks : No
Null samples used in CRC calculations : Yes
Used interface
: Installed external ASPI interface

Used output format : User Defined Encoder
Selected bitrate : 128 kBit/s
Quality : High
Add ID3 tag : Yes
Command line compressor : G:\Program Files (x86)\Exact Audio Copy\Flac\flac.exe
Additional command line options : -V -8 -T "Date=%year%" -T "Genre=%genre%" %source%

TOC of the extracted CD Track | Start | Length | Start sector | End sector
--1 | 0:00.00 | 10:19.46 | 0 | 46470 2 | 10:19.46 | 7:10.12 | 46471 | 78732 3 | 17:29.58 | 8:15.67 | 78733 | 115924 4 | 25:45.50 | 1:55.27 | 115925 | 124576 5 | 27:41.02 | 5:29.73 | 124577 | 149324 6 | 33:11.00 | 6:30.20 | 149325 | 178594 7 | 39:41.20 | 1:36.49 | 178595 | 185843 8 | 41:17.69 | 8:26.20 | 185844 | 223813 9 | 49:44.14 | 2:46.18 | 223814 | 236281

Range status and errors

Selected range Filename D:\MUSIC\Neal Schon - Vortex CD2.wav Peak level 100.0 %
Extraction speed 2.6 X
Range quality 99.9 %
Test CRC 0E7C561C
Copy CRC 0E7C561C
Copy OK

No errors occurred


AccurateRip summary

Track 1 cannot be verified as accurate (confidence 2) [93B9F4B4], AccurateRip returned [130674C6] (AR v2)
Track 2 cannot be verified as accurate (confidence 2) [E2C47F48], AccurateRip returned FB49D9C (AR v2)
Track 3 cannot be verified as accurate (confidence 2) [E6109165], AccurateRip returned [0AD29CC5] (AR v2)
Track 4 cannot be verified as accurate (confidence 2) [353F814B], AccurateRip returned [D62CC5C9] (AR v2)
Track 5 cannot be verified as accurate (confidence 2) [07C9C7FB], AccurateRip returned [3B501C02] (AR v2)
Track 6 cannot be verified as accurate (confidence 2) [1B793115], AccurateRip returned [D1A5353B] (AR v2)
Track 7 cannot be verified as accurate (confidence 2) [4EE46E8B], AccurateRip returned [8E6BAAEA] (AR v2)
Track 8 cannot be verified as accurate (confidence 2) [364584A6], AccurateRip returned [8E5C6EC4] (AR v2)
Track 9 cannot be verified as accurate (confidence 2) [5E774841], AccurateRip returned [7B6CBE70] (AR v2)

No tracks could be verified as accurate
You may have a different pressing from the one(s) in the database

End of status report

==== Log checksum 80330BA7AD2A1BF2B9E3CA743D7BB9714B6D23ACDD6A0B410B948639A028CEE0 ====

foobar2000 1.2 / Dynamic Range Meter 1.1.1
log date: 2015-08-12 15:43:36

Analyzed: Neal Schon / Vortex CD2

DR Peak RMS Duration Track

DR6 0.00 dB -8.04 dB 10:20 01-1. Tortured Souls
DR6 0.00 dB -7.09 dB 7:10 02-2. Schon & Hammer Now
DR6 0.00 dB -7.06 dB 8:16 03-3. NS Vortex
DR9 -1.09 dB -11.60 dB 1:55 04-4. Unspoken Faith
DR6 0.00 dB -7.92 dB 5:30 05-5. Twilight - Spellbound
DR5 0.00 dB -6.98 dB 6:30 06-6. Triumph of Love
DR10 0.00 dB -12.63 dB 1:37 07-7. Mom
DR6 0.00 dB -8.35 dB 8:26 08-8. Talk to Me
DR10 -2.33 dB -15.21 dB 2:46 09-9. White Light

Number of tracks: 9
Official DR value: DR7

Samplerate: 44100 Hz
Channels: 2
Bits per sample: 16
Bitrate: 960 kbps
Codec: FLAC

Neal Schon - Vortex (2015) 2CD

Neal Schon - Vortex (2015) 2CD

All thanks to original releaser - Sket4er
Password: designol

DOWNLOAD LINKS
Buy Premium From My Links To Get Resumable Support & Max Speed & To Support Me


Links are Interchangeable - No Password - Single Extraction
Direct Download

Tags: Vortex

Neal Schon - Vortex (2015) 2CD Download via Hotfile Rapidshare Fileserve Megaupload & FileSonic, Neal Schon - Vortex (2015) 2CD free torrent downloads included crack, serial, keygen.Neal Schon - Vortex (2015) 2CD Fast Download via Rapidshare Hotfile Fileserve Filesonic Megaupload, Neal Schon - Vortex (2015) 2CD Torrents and Emule Download or anything related.
Leave a Comment
Your Name:
E-Mail:
Add Comments:

Enter Code: