Rowland S. Howard - Six Strings That Drew Blood (2014) [2CD] {Liberation Music}

Download Now


Rowland S. Howard - Six Strings That Drew Blood (2014) [2CD] {Liberation Music}
Rowland S. Howard - Six Strings That Drew Blood (2014) [2CD] {Liberation Music}
EAC rip (secure mode) | FLAC (tracks)+CUE+LOG -> 1.07 Gb | MP3 @320 -> 364 Mb
Artwork @ 300 dpi (png) -> 22 Mb | 5% repair rar
© 2014 Liberation Music | LMCD0255
Rock / Alternative / Post Punk / Punk Blues / Indie

"Compiled in conjunction with and with the full support of Genevieve McGuckin. Harry Howard and Mick Harvey among others. Rowland S. Howard's 'Six Strings That Drew Blood' finally accords this remarkable individual the respect he deserves. The 32 tracks cover Rowland's career: beginning with a blistering version of "Shivers" from 1999. The anthology progresses chronologically with tracks from The Boys Next Door, The Birthday Party, Crime & The City Solution, These Immortal Souls and a selection of tracks from both Teenage Snuff Film and Pop Crimes. There are also a number of collaborations featuring Nikki Sudden, Lydia Lunch and Magic Dirt. Audio for the entire collection has been overseen by long-time producer Lindsay Gravina. Revered and iconic Australian rock musician, guitarist and songwriter Rowland S. Howard is best known for his work with the post-punk group The Birthday Party, as well as The Young Charlatans, The Boys Next Door, Crime & the City Solution, These Immortal Souls and finally his subsequent solo career (which spawned two studio albums)."

Rowland S. Howard - Six Strings That Drew Blood (2014) [2CD] {Liberation Music}


ALBUM REVIEW: ROWLAND S. HOWARD - SIX STRINGS THAT DREW BLOOD

tracklist:
CD1

01 - Rowland S. Howard - Shivers
02 - The Boys Next Door - After A Fashion
03 - The Birthday Party - The Friend Catcher
04 - The Birthday Party - Happy Birthday
05 - The Birthday Party - Blast Off
06 - The Birthday Party - Dim Locator
07 - The Birthday Party - Several Sins
08 - Rowland S. Howard With Lydia Lunch - Some Velvet Morning
09 - The Birthday Party - Jennifer's Veil
10 - The Birthday Party - Say A Spell
11 - Crime And The City Solutions - Six Bells Chime
12 - Crime And The City Solutions - Her Room Of Lights
13 - Nikki Sudden & Rowland S. Howard - Wedding Hotel
14 - These Immortal Souls - Marry Me (Lie! Lie!)
15 - These Immortal Souls - I Ate The Knife
16 - These Immortal Souls - So The Story Goes
17 - These Immortal Souls - Crowned

Rowland S. Howard - Six Strings That Drew Blood (2014) [2CD] {Liberation Music}


CD2
01 - These Immortal Souls - Insomnicide
02 - These Immortal Souls - Black Milk
03 - These Immortal Souls - Hyperspace
04 - These Immortal Souls - King Of Kalifornia
05 - Magic Dirt Featuring Rowland S. Howard - Summer High
06 - Rowland S. Howard - Undone
07 - Rowland S. Howard - Exit Everything
08 - Rowland S. Howard - Autoluminescent
09 - Rowland S. Howard - Dead Radio
10 - Rowland S. Howard - Sleep Alone
11 - Rowland S. Howard - Shut Me Down
12 - Rowland S. Howard - (I Know) A Girl Called Jonny
13 - Rowland S. Howard - Pop Crimes
14 - Rowland S. Howard - Ave Maria
15 - Rowland S. Howard - Golden Age Of Bloodshed

Rowland S. Howard - Six Strings That Drew Blood (2014) [2CD] {Liberation Music}



Exact Audio Copy V1.0 beta 3 from 29. August 2011

EAC extraction logfile from 29. January 2015, 14:13

Rowland S. Howard / Six Strings Drew That Blood

Used drive : HL-DT-STDVDRAM GH20NS15 Adapter: 2 ID: 1

Read mode : Secure
Utilize accurate stream : Yes
Defeat audio cache : Yes
Make use of C2 pointers : No

Read offset correction

: 667
Overread into Lead-In and Lead-Out : No
Fill up missing offset samples with silence : Yes
Delete leading and trailing silent blocks : No
Null samples used in CRC calculations : Yes
Used interface
: Native Win32 interface for Win NT & 2000
Gap handling
: Appended to previous track

Used output format : User Defined Encoder
Selected bitrate : 128 kBit/s
Quality : High
Add ID3 tag : No
Command line compressor : C:\Program Files\Exact Audio Copy\Flac\flac.exe
Additional command line options : -8 -V -T "ARTIST=%artist%" -T "TITLE=%title%" -T "ALBUM=%albumtitle%" -T "DATE=%year%" -T "TRACKNUMBER=%tracknr%" -T "TOTALTRACKS=%numtracks%" -T "GENRE=%genre%" -T "ALBUMARTIST=%albumartist%" -T "ALBUM ARTIST=%albumartist%" -T "COMMENT=%comment%" %source%

TOC of the extracted CD Track | Start | Length | Start sector | End sector
--1 | 0:00.00 | 5:07.47 | 0 | 23071 2 | 5:07.47 | 4:35.43 | 23072 | 43739 3 | 9:43.15 | 4:20.74 | 43740 | 63313 4 | 14:04.14 | 4:00.63 | 63314 | 81376 5 | 18:05.02 | 2:18.50 | 81377 | 91776 6 | 20:23.52 | 2:52.54 | 91777 | 104730 7 | 23:16.31 | 2:56.47 | 104731 | 117977 8 | 26:13.03 | 4:25.35 | 117978 | 137887 9 | 30:38.38 | 4:57.64 | 137888 | 160226
10 | 35:36.27 | 3:41.51 | 160227 | 176852
11 | 39:18.03 | 5:39.40 | 176853 | 202317
12 | 44:57.43 | 3:48.74 | 202318 | 219491
13 | 48:46.42 | 3:36.17 | 219492 | 235708
14 | 52:22.59 | 4:44.43 | 235709 | 257051
15 | 57:07.27 | 5:01.01 | 257052 | 279627
16 | 62:08.28 | 4:26.49 | 279628 | 299626
17 | 66:35.02 | 9:09.21 | 299627 | 340822

Track 1 Filename E:\Torrents\VA - Six Strings Drew That Blood (2014) [FLAC] {LMCD0255}\01 - Rowland S. Howard - Shivers.wav Pre-gap length 0:00:02.00 Peak level 97.0 %
Extraction speed 4.6 X
Track quality 100.0 %
Test CRC E55951B3
Copy CRC E55951B3
Accurately ripped (confidence 2) [212892C3] (AR v2)
Copy OK

Track 2 Filename E:\Torrents\VA - Six Strings Drew That Blood (2014) [FLAC] {LMCD0255}\02 - The Boys Next Door - After A Fashion.wav Peak level 95.8 %
Extraction speed 4.3 X
Track quality 99.9 %
Test CRC 60A5E944
Copy CRC 60A5E944
Accurately ripped (confidence 2) [4B099010] (AR v2)
Copy OK

Track 3 Filename E:\Torrents\VA - Six Strings Drew That Blood (2014) [FLAC] {LMCD0255}\03 - The Birthday Party - The Friend Catcher.wav Peak level 99.4 %
Extraction speed 5.5 X
Track quality 100.0 %
Test CRC 5A3CAAF3
Copy CRC 5A3CAAF3
Accurately ripped (confidence 2) [193AB08B] (AR v2)
Copy OK

Track 4 Filename E:\Torrents\VA - Six Strings Drew That Blood (2014) [FLAC] {LMCD0255}\04 - The Birthday Party - Happy Birthday.wav Peak level 95.8 %
Extraction speed 5.8 X
Track quality 100.0 %
Test CRC 1C9B816B
Copy CRC 1C9B816B
Accurately ripped (confidence 2) [A11DDF95] (AR v2)
Copy OK

Track 5 Filename E:\Torrents\VA - Six Strings Drew That Blood (2014) [FLAC] {LMCD0255}\05 - The Birthday Party - Blast Off.wav Peak level 95.8 %
Extraction speed 5.3 X
Track quality 100.0 %
Test CRC 906F5DD0
Copy CRC 906F5DD0
Accurately ripped (confidence 2) [5F058F82] (AR v2)
Copy OK

Track 6 Filename E:\Torrents\VA - Six Strings Drew That Blood (2014) [FLAC] {LMCD0255}\06 - The Birthday Party - Dim Locator.wav Peak level 99.4 %
Extraction speed 6.0 X
Track quality 100.0 %
Test CRC 67BCABBB
Copy CRC 67BCABBB
Accurately ripped (confidence 2) [DD7CD682] (AR v2)
Copy OK

Track 7 Filename E:\Torrents\VA - Six Strings Drew That Blood (2014) [FLAC] {LMCD0255}\07 - The Birthday Party - Several Sins.wav Peak level 99.4 %
Extraction speed 4.7 X
Track quality 99.9 %
Test CRC 11312FEE
Copy CRC 11312FEE
Accurately ripped (confidence 2) [0213D160] (AR v2)
Copy OK

Track 8 Filename E:\Torrents\VA - Six Strings Drew That Blood (2014) [FLAC] {LMCD0255}\08 - Rowland S. Howard With Lydia Lunch - Some Velvet Morning.wav Peak level 99.4 %
Extraction speed 6.7 X
Track quality 100.0 %
Test CRC 053E5F99
Copy CRC 053E5F99
Accurately ripped (confidence 2) [50A5C64F] (AR v2)
Copy OK

Track 9 Filename E:\Torrents\VA - Six Strings Drew That Blood (2014) [FLAC] {LMCD0255}\09 - The Birthday Party - Jennifer's Veil.wav Peak level 95.8 %
Extraction speed 7.2 X
Track quality 100.0 %
Test CRC 91D385CA
Copy CRC 91D385CA
Accurately ripped (confidence 2) [5F9B86DA] (AR v2)
Copy OK

Track 10 Filename E:\Torrents\VA - Six Strings Drew That Blood (2014) [FLAC] {LMCD0255}\10 - The Birthday Party - Say A Spell.wav Peak level 95.8 %
Extraction speed 6.9 X
Track quality 100.0 %
Test CRC D7759F1E
Copy CRC D7759F1E
Accurately ripped (confidence 2) [EBE1BA5E] (AR v2)
Copy OK

Track 11 Filename E:\Torrents\VA - Six Strings Drew That Blood (2014) [FLAC] {LMCD0255}\11 - Crime And The City Solutions - Six Bells Chime.wav Peak level 95.8 %
Extraction speed 7.6 X
Track quality 100.0 %
Test CRC 3AE79AEE
Copy CRC 3AE79AEE
Accurately ripped (confidence 2) [D1CE0E7D] (AR v2)
Copy OK

Track 12 Filename E:\Torrents\VA - Six Strings Drew That Blood (2014) [FLAC] {LMCD0255}\12 - Crime And The City Solutions - Her Room Of Lights.wav Peak level 95.8 %
Extraction speed 7.4 X
Track quality 100.0 %
Test CRC 7C8F9E8D
Copy CRC 7C8F9E8D
Accurately ripped (confidence 2) [6961EC47] (AR v2)
Copy OK

Track 13 Filename E:\Torrents\VA - Six Strings Drew That Blood (2014) [FLAC] {LMCD0255}\13 - Nikki Sudden & Rowland S. Howard - Wedding Hotel.wav Peak level 90.2 %
Extraction speed 7.8 X
Track quality 100.0 %
Test CRC B9CAD0C9
Copy CRC B9CAD0C9
Accurately ripped (confidence 2) [9BBF1B99] (AR v2)
Copy OK

Track 14 Filename E:\Torrents\VA - Six Strings Drew That Blood (2014) [FLAC] {LMCD0255}\14 - These Immortal Souls - Marry Me (Lie! Lie!).wav Peak level 95.8 %
Extraction speed 8.3 X
Track quality 100.0 %
Test CRC A26851C5
Copy CRC A26851C5
Accurately ripped (confidence 2) [A67D6239] (AR v2)
Copy OK

Track 15 Filename E:\Torrents\VA - Six Strings Drew That Blood (2014) [FLAC] {LMCD0255}\15 - These Immortal Souls - I Ate The Knife.wav Peak level 95.8 %
Extraction speed 8.3 X
Track quality 100.0 %
Test CRC E338B1A1
Copy CRC E338B1A1
Accurately ripped (confidence 2) [E12FC6F8] (AR v2)
Copy OK

Track 16 Filename E:\Torrents\VA - Six Strings Drew That Blood (2014) [FLAC] {LMCD0255}\16 - These Immortal Souls - So The Story Goes.wav Peak level 95.8 %
Extraction speed 8.6 X
Track quality 100.0 %
Test CRC 2D52EDF0
Copy CRC 2D52EDF0
Accurately ripped (confidence 2) [233B4D04] (AR v2)
Copy OK

Track 17 Filename E:\Torrents\VA - Six Strings Drew That Blood (2014) [FLAC] {LMCD0255}\17 - These Immortal Souls - Crowned.wav Peak level 95.8 %
Extraction speed 9.6 X
Track quality 100.0 %
Test CRC DD60CDF6
Copy CRC DD60CDF6
Accurately ripped (confidence 2) [D5BE6346] (AR v2)
Copy OK

All tracks accurately ripped

No errors occurred

End of status report

- CUETools DB Plugin V2.1.3

[CTDB TOCID: hFFsnC39CVZAern_D2IOdN20.Bo-] found, Submit result: hFFsnC39CVZAern_D2IOdN20.Bo- has been confirmed
[6aedeffb] (2/4) Accurately ripped
[4ecf3590] (1/4) No match
[95384d74] (1/4) No match

==== Log checksum 41475A3ACE3A11F55C12F5BE2B8E77711183B0BD86C3ED0EDE7F39794C99476C ====

Exact Audio Copy V1.0 beta 3 from 29. August 2011

EAC extraction logfile from 15. January 2015, 12:22

Rowland S. Howard / Six Strings Drew Blood

Used drive : HL-DT-STBD-RE BH16NS40 Adapter: 0 ID: 0

Read mode : Secure
Utilize accurate stream : Yes
Defeat audio cache : Yes
Make use of C2 pointers : No

Read offset correction

: 6
Overread into Lead-In and Lead-Out : No
Fill up missing offset samples with silence : Yes
Delete leading and trailing silent blocks : No
Null samples used in CRC calculations : Yes
Used interface
: Native Win32 interface for Win NT & 2000
Gap handling
: Appended to previous track

Used output format : User Defined Encoder
Selected bitrate : 1024 kBit/s
Quality : High
Add ID3 tag : No
Command line compressor : C:\Program Files (x86)\Exact Audio Copy\Flac\flac.exe
Additional command line options : -8 -V -T "ARTIST=%artist%" -T "TITLE=%title%" -T "ALBUM=%albumtitle%" -T "DATE=%year%" -T "TRACKNUMBER=%tracknr%" -T "TOTALTRACKS=%numtracks%" -T "GENRE=%genre%" -T "ALBUMARTIST=%albumartist%" -T "ALBUM ARTIST=%albumartist%" -T "COMMENT=%comment%" %source%

TOC of the extracted CD Track | Start | Length | Start sector | End sector
--1 | 0:00.00 | 2:29.74 | 0 | 11248 2 | 2:29.74 | 5:22.37 | 11249 | 35435 3 | 7:52.36 | 5:28.58 | 35436 | 60093 4 | 13:21.19 | 3:53.58 | 60094 | 77626 5 | 17:15.02 | 5:22.57 | 77627 | 101833 6 | 22:37.59 | 6:54.29 | 101834 | 132912 7 | 29:32.13 | 7:36.06 | 132913 | 167118 8 | 37:08.19 | 3:26.14 | 167119 | 182582 9 | 40:34.33 | 5:40.59 | 182583 | 208141
10 | 46:15.17 | 7:36.58 | 208142 | 242399
11 | 53:52.00 | 4:22.56 | 242400 | 262105
12 | 58:14.56 | 3:50.52 | 262106 | 279407
13 | 62:05.33 | 7:21.38 | 279408 | 312520
14 | 69:26.71 | 3:54.42 | 312521 | 330112
15 | 73:21.38 | 4:27.32 | 330113 | 350169

Track 1 Filename K:\Torrents\VA - Six Strings Drew Blood (2014) [FLAC] {LMCD0255}\01 - These Immortal Souls - Insomnicide.wav Pre-gap length 0:00:02.00 Peak level 95.8 %
Extraction speed 2.6 X
Track quality 100.0 %
Test CRC 17C80B0B
Copy CRC 17C80B0B
Accurately ripped (confidence 2) [710E4A93] (AR v2)
Copy OK

Track 2 Filename K:\Torrents\VA - Six Strings Drew Blood (2014) [FLAC] {LMCD0255}\02 - These Immortal Souls - Black Milk.wav Peak level 95.8 %
Extraction speed 2.3 X
Track quality 100.0 %
Test CRC 4E4DD5FC
Copy CRC 4E4DD5FC
Accurately ripped (confidence 2) 7A88857 (AR v2)
Copy OK

Track 3 Filename K:\Torrents\VA - Six Strings Drew Blood (2014) [FLAC] {LMCD0255}\03 - These Immortal Souls - Hyperspace.wav Peak level 95.8 %
Extraction speed 1.5 X
Track quality 100.0 %
Test CRC 5F99ECE2
Copy CRC 5F99ECE2
Accurately ripped (confidence 2) 1C24108 (AR v2)
Copy OK

Track 4 Filename K:\Torrents\VA - Six Strings Drew Blood (2014) [FLAC] {LMCD0255}\04 - These Immortal Souls - King Of Kalifornia.wav Peak level 95.8 %
Extraction speed 1.5 X
Track quality 100.0 %
Test CRC 55532D3B
Copy CRC 55532D3B
Accurately ripped (confidence 2) [99E750BE] (AR v2)
Copy OK

Track 5 Filename K:\Torrents\VA - Six Strings Drew Blood (2014) [FLAC] {LMCD0255}\05 - Magic Dirt Featuring Rowland S. Howard - Summer High.wav Peak level 96.0 %
Extraction speed 1.7 X
Track quality 100.0 %
Test CRC 064C02B9
Copy CRC 064C02B9
Accurately ripped (confidence 2) [C9AF411C] (AR v2)
Copy OK

Track 6 Filename K:\Torrents\VA - Six Strings Drew Blood (2014) [FLAC] {LMCD0255}\06 - Rowland S. Howard - Undone.wav Peak level 95.8 %
Extraction speed 1.8 X
Track quality 100.0 %
Test CRC A6E9AF2A
Copy CRC A6E9AF2A
Accurately ripped (confidence 2) [F041B7A9] (AR v2)
Copy OK

Track 7 Filename K:\Torrents\VA - Six Strings Drew Blood (2014) [FLAC] {LMCD0255}\07 - Rowland S. Howard - Exit Everything.wav Peak level 96.1 %
Extraction speed 2.0 X
Track quality 100.0 %
Test CRC 584751EB
Copy CRC 584751EB
Accurately ripped (confidence 2) [6BE77FD4] (AR v2)
Copy OK

Track 8 Filename K:\Torrents\VA - Six Strings Drew Blood (2014) [FLAC] {LMCD0255}\08 - Rowland S. Howard - Autoluminescent.wav Peak level 95.8 %
Extraction speed 1.7 X
Track quality 99.9 %
Test CRC 8615CBEA
Copy CRC 8615CBEA
Accurately ripped (confidence 2) [76682DDE] (AR v2)
Copy OK

Track 9 Filename K:\Torrents\VA - Six Strings Drew Blood (2014) [FLAC] {LMCD0255}\09 - Rowland S. Howard - Dead Radio.wav Peak level 95.8 %
Extraction speed 2.1 X
Track quality 100.0 %
Test CRC B03541B9
Copy CRC B03541B9
Accurately ripped (confidence 2) [DA0E5312] (AR v2)
Copy OK

Track 10 Filename K:\Torrents\VA - Six Strings Drew Blood (2014) [FLAC] {LMCD0255}\10 - Rowland S. Howard - Sleep Alone.wav Peak level 95.8 %
Extraction speed 2.3 X
Track quality 100.0 %
Test CRC 4C915102
Copy CRC 4C915102
Accurately ripped (confidence 2) [7763A3D0] (AR v2)
Copy OK

Track 11 Filename K:\Torrents\VA - Six Strings Drew Blood (2014) [FLAC] {LMCD0255}\11 - Rowland S. Howard - Shut Me Down.wav Peak level 96.1 %
Extraction speed 2.3 X
Track quality 100.0 %
Test CRC CDDC6223
Copy CRC CDDC6223
Accurately ripped (confidence 2) [A401AC19] (AR v2)
Copy OK

Track 12 Filename K:\Torrents\VA - Six Strings Drew Blood (2014) [FLAC] {LMCD0255}\12 - Rowland S. Howard - (I Know) A Girl Called Jonny.wav Peak level 96.0 %
Extraction speed 2.3 X
Track quality 100.0 %
Test CRC 0292C65D
Copy CRC 0292C65D
Accurately ripped (confidence 2) [747E5AF4] (AR v2)
Copy OK

Track 13 Filename K:\Torrents\VA - Six Strings Drew Blood (2014) [FLAC] {LMCD0255}\13 - Rowland S. Howard - Pop Crimes.wav Peak level 97.8 %
Extraction speed 2.5 X
Track quality 100.0 %
Test CRC BAC4CB22
Copy CRC BAC4CB22
Accurately ripped (confidence 2) [C9B23385] (AR v2)
Copy OK

Track 14 Filename K:\Torrents\VA - Six Strings Drew Blood (2014) [FLAC] {LMCD0255}\14 - Rowland S. Howard - Ave Maria.wav Peak level 96.4 %
Extraction speed 2.5 X
Track quality 100.0 %
Test CRC C83F7142
Copy CRC C83F7142
Accurately ripped (confidence 2) [0F27D9B7] (AR v2)
Copy OK

Track 15 Filename K:\Torrents\VA - Six Strings Drew Blood (2014) [FLAC] {LMCD0255}\15 - Rowland S. Howard - Golden Age Of Bloodshed.wav Peak level 96.5 %
Extraction speed 2.5 X
Track quality 100.0 %
Test CRC 006CC6F2
Copy CRC 006CC6F2
Accurately ripped (confidence 2) [195FCF56] (AR v2)
Copy OK

All tracks accurately ripped

No errors occurred

End of status report

- CUETools DB Plugin V2.1.3

[CTDB TOCID: 8tTwa46wlozU_VuSwA5j.4m.evs-] found, Submit result: 8tTwa46wlozU_VuSwA5j.4m.evs- has been confirmed
[48667c85] (2/2) Accurately ripped

==== Log checksum B99015584B0AB2B052CDA8E7F9B70EFE5C3A5F1DF63ED8E3399DEB056A95E9A8 ====

Rowland S. Howard - Six Strings That Drew Blood (2014) [2CD] {Liberation Music}


All thanks goes to the original releaser!
DOWNLOAD LINKS
Buy Premium From My Links To Get Resumable Support & Max Speed & To Support Me

Rapidgator.net:
http://rapidgator.net/file/8ef99d0142a44fe5d5dee7a67ab88a90/xdzfd.rowlandsixstringsthatARTWORK.rar.html
http://rapidgator.net/file/7a6d342598387f4b58510f83902ccd2e/xdzfd.rowlandsixstringsthatCD1.part1.rar.html
http://rapidgator.net/file/02a67dd2d9b2603a1e5dbc95fbd78572/xdzfd.rowlandsixstringsthatCD1.part2.rar.html
http://rapidgator.net/file/6708a813c02e091ab7704e78d798a14a/xdzfd.rowlandsixstringsthatCD1.part3.rar.html
http://rapidgator.net/file/c3ccd88fb52fd538f2505bbf78b6ff6b/xdzfd.rowlandsixstringsthatCD1MP.rar.html
http://rapidgator.net/file/074297d3aebd4d78a77e15d01bebcbd6/xdzfd.rowlandsixstringsthatCD2.part1.rar.html
http://rapidgator.net/file/695b1e2cb053e4cf263594680c77738b/xdzfd.rowlandsixstringsthatCD2.part2.rar.html
http://rapidgator.net/file/2163017ba63980df630e446a2c1a5893/xdzfd.rowlandsixstringsthatCD2.part3.rar.html
http://rapidgator.net/file/8fa893bf65f22c5903434d1d9b98bb99/xdzfd.rowlandsixstringsthatCD2MP.rar.html

Uploaded.net:
http://uploaded.net/file/kbkhjqyy/xdzfd.rowlandsixstringsthatARTWORK.rar
http://uploaded.net/file/cohtjih8/xdzfd.rowlandsixstringsthatCD1.part1.rar
http://uploaded.net/file/qcl3iidm/xdzfd.rowlandsixstringsthatCD1.part2.rar
http://uploaded.net/file/qe2jprq6/xdzfd.rowlandsixstringsthatCD1.part3.rar
http://uploaded.net/file/xrwibk49/xdzfd.rowlandsixstringsthatCD1MP.rar
http://uploaded.net/file/2t6hqy49/xdzfd.rowlandsixstringsthatCD2.part1.rar
http://uploaded.net/file/nyruqaeq/xdzfd.rowlandsixstringsthatCD2.part2.rar
http://uploaded.net/file/w2j5gf7n/xdzfd.rowlandsixstringsthatCD2.part3.rar
http://uploaded.net/file/8g1icj3w/xdzfd.rowlandsixstringsthatCD2MP.rar

Uploadable.ch:
http://www.uploadable.ch/file/gYs28KbjbmSf/xdzfd.rowlandsixstringsthatARTWORK.rar
http://www.uploadable.ch/file/A7hUGjWDz7xu/xdzfd.rowlandsixstringsthatCD1.part1.rar
http://www.uploadable.ch/file/UapuAHrhMQgf/xdzfd.rowlandsixstringsthatCD1.part2.rar
http://www.uploadable.ch/file/CCskduNbj9se/xdzfd.rowlandsixstringsthatCD1.part3.rar
http://www.uploadable.ch/file/E9fUNmu3wRzN/xdzfd.rowlandsixstringsthatCD1MP.rar
http://www.uploadable.ch/file/jEJ3xqVBaPqW/xdzfd.rowlandsixstringsthatCD2.part1.rar
http://www.uploadable.ch/file/aQGBEVc9ujCz/xdzfd.rowlandsixstringsthatCD2.part2.rar
http://www.uploadable.ch/file/tyTpkJH3vCqR/xdzfd.rowlandsixstringsthatCD2.part3.rar
http://www.uploadable.ch/file/VJuQH9NrE4hG/xdzfd.rowlandsixstringsthatCD2MP.rar

Links are Interchangeable - No Password - Single Extraction
Direct Download

Tags: Rowland, Howard, Strings, Liberation

Rowland S. Howard - Six Strings That Drew Blood (2014) [2CD] {Liberation Music} Download via Hotfile Rapidshare Fileserve Megaupload & FileSonic, Rowland S. Howard - Six Strings That Drew Blood (2014) [2CD] {Liberation Music} free torrent downloads included crack, serial, keygen.Rowland S. Howard - Six Strings That Drew Blood (2014) [2CD] {Liberation Music} Fast Download via Rapidshare Hotfile Fileserve Filesonic Megaupload, Rowland S. Howard - Six Strings That Drew Blood (2014) [2CD] {Liberation Music} Torrents and Emule Download or anything related.
Leave a Comment
Your Name:
E-Mail:
Add Comments:

Enter Code: