Dog Party - Vol. 4 (2015)

Download Now


Dog Party - Vol. 4 (2015)
Dog Party - Vol. 4 (2015)
FLAC+CUE+LOG or MP3 CBR 320 | Complete Scanwork | 267 or 101 MB

Sacramento's girl-duo, Dog Party, strike again with their fourth album, Vol. 4. The Giles sisters, Lucy and Gwendolyn, bring another record full of poppy tunes, with melodies that hearken back to The Ronettes, paired with the catchy punk energy of The Buzzcocks. Your second chance to check them out.
Dog Party - Vol. 4 (2015)

Dog Party's previous album, Lost Control, saw the teenage Giles sisters (Gwendolyn on guitar and vocals, Lucy on drums and vocals) tightening up their songs and, with the help of engineer Chris Woodhouse, making their poppy punk leap out of the speakers. On their 2015 album Vol. 4, the duo sounds tougher, more mature, and even more in control of its sound. Gwendolyn's guitar playing is stronger with a fuller, heavier sound and her vocals have a newfound power. She was always tops at snarling, sounding perfectly bored and being sassy, but now she really belts it out on a few songs. Check "Sapphires" for a display of her skills. Lucy sounds assured and rock-solid on drums too, and the whole thing has a newfound punch that Lost Control almost delivered, but didn't quite. It's still pretty straightforward punk-pop, with songs about lame guys, crappy stuff that sucks, and wanting to be treated right, but they deliver it with such high levels of snappy attitude and hooky joy that it's even more impossible to resist than before. The songs this time are a bit more memorable, with odes to zombie boyfriends ("Dead Guy"), peppy love songs, and spunky kissoffs sitting side by side with some slick covers ("I Can't Believe That You're Real" by fellow Sacramento punks Agent Ribbons and "Girlfriend" by Ty Segall). The Giles sisters' harmonies are a little more complicated too; the way their voices blend together on "Forget" is goosebump good and it's too bad they don't sing together more often. It's great to hear Dog Party getting better and better with each release, and Vol. 4 is right up there with the best poppy punk anyone's going to hear in 2015.

~ Tim Sedra, all media guide

Tracklist:

01. Dead Guy
02. Peanut Butter Dream
03. Be My Friend
04. Song 362
05. Lipstick Lips
06. Forget
07. Creepin'
08. I Can't Believe That You're Real
09. Operation #2
10. Sapphires
11. Girlfriend
12. Space Invader
13. G Diddly

Exact Audio Copy V1.1 from 23. June 2015

EAC extraction logfile from 4. August 2015, 7:50

Dog Party / Vol. 4

Used drive : ASUS DRW-24B1ST Adapter: 1 ID: 0

Read mode : Secure
Utilize accurate stream : Yes
Defeat audio cache : Yes
Make use of C2 pointers : No

Read offset correction

: 6
Overread into Lead-In and Lead-Out : No
Fill up missing offset samples with silence : Yes
Delete leading and trailing silent blocks : No
Null samples used in CRC calculations : Yes
Used interface
: Native Win32 interface for Win NT & 2000

Used output format : Internal WAV Routines
Sample format : 44.100 Hz; 16 Bit; Stereo

TOC of the extracted CD Track | Start | Length | Start sector | End sector
--1 | 0:00.00 | 2:50.14 | 0 | 12763 2 | 2:50.14 | 2:02.49 | 12764 | 21962 3 | 4:52.63 | 1:50.73 | 21963 | 30285 4 | 6:43.61 | 1:58.35 | 30286 | 39170 5 | 8:42.21 | 2:29.00 | 39171 | 50345 6 | 11:11.21 | 3:20.04 | 50346 | 65349 7 | 14:31.25 | 2:12.58 | 65350 | 75307 8 | 16:44.08 | 2:04.55 | 75308 | 84662 9 | 18:48.63 | 1:26.20 | 84663 | 91132
10 | 20:15.08 | 3:12.63 | 91133 | 105595
11 | 23:27.71 | 2:00.46 | 105596 | 114641
12 | 25:28.42 | 2:11.73 | 114642 | 124539
13 | 27:40.40 | 2:03.46 | 124540 | 133810

Range status and errors

Selected range Filename F:\_AvaxHome__Rehabilly\DOG PARTY\2015- Vol. 4\Dog Party - Vol 4 (AM-293CD).wav Peak level 98.8 %
Extraction speed 7.0 X
Range quality 99.9 %
Test CRC 62F5974A
Copy CRC 62F5974A
Copy OK

No errors occurred


AccurateRip summary

Track 1 not present in database
Track 2 not present in database
Track 3 not present in database
Track 4 not present in database
Track 5 not present in database
Track 6 not present in database
Track 7 not present in database
Track 8 not present in database
Track 9 not present in database
Track 10 not present in database
Track 11 not present in database
Track 12 not present in database
Track 13 not present in database

None of the tracks are present in the AccurateRip database

End of status report

==== Log checksum E89853DC5F59DD0852F9644D8F66D2DC4E7F6EC08EDF2323EA48DBE7DC7F8428 ====

Recorded at The Dock, Sacramento, CA. Engineered by Chris Woodhouse
Mastered at Golden Mastering, Los Angeles, CA.

Gwendolyn Giles - guitar, vocals
Lucy Giles - drums, vocals

Release Date: June 16, 2015
Label: Asian Man Records
Catalog No.: AM-293 CD
DOWNLOAD LINKS:
Buy Premium To Support Me & Get Resumable Support & Max Speed


Links are Interchangeable - No Password - Single Extraction
Direct Download

Dog Party - Vol. 4 (2015) Download via Hotfile Rapidshare Fileserve Megaupload & FileSonic, Dog Party - Vol. 4 (2015) free torrent downloads included crack, serial, keygen.Dog Party - Vol. 4 (2015) Fast Download via Rapidshare Hotfile Fileserve Filesonic Megaupload, Dog Party - Vol. 4 (2015) Torrents and Emule Download or anything related.
Leave a Comment
Your Name:
E-Mail:
Add Comments:

Enter Code: