Barney Wilen - More From Barney At The Club Saint-Germain (1959) {2014 Japan Jazz Collection 1000 Columbia-RCA Series}

Download Now


Barney Wilen - More From Barney At The Club Saint-Germain (1959) {2014 Japan Jazz Collection 1000 Columbia-RCA Series}
Barney Wilen - More From Barney At The Club Saint-Germain (1959) {2014 Japan Jazz Collection 1000 Columbia-RCA Series}
EAC rip (secure mode) | FLAC (tracks)+CUE+LOG -> 324 Mb | MP3 @320 -> 165 Mb
Full Artwork @ 600 dpi (png) -> 190 Mb | 5% repair rar
© 2014 RCA / Sony Music Japan | SICP 3979
Jazz / Bop / Post Bop / Saxophone

"Reissue with latest 2014 DSD remastering. Comes with liner notes. A great little set - never issued before, but recorded at the same time as Wilen's classic 1959 album Barney, caught live at the Club St-Germain with a group that includes Kenny Dorham on trumpet, Duke Jordan on piano, Paul Rovere on bass, and Daniel Humair on drums. Like the Barney album, these tracks are fantastic - some of the most open-ended playing that Wilen ever did in the 50s, and proof that his tenor work was some of the best jazz coming out of Europe in the postwar years! All tracks are long - and titles include "Reets & I", "The Best Things In Life Are Free", "All The Things You Are", "Round Midnight", and "Time On My Hands"."

Barney Wilen - More From Barney At The Club Saint-Germain (1959) {2014 Japan Jazz Collection 1000 Columbia-RCA Series}


Personnel:
Barney Wilen - tenor saxophone and soprano saxophone
Kenny Dorham - trumpet
Duke Jordan - piano
Paul Rovère - bass
Daniel Humair - drums

tracklist:
01 - The Best Things In Life Are Free
02 - All The Things You Are
03 - Reets And I
04 - Round Midnight
05 - With A Song In My Heart
06 - Time On My Hands
07 - There'll Never Be Another You
08 - As Time Goes By

Exact Audio Copy V1.1 from 23. June 2015

EAC extraction logfile from 6. August 2015, 20:50

Barney Wilen / More From Barney At The Club Saint-Germain

Used drive : TSSTcorpCDDVDW SE-208DB Adapter: 7 ID: 0

Read mode : Secure
Utilize accurate stream : Yes
Defeat audio cache : Yes
Make use of C2 pointers : No

Read offset correction

: 6
Overread into Lead-In and Lead-Out : No
Fill up missing offset samples with silence : Yes
Delete leading and trailing silent blocks : No
Null samples used in CRC calculations : Yes
Used interface
: Installed external ASPI interface
Gap handling
: Appended to previous track

Used output format : User Defined Encoder
Selected bitrate : 1024 kBit/s
Quality : High
Add ID3 tag : No
Command line compressor : C:\Program Files (x86)\FLAC Frontend\tools\flac.exe
Additional command line options : -8 -V -T "ARTIST=%artist%" -T "TITLE=%title%" -T "ALBUM=%albumtitle%" -T "DATE=%year%" -T "TRACKNUMBER=%tracknr%" -T "TOTALTRACKS=%numtracks%" -T "GENRE=%genre%" -T "ALBUMARTIST=%albumartist%" -T "ALBUM ARTIST=%albumartist%" -T "COMMENT=EAC Secure Mode, Test & Copy, AccurateRip, FLAC -8" %source%

TOC of the extracted CD Track | Start | Length | Start sector | End sector
--1 | 0:00.00 | 9:25.18 | 0 | 42392 2 | 9:25.18 | 8:23.02 | 42393 | 80119 3 | 17:48.20 | 6:48.26 | 80120 | 110745 4 | 24:36.46 | 11:15.24 | 110746 | 161394 5 | 35:51.70 | 8:41.63 | 161395 | 200532 6 | 44:33.58 | 6:49.05 | 200533 | 231212 7 | 51:22.63 | 11:16.45 | 231213 | 281957 8 | 62:39.33 | 6:28.42 | 281958 | 311099

Track 1 Filename M:\_EAC\Barney Wilen - More From Barney At The Club Saint-Germain (1959) [FLAC] {2014 Japan Jazz Collection 1000 Columbia-RCA Series}\01 - The Best Things In Life Are Free.wav Pre-gap length 0:00:02.00 Peak level 96.8 %
Extraction speed 1.3 X
Track quality 100.0 %
Test CRC 503BA9C1
Copy CRC 503BA9C1
Accurately ripped (confidence 3) [ACF164B6] (AR v2)
Copy OK

Track 2 Filename M:\_EAC\Barney Wilen - More From Barney At The Club Saint-Germain (1959) [FLAC] {2014 Japan Jazz Collection 1000 Columbia-RCA Series}\02 - All The Things You Are.wav Peak level 96.4 %
Extraction speed 1.5 X
Track quality 100.0 %
Test CRC 0F149DDF
Copy CRC 0F149DDF
Accurately ripped (confidence 3) [9CBC5E6D] (AR v2)
Copy OK

Track 3 Filename M:\_EAC\Barney Wilen - More From Barney At The Club Saint-Germain (1959) [FLAC] {2014 Japan Jazz Collection 1000 Columbia-RCA Series}\03 - Reets And I.wav Peak level 96.5 %
Extraction speed 1.4 X
Track quality 99.9 %
Test CRC 0FF97914
Copy CRC 0FF97914
Accurately ripped (confidence 3) [37934D69] (AR v2)
Copy OK

Track 4 Filename M:\_EAC\Barney Wilen - More From Barney At The Club Saint-Germain (1959) [FLAC] {2014 Japan Jazz Collection 1000 Columbia-RCA Series}\04 - Round Midnight.wav Peak level 95.9 %
Extraction speed 1.8 X
Track quality 100.0 %
Test CRC 60C81785
Copy CRC 60C81785
Accurately ripped (confidence 3) [1930773A] (AR v2)
Copy OK

Track 5 Filename M:\_EAC\Barney Wilen - More From Barney At The Club Saint-Germain (1959) [FLAC] {2014 Japan Jazz Collection 1000 Columbia-RCA Series}\05 - With A Song In My Heart.wav Peak level 96.7 %
Extraction speed 1.9 X
Track quality 100.0 %
Test CRC 081E3661
Copy CRC 081E3661
Accurately ripped (confidence 3) [985016D1] (AR v2)
Copy OK

Track 6 Filename M:\_EAC\Barney Wilen - More From Barney At The Club Saint-Germain (1959) [FLAC] {2014 Japan Jazz Collection 1000 Columbia-RCA Series}\06 - Time On My Hands.wav Peak level 95.8 %
Extraction speed 2.0 X
Track quality 100.0 %
Test CRC 6537CFD9
Copy CRC 6537CFD9
Accurately ripped (confidence 3) [825571E0] (AR v2)
Copy OK

Track 7 Filename M:\_EAC\Barney Wilen - More From Barney At The Club Saint-Germain (1959) [FLAC] {2014 Japan Jazz Collection 1000 Columbia-RCA Series}\07 - There'll Never Be Another You.wav Peak level 96.5 %
Extraction speed 2.0 X
Track quality 99.9 %
Test CRC 853971C6
Copy CRC 853971C6
Accurately ripped (confidence 3) [F3BE2A4E] (AR v2)
Copy OK

Track 8 Filename M:\_EAC\Barney Wilen - More From Barney At The Club Saint-Germain (1959) [FLAC] {2014 Japan Jazz Collection 1000 Columbia-RCA Series}\08 - As Time Goes By.wav Peak level 95.8 %
Extraction speed 2.1 X
Track quality 100.0 %
Test CRC 116F3B93
Copy CRC 116F3B93
Accurately ripped (confidence 3) [75D2DB11] (AR v2)
Copy OK

All tracks accurately ripped

No errors occurred

End of status report

==== Log checksum 9FC66D14A71D6C2025D7E2CAE3BBFCA83FADBD205F769581539704CDE2F7744E ====

Barney Wilen - More From Barney At The Club Saint-Germain (1959) {2014 Japan Jazz Collection 1000 Columbia-RCA Series}

Barney Wilen - More From Barney At The Club Saint-Germain (1959) {2014 Japan Jazz Collection 1000 Columbia-RCA Series}






NEXT -> More 2014 Japan Jazz Collection 1000 Columbia-RCA Series...
DOWNLOAD LINKS:
Buy Premium To Support Me & Get Resumable Support & Max Speed


Links are Interchangeable - No Password - Single Extraction
Direct Download

Tags: Barney, Barney, Germain, Collection, Columbia, Series

Barney Wilen - More From Barney At The Club Saint-Germain (1959) {2014 Japan Jazz Collection 1000 Columbia-RCA Series} Download via Hotfile Rapidshare Fileserve Megaupload & FileSonic, Barney Wilen - More From Barney At The Club Saint-Germain (1959) {2014 Japan Jazz Collection 1000 Columbia-RCA Series} free torrent downloads included crack, serial, keygen.Barney Wilen - More From Barney At The Club Saint-Germain (1959) {2014 Japan Jazz Collection 1000 Columbia-RCA Series} Fast Download via Rapidshare Hotfile Fileserve Filesonic Megaupload, Barney Wilen - More From Barney At The Club Saint-Germain (1959) {2014 Japan Jazz Collection 1000 Columbia-RCA Series} Torrents and Emule Download or anything related.
Leave a Comment
Your Name:
E-Mail:
Add Comments:

Enter Code: