Guru Guru - UFO (1970) [Remastered 2008]

Download Now

Guru Guru - UFO (1970) [Remastered 2008]

Guru Guru - UFO (1970) [Remastered 2008]
EAC Rip | FLAC (tracks & cue & log) | 230 MB | MP3 CBR 320 kbps | 104 MB | Scans | 37:01
Genre: Krautrock / Progressive Rock / Psychedelic Rock | Country: Germany | Label: Captain Trip Records | CTCD-625

"Guru Guru's debut album shows why the band, even if it never reached the levels of appreciation and influence the likes of Can or Neu! did, still maintained a healthy reputation over the moons for its early work. Opening number "Stone In" has a quite appropriate title for a starting track -- it is wonderfully tripped out, to be sure, and if Manuel Gottsching was more of a guitar god, Genrich kicks up a lot of frazzled noise. The principle of the Trepte/Neumeier rhythm section seems to have been "find loud weird grooves and then play them, sometimes chaotically." Again, they aren't Can's wickedly effective combination of Holger Czukay and Jaki Leibezeit, but they're not just falling over themselves either."



Tracklist:

1 Stone In 5:44
2 Girl Call 6:20
3 Next Time See You At The Dalai Lhama 6:00
4 Ufo 10:24
5 Der LSD-Marsch 8:30

Exact Audio Copy V1.0 beta 2 from 29. April 2011

EAC extraction logfile from 15. November 2011, 15:10

Guru Guru / UFO

Used drive : PIONEER DVD-RW DVR-118L Adapter: 1 ID: 0

Read mode : Secure
Utilize accurate stream : Yes
Defeat audio cache : Yes
Make use of C2 pointers : No

Read offset correction

: 6
Overread into Lead-In and Lead-Out : No
Fill up missing offset samples with silence : Yes
Delete leading and trailing silent blocks : No
Null samples used in CRC calculations : Yes
Used interface
: Native Win32 interface for Win NT & 2000
Gap handling
: Appended to previous track

Used output format : User Defined Encoder
Selected bitrate : 1024 kBit/s
Quality : High
Add ID3 tag : No
Command line compressor : C:\Program Files\Exact Audio Copy\Flac\flac.exe
Additional command line options : -8 -V -T "ARTIST=%artist%" -T "TITLE=%title%" -T "ALBUM=%albumtitle%" -T "DATE=%year%" -T "TRACKNUMBER=%tracknr%" -T "GENRE=%genre%" -T "PERFORMER=%albuminterpret%" -T "COMPOSER=%composer%" %haslyrics%--tag-from-file=LYRICS

TOC of the extracted CD Track | Start | Length | Start sector | End sector
--1 | 0:00.00 | 5:43.40 | 0 | 25764 2 | 5:43.40 | 6:21.27 | 25765 | 54366 3 | 12:04.67 | 5:59.20 | 54367 | 81311 4 | 18:04.12 | 10:25.10 | 81312 | 128196 5 | 28:29.22 | 8:30.45 | 128197 | 166491

Track 1 Filename C:\Downloads\EAC\01 - Stone In.wav Pre-gap length 0:00:02.00 Peak level 94.5 %
Extraction speed 1.1 X
Track quality 100.0 %
Test CRC 3EA8F2D6
Copy CRC 3EA8F2D6
Accurately ripped (confidence 4) [80AB743C] (AR v1)
Copy OK

Track 2 Filename C:\Downloads\EAC\02 - Girl Call.wav Peak level 94.5 %
Extraction speed 1.3 X
Track quality 100.0 %
Test CRC 181975DD
Copy CRC 181975DD
Accurately ripped (confidence 4) 199D009 (AR v1)
Copy OK

Track 3 Filename C:\Downloads\EAC\03 - Next Time See You At The Dalai Lhama.wav Peak level 95.1 %
Extraction speed 1.5 X
Track quality 100.0 %
Test CRC 21BCD8AE
Copy CRC 21BCD8AE
Accurately ripped (confidence 4) [C6A48E16] (AR v1)
Copy OK

Track 4 Filename C:\Downloads\EAC\04 - Ufo.wav Peak level 93.1 %
Extraction speed 1.6 X
Track quality 99.9 %
Test CRC B5693D5F
Copy CRC B5693D5F
Accurately ripped (confidence 4) [A8C97D3E] (AR v1)
Copy OK

Track 5 Filename C:\Downloads\EAC\05 - Der LSD-Marsch.wav Peak level 94.4 %
Extraction speed 1.8 X
Track quality 99.9 %
Test CRC 80B032A3
Copy CRC 80B032A3
Accurately ripped (confidence 4) [C8C289B5] (AR v1)
Copy OK

All tracks accurately ripped

No errors occurred

End of status report

==== Log checksum 9C6FF5699A51D774EF5BC72216E56BDB3A0C5C6EA27EE6EF8BBFAF8C7C8928B4 ====

- Mani Neumeier / percussion, drums, voice, tapes
-Uli Trepte / bass, sounds
- Ax Genrich / guitars

All thanks to original releaser

Guru Guru - UFO (1970) [Remastered 2008]

Guru Guru - UFO (1970) [Remastered 2008]


DOWNLOAD:
Buy Premium To Support Me & Get Resumable Support & Max Speed


Links are Interchangeable - No Password
Direct Download

Tags: Remastered

Guru Guru - UFO (1970) [Remastered 2008] Download via Hotfile Rapidshare Fileserve Megaupload & FileSonic, Guru Guru - UFO (1970) [Remastered 2008] free torrent downloads included crack, serial, keygen.Guru Guru - UFO (1970) [Remastered 2008] Fast Download via Rapidshare Hotfile Fileserve Filesonic Megaupload, Guru Guru - UFO (1970) [Remastered 2008] Torrents and Emule Download or anything related.
Leave a Comment
Your Name:
E-Mail:
Add Comments:

Enter Code: