Jordi Sabates - Ocells del Mes Enlla (1975)

Download Now

Jordi Sabates - Ocells del Mes Enlla (1975)

Jordi Sabates - Ocells del Mes Enlla (1975)
EAC | Flac(Image) + Cue + Log & MP3 CBR 320Kbps
2008 | Picap, 910664-02 | ~ 223 or 104 Mb | Scans Included
Progressive Rock / Jazz Fusion / Jazz-Rock / Ethnic Fusion

"This is fantastic album of exquisite and delicate prog/fusion from the prolific Spanish scene of the 70s. It features great work by Jordi Sabates (also known for his collaborations with Jarka, Pau Riba, Toti Soler, and for a number of solo piano works) on keyboards, accompanied by drums, percussion, bass, electric guitar, some female vocals and flamenco guitar..."


Tracklist:

01. Ocells del Mes Enlla 15:36
Part I - Andante
Part II - Allegro
Part III - Allegro Ma Non Presto
02. Children's Song 01:15
03. Tryada 07:24
04. Acuario 03:47
05. Gingers 04:34
06. Tema para el Richmond's 01:43

Musicians:

Jordi Sabates - Piano, Electric Piano, Organ, Synthesizer [Moog]
Ricardo Sabates - Electric Guitar
Toti Soler - Guitar [Flamenco]
Manolo Elias - Double Bass, Electric Bass
Ivan Bargas - Drums
Gustavo Quinteros - Percussion
Erica Norimar - Vocals


Exact Audio Copy V0.99 prebeta 4 from 23. January 2008

EAC extraction logfile from 14. January 2011, 12:04

Jordi Sabates / Ocells del Mes Enlla

Used drive : ASUS DRW-2014S1 Adapter: 1 ID: 0

Read mode : Secure
Utilize accurate stream : Yes
Defeat audio cache : Yes
Make use of C2 pointers : No

Read offset correction

: 6
Overread into Lead-In and Lead-Out : No
Fill up missing offset samples with silence : Yes
Delete leading and trailing silent blocks : No
Null samples used in CRC calculations : Yes
Used interface
: Installed external ASPI interface
Gap handling
: Appended to previous track

Used output format : User Defined Encoder
Selected bitrate : 768 kBit/s
Quality : High
Add ID3 tag : No
Command line compressor : C:\Program Files\Exact Audio Copy\FLAC\FLAC.EXE
Additional command line options : -6 -V -T "ARTIST=%a" -T "TITLE=%t" -T "ALBUM=%g" -T "DATE=%y" -T "TRACKNUMBER=%n" -T "GENRE=%m" -T "COMMENT=%e" %s -o %d

TOC of the extracted CD Track | Start | Length | Start sector | End sector
--1 | 0:00.00 | 15:36.22 | 0 | 70221 2 | 15:36.22 | 1:15.30 | 70222 | 75876 3 | 16:51.52 | 7:24.26 | 75877 | 109202 4 | 24:16.03 | 3:47.16 | 109203 | 126243 5 | 28:03.19 | 4:34.00 | 126244 | 146793 6 | 32:37.19 | 1:42.71 | 146794 | 154514

Track 1 Filename C:\byPr0gger\Jordi Sabates - Ocells Del Mes Enlla (1975 - 2008, Picap, 910664-02)[FLAC]\01. Ocells del Mes Enlla.wav Pre-gap length 0:00:02.00 Peak level 100.0 %
Track quality 100.0 %
Test CRC D8A13745
Copy CRC D8A13745
Track not present in AccurateRip database
Copy OK

Track 2 Filename C:\byPr0gger\Jordi Sabates - Ocells Del Mes Enlla (1975 - 2008, Picap, 910664-02)[FLAC]\02. Children's Song.wav Pre-gap length 0:00:01.68 Peak level 26.0 %
Track quality 99.8 %
Test CRC 71BA56C6
Copy CRC 71BA56C6
Track not present in AccurateRip database
Copy OK

Track 3 Filename C:\byPr0gger\Jordi Sabates - Ocells Del Mes Enlla (1975 - 2008, Picap, 910664-02)[FLAC]\03. Tryada.wav Pre-gap length 0:00:04.12 Peak level 79.8 %
Track quality 100.0 %
Test CRC 43394DB0
Copy CRC 43394DB0
Track not present in AccurateRip database
Copy OK

Track 4 Filename C:\byPr0gger\Jordi Sabates - Ocells Del Mes Enlla (1975 - 2008, Picap, 910664-02)[FLAC]\04. Acuario.wav Pre-gap length 0:00:03.62 Peak level 52.1 %
Track quality 100.0 %
Test CRC 850DE092
Copy CRC 850DE092
Track not present in AccurateRip database
Copy OK

Track 5 Filename C:\byPr0gger\Jordi Sabates - Ocells Del Mes Enlla (1975 - 2008, Picap, 910664-02)[FLAC]\05. Gingers.wav Pre-gap length 0:00:02.14 Peak level 94.8 %
Track quality 100.0 %
Test CRC BFF51D75
Copy CRC BFF51D75
Track not present in AccurateRip database
Copy OK

Track 6 Filename C:\byPr0gger\Jordi Sabates - Ocells Del Mes Enlla (1975 - 2008, Picap, 910664-02)[FLAC]\06. Tema para el Richmond's.wav Pre-gap length 0:00:00.42 Peak level 41.0 %
Track quality 99.8 %
Test CRC 8352C4D3
Copy CRC 8352C4D3
Track not present in AccurateRip database
Copy OK

None of the tracks are present in the AccurateRip database

No errors occurred

End of status report

foobar2000 1.2.9 / Dynamic Range Meter 1.1.1
log date: 2015-08-12 17:07:48

Analyzed: Jordi Sabates / Ocells del Mes Enlla

DR Peak RMS Duration Track

DR12 0.00 dB -15.97 dB 15:36 01-Ocells del Mes Enlla
DR11 -11.69 dB -25.99 dB 1:15 02-Children's Song
DR13 -1.95 dB -17.97 dB 7:24 03-Tryada
DR10 -5.66 dB -21.32 dB 3:47 04-Acuario
DR12 -0.46 dB -15.01 dB 4:34 05-Gingers
DR12 -7.74 dB -25.32 dB 1:43 06-Tema para el Richmond's

Number of tracks: 6
Official DR value: DR12

Samplerate: 44100 Hz
Channels: 2
Bits per sample: 16
Bitrate: 800 kbps
Codec: FLAC

[CUETools log; Date: 12.08.2015 17:08:01; Version: 2.1.4]
[CTDB TOCID: XdMRWBQ__FnDhl4k6oobujcZh0g-] disk not present in database.
[AccurateRip ID: 000a6b67-0033db4d-59080c06] disk not present in database.

Track Peak [ CRC32 ] [W/O NULL] [ LOG ]
-- 100,0 [CFFF0529] [154F6EBE]
01 100,0 [D8A13745] [FD164A1E] CRC32
02 26,0 [71BA56C6] 40C49CD CRC32
03 79,8 [43394DB0] [7A2622FC] CRC32
04 52,1 [850DE092] [C50A1284] CRC32
05 94,8 FF51D75 [DD7ACDA5] CRC32
06 41,0 [8352C4D3] [E6C7497D] CRC32

Jordi Sabates - Ocells del Mes Enlla (1975)

All thanks go to pr0gger

Download Jordi Sabates - Ocells del Mes Enlla (1975):


DOWNLOAD LINKS
Buy Premium From My Links To Get Resumable Support & Max Speed & To Support Me


Links are Interchangeable - No Password - Single Extraction
Direct Download

Tags: Sabates, Ocells

Jordi Sabates - Ocells del Mes Enlla (1975) Download via Hotfile Rapidshare Fileserve Megaupload & FileSonic, Jordi Sabates - Ocells del Mes Enlla (1975) free torrent downloads included crack, serial, keygen.Jordi Sabates - Ocells del Mes Enlla (1975) Fast Download via Rapidshare Hotfile Fileserve Filesonic Megaupload, Jordi Sabates - Ocells del Mes Enlla (1975) Torrents and Emule Download or anything related.
Leave a Comment
Your Name:
E-Mail:
Add Comments:

Enter Code: