John Waite - The Complete John Waite, Volume One: Falling Backwards (1996)

Download Now

John Waite - The Complete John Waite, Volume One: Falling Backwards (1996)

John Waite - The Complete John Waite, Volume One: Falling Backwards (1996)
EAC Rip | FLAC (Img) + Cue + Log ~ 511 Mb | MP3 CBR320 ~ 191 Mb
Scans Included (JPG, 600 dpi) | RAR 5% Recovery
Rock | EMI/Chrysalis #7243-8-54241-2-0/E2-54241

"A 17-track career retrospective that not only spans the mid-'70s to the mid-'90s, but encompasses solo cuts and songs that John Waite recorded with the Babys in the '70s and Bad English in the '80s. For all that, it's remarkably inconsequential right-of-center mainstream commercial rock, whether he's playing guitar-based pop/rock with the Babys or doing the power ballad thing with Bad English. Includes his 1984 number one solo single "Missing You," the Bad English smashes "When I See You Smile" and "Price of Love," and several smaller hits."

Wiki | Discogs | All Music
***************

John Waite - The Complete John Waite, Volume One: Falling Backwards (1996)

Track List:

01. How Did I Get By Without You [04:02]
02. In Dreams [03:43]
03. Downtown [05:03]
04. Straight To Your Heart [04:07]
05. When I See You Smile [04:18]
06. Price Of Love [04:45]
07. Act Of Love [04:27]
08. If Anybody Had A Heart [04:30]
09. Encircled [04:15]
10. Missing You [04:31]
11. Change [03:15]
12. Back On My Feet Again [03:18]
13. Midnight Rendezvous [03:35]
14. Head First [04:00]
15. Broken Heart [03:04]
16. Isn't It Time [04:04]
17. If You've Got The Time [02:35]

Exact Audio Copy V1.0 beta 3 from 29. August 2011

EAC extraction logfile from 18. February 2015, 22:26

John Waite / Falling Backwards : The Complete John Waite, Volume One

Used drive : HL-DT-STDVDRAM GH22NS40 Adapter: 4 ID: 0

Read mode : Secure
Utilize accurate stream : Yes
Defeat audio cache : Yes
Make use of C2 pointers : No

Read offset correction

: 667
Overread into Lead-In and Lead-Out : No
Fill up missing offset samples with silence : Yes
Delete leading and trailing silent blocks : No
Null samples used in CRC calculations : Yes
Used interface
: Native Win32 interface for Win NT & 2000

Used output format : User Defined Encoder
Selected bitrate : 1024 kBit/s
Quality : High
Add ID3 tag : No
Command line compressor : C:\Program Files\FLAC\flac.exe
Additional command line options : -V -8 -T "Date=%year%" -T "Genre=%genre%" %source%

TOC of the extracted CD Track | Start | Length | Start sector | End sector
--1 | 0:00.00 | 4:02.00 | 0 | 18149 2 | 4:02.00 | 3:42.50 | 18150 | 34849 3 | 7:44.50 | 5:02.72 | 34850 | 57571 4 | 12:47.47 | 4:06.13 | 57572 | 76034 5 | 16:53.60 | 4:17.50 | 76035 | 95359 6 | 21:11.35 | 4:44.35 | 95360 | 116694 7 | 25:55.70 | 4:26.45 | 116695 | 136689 8 | 30:22.40 | 4:29.05 | 136690 | 156869 9 | 34:51.45 | 4:14.37 | 156870 | 175956
10 | 39:06.07 | 4:30.43 | 175957 | 196249
11 | 43:36.50 | 3:14.52 | 196250 | 210851
12 | 46:51.27 | 3:17.68 | 210852 | 225694
13 | 50:09.20 | 3:34.47 | 225695 | 241791
14 | 53:43.67 | 3:59.28 | 241792 | 259744
15 | 57:43.20 | 3:03.22 | 259745 | 273491
16 | 60:46.42 | 4:03.18 | 273492 | 291734
17 | 64:49.60 | 2:34.62 | 291735 | 303346

Range status and errors

Selected range Filename I:\Rips\John Waite - Falling Backwards - The Complete John Waite, Volume One.wav Peak level 99.9 %
Extraction speed 2.0 X
Range quality 100.0 %
Test CRC EA7335A5
Copy CRC EA7335A5
Copy OK

No errors occurred


AccurateRip summary

Track 1 accurately ripped (confidence 4) [E7861979] (AR v1)
Track 2 accurately ripped (confidence 4) [3276843A] (AR v1)
Track 3 accurately ripped (confidence 4) [4EA82121] (AR v1)
Track 4 accurately ripped (confidence 4) [60184AFC] (AR v1)
Track 5 accurately ripped (confidence 4) 6603359 (AR v1)
Track 6 accurately ripped (confidence 4) [44C99E9C] (AR v1)
Track 7 accurately ripped (confidence 4) [DEC156D3] (AR v1)
Track 8 accurately ripped (confidence 4) [8BFC1ED0] (AR v1)
Track 9 accurately ripped (confidence 4) 59A804B (AR v1)
Track 10 accurately ripped (confidence 4) [36E2D403] (AR v1)
Track 11 accurately ripped (confidence 4) [800E6C64] (AR v1)
Track 12 accurately ripped (confidence 4) [EFA21BEC] (AR v1)
Track 13 accurately ripped (confidence 4) [0A63B3A9] (AR v1)
Track 14 accurately ripped (confidence 4) [3A3F962F] (AR v1)
Track 15 accurately ripped (confidence 4) A084E8B (AR v1)
Track 16 accurately ripped (confidence 4) [FFBE6886] (AR v1)
Track 17 accurately ripped (confidence 4) 41B9261 (AR v1)

All tracks accurately ripped

End of status report

==== Log checksum 935A7FF48731882C32F12145EF2A0B9383D315495BEF72502DD4DB1EA4002903 ====

foobar2000 1.2.6 / Dynamic Range Meter 1.1.1
log date: 2015-08-12 02:56:27

Analyzed: Babys / Falling Backwards : The Complete John Waite, Volume One

DR Peak RMS Duration Track

DR11 -0.01 dB -12.44 dB 3:18 12-Back On My Feet Again
DR11 -0.01 dB -12.92 dB 3:35 13-Midnight Rendezvous
DR9 -0.01 dB -10.89 dB 3:59 14-Head First
DR9 -0.01 dB -10.28 dB 3:03 15-Broken Heart
DR10 -0.01 dB -12.27 dB 4:03 16-Isn't It Time
DR9 -0.01 dB -10.23 dB 2:35 17-If You've Got The Time

Number of tracks: 6
Official DR value: DR10

Samplerate: 44100 Hz
Channels: 2
Bits per sample: 16
Bitrate: 951 kbps
Codec: FLAC

Analyzed: Bad English / Falling Backwards : The Complete John Waite, Volume One

DR Peak RMS Duration Track

DR10 -0.01 dB -11.10 dB 4:06 04-Straight To Your Heart
DR10 -0.01 dB -11.78 dB 4:18 05-When I See You Smile
DR10 -0.01 dB -11.98 dB 4:44 06-Price Of Love

Number of tracks: 3
Official DR value: DR10

Samplerate: 44100 Hz
Channels: 2
Bits per sample: 16
Bitrate: 951 kbps
Codec: FLAC

Analyzed: John Waite / Falling Backwards : The Complete John Waite, Volume One

DR Peak RMS Duration Track

DR9 -0.01 dB -11.26 dB 4:02 01-How Did I Get By Without You
DR10 -0.01 dB -12.07 dB 3:43 02-In Dreams
DR10 -0.01 dB -13.57 dB 5:03 03-Downtown
DR9 -0.03 dB -11.11 dB 4:27 07-Act Of Love
DR10 -0.21 dB -11.74 dB 4:29 08-If Anybody Had A Heart
DR10 -0.01 dB -11.05 dB 4:14 09-Encircled
DR10 -0.01 dB -11.48 dB 4:31 10-Missing You
DR9 -0.01 dB -10.86 dB 3:15 11-Change

Number of tracks: 8
Official DR value: DR10

Samplerate: 44100 Hz
Channels: 2
Bits per sample: 16
Bitrate: 951 kbps
Codec: FLAC

[CUETools log; Date: 12.08.2015 2:56:32; Version: 2.1.5]
[CTDB TOCID: NXYXE9rai5Sn3aF54b2tseqlBKA-] found.
Track | CTDB Status
1 | (8/8) Accurately ripped
2 | (8/8) Accurately ripped
3 | (8/8) Accurately ripped
4 | (8/8) Accurately ripped
5 | (8/8) Accurately ripped
6 | (8/8) Accurately ripped
7 | (8/8) Accurately ripped
8 | (7/8) Accurately ripped
9 | (8/8) Accurately ripped
10 | (8/8) Accurately ripped
11 | (8/8) Accurately ripped
12 | (8/8) Accurately ripped
13 | (8/8) Accurately ripped
14 | (6/8) Accurately ripped
15 | (7/8) Accurately ripped
16 | (7/8) Accurately ripped
17 | (8/8) Accurately ripped
[AccurateRip ID: 002bcf2f-0226ebb8-f20fcc11] found.
Track [ CRC | V2 ] Status
01 [e7861979|79fccc88] (04+02/31) Accurately ripped
02 [3276843a|929f0a23] (04+02/31) Accurately ripped
03 [4ea82121|7fc8aa35] (04+02/30) Accurately ripped
04 [60184afc|093234f8] (04+02/30) Accurately ripped
05 6603359|ab2cb8ff (04+02/32) Accurately ripped
06 [44c99e9c|a566e4c4] (04+02/30) Accurately ripped
07 [dec156d3|8086c311] (04+02/31) Accurately ripped
08 [8bfc1ed0|2dbb7a3f] (04+02/31) Accurately ripped
09 59a804b|ec176774 (04+02/31) Accurately ripped
10 [36e2d403|f6456e0b] (04+02/33) Accurately ripped
11 [800e6c64|b6ae7272] (04+02/31) Accurately ripped
12 [efa21bec|66f9f2f4] (04+02/30) Accurately ripped
13 [0a63b3a9|1e99b40a] (04+02/30) Accurately ripped
14 [3a3f962f|7976167a] (04+02/30) Accurately ripped
15 a084e8b|c91ada64 (04+02/30) Accurately ripped
16 [ffbe6886|e3239dfa] (04+02/32) Accurately ripped
17 41b9261|fa6e39d5 (04+02/29) Accurately ripped
Offsetted by 18:
01 [0154b763] (12/31) Accurately ripped
02 [7667aace] (12/31) Accurately ripped
03 [2e8e8f1d] (12/30) Accurately ripped
04 [d570eb4a] (12/30) Accurately ripped
05 [9c2b5c51] (13/32) Accurately ripped
06 [2757a026] (11/30) Accurately ripped
07 [e6f8aa0f] (12/31) Accurately ripped
08 [d98f002a] (12/31) Accurately ripped
09 [9186a509] (12/31) Accurately ripped
10 [f9a60fe5] (14/33) Accurately ripped
11 [c4a33f72] (12/31) Accurately ripped
12 [77dd4868] (12/30) Accurately ripped
13 [62ef4ae8] (12/30) Accurately ripped
14 [784d94ca] (12/30) Accurately ripped
15 [2206f2df] (12/30) Accurately ripped
16 [ded870c0] (13/32) Accurately ripped
17 [d99735fc] (11/29) Accurately ripped
Offsetted by -646:
01 [81a03dc4] (00/31) No match (V2 was not tested)
02 [15d00bd5] (00/31) No match (V2 was not tested)
03 a136acc (00/30) No match (V2 was not tested)
04 [3fe5ab93] (00/30) No match (V2 was not tested)
05 [d4ac1fb1] (00/32) No match (V2 was not tested)
06 [2ca84aee] (00/30) No match (V2 was not tested)
07 [29aa72bf] (00/31) No match (V2 was not tested)
08 [586a783b] (00/31) No match (V2 was not tested)
09 [723dc5e8] (00/31) No match (V2 was not tested)
10 [0584198d] (00/33) No match (V2 was not tested)
11 [e2bf808a] (00/31) No match (V2 was not tested)
12 [ae2f8a18] (00/30) No match (V2 was not tested)
13 [311e1b14] (00/30) No match (V2 was not tested)
14 [917f6f4a] (00/30) No match (V2 was not tested)
15 [978e616f] (00/30) No match (V2 was not tested)
16 [2514fef3] (00/32) No match (V2 was not tested)
17 [1b73a6ad] (00/29) No match (V2 was not tested)

Track Peak [ CRC32 ] [W/O NULL] [ LOG ]
-- 99,9 [EA7335A5] [905AAC4D] CRC32
01 99,9 [FF49CBA1] [93684456]
02 99,9 [EB242377] [79153713]
03 99,9 [C3C48B56] [11641452]
04 99,9 [725AE831] [CB71E2D7]
05 99,9 [F0E1AEA0] [09F1D81D]
06 99,9 [9C45BA97] [6A7E6388]
07 99,6 3C9F094 [7DC3FF9E]
08 97,6 [47DDDAF3] [81E247AF]
09 99,9 [68FA8B8D] [8BD06326]
10 99,9 [A4628888] [EDB824F9]
11 99,9 [5E5DE593] [F29C9E41]
12 99,9 [6C366618] [4770001F]
13 99,9 [9A82F6FE] [841F0AB9]
14 99,9 [C6C0D99C] [64FEAF5A]
15 99,9 [2C1E0614] [19264A0A]
16 99,9 [022495F5] [DCE82760]
17 99,9 [F24BC137] [1D96B223]

John Waite - The Complete John Waite, Volume One: Falling Backwards (1996)

All thanks go to powermet


DOWNLOAD LINKS
Buy Premium From My Links To Get Resumable Support & Max Speed & To Support Me


Links are Interchangeable - No Password - Single Extraction
Direct Download

Tags: Complete, Falling, Backwards

John Waite - The Complete John Waite, Volume One: Falling Backwards (1996) Download via Hotfile Rapidshare Fileserve Megaupload & FileSonic, John Waite - The Complete John Waite, Volume One: Falling Backwards (1996) free torrent downloads included crack, serial, keygen.John Waite - The Complete John Waite, Volume One: Falling Backwards (1996) Fast Download via Rapidshare Hotfile Fileserve Filesonic Megaupload, John Waite - The Complete John Waite, Volume One: Falling Backwards (1996) Torrents and Emule Download or anything related.
Leave a Comment
Your Name:
E-Mail:
Add Comments:

Enter Code: