Gene Ammons - Brasswind (1974) {2014 Japan Rare Groove Funk Best Collection 1000}

Download Now


Gene Ammons - Brasswind (1974) {2014 Japan Rare Groove Funk Best Collection 1000}
Gene Ammons - Brasswind (1974) {2014 Japan Rare Groove Funk Best Collection 1000}
EAC rip (secure mode) | FLAC (tracks)+CUE+LOG -> 241 Mb | MP3 @320 -> 93 Mb
Full Artwork @ 600 dpi (png) -> 189 Mb | 5% repair rar
© 2014 Prestige / Concord / Universal Music Japan | UCCO-90366
Jazz / Soul Jazz / Funk Jazz / Saxophone

"Gene Ammons gets the Cannonball Adderley treatment - as he blows funky solos over an album arranged and conducted by David Axelrod! Brasswind has a larger, fuller funky sound than some of his earlier work for Prestige - and it works very well! The overall sound's a bit smoother, but Axelrod's edge is still quite sharp, and the polished jazzy arrangements still have plenty of funk to around. George Duke is on keyboards and Carol Kaye plays bass - and other players include Snooky Young, Michael Howell, Jim Horn and Kay Migliori. Titles include "Cantaro", "Brasswind", "Cariba", "Rozzie", and "Once I Loved"."

Gene Ammons - Brasswind (1974) {2014 Japan Rare Groove Funk Best Collection 1000}


Personnel:
Gene Ammons - tenor saxophone
Allen DeRienzo, Snooky Young - trumpet
George Bohanon - trombone
Prince Lasha - alto flute (tracks 2 & 3)
Bill Green, Jay Migliori - flute, alto flute, alto saxophone
Jim Horn - flute, alto flute, baritone saxophone
George Duke - keyboards
Michael Howell, Don Peake (tracks 1, 2, 4, 5 & 7) - guitar
Carol Kaye - electric bass (tracks 1, 2, 4, 5 & 7)
Walter Booker - bass (tracks 3 & 6)
John Guerin (tracks 1, 2, 4, 5 & 7), Roy McCurdy (tracks 3 & 6) - drums
Berkeley Nash - percussion (tracks 1, 2, 4, 5 & 7)
David Axelrod - arranger, conductor

tracklist:
01 - Cantaro
02 - Brasswind
03 - Solitario
04 - Cariba
05 - Once I Loved
06 - 'Round Midnight
07 - Rozzie

Exact Audio Copy V1.1 from 23. June 2015

EAC extraction logfile from 9. August 2015, 12:21

Gene Ammons / Brasswind

Used drive : ATAPI iHAS124 B Adapter: 2 ID: 0

Read mode : Secure
Utilize accurate stream : Yes
Defeat audio cache : Yes
Make use of C2 pointers : No

Read offset correction

: 6
Overread into Lead-In and Lead-Out : No
Fill up missing offset samples with silence : Yes
Delete leading and trailing silent blocks : No
Null samples used in CRC calculations : Yes
Used interface
: Installed external ASPI interface
Gap handling
: Appended to previous track

Used output format : User Defined Encoder
Selected bitrate : 1024 kBit/s
Quality : High
Add ID3 tag : No
Command line compressor : C:\Program Files (x86)\FLAC Frontend\tools\flac.exe
Additional command line options : -8 -V -T "ARTIST=%artist%" -T "TITLE=%title%" -T "ALBUM=%albumtitle%" -T "DATE=%year%" -T "TRACKNUMBER=%tracknr%" -T "TOTALTRACKS=%numtracks%" -T "GENRE=%genre%" -T "ALBUMARTIST=%albumartist%" -T "ALBUM ARTIST=%albumartist%" -T "COMMENT=EAC Secure Mode, Test & Copy, AccurateRip, FLAC -8" %source%

TOC of the extracted CD Track | Start | Length | Start sector | End sector
--1 | 0:00.00 | 4:04.46 | 0 | 18345 2 | 4:04.46 | 5:08.60 | 18346 | 41505 3 | 9:13.31 | 5:53.69 | 41506 | 68049 4 | 15:07.25 | 5:00.70 | 68050 | 90619 5 | 20:08.20 | 6:21.64 | 90620 | 119258 6 | 26:30.09 | 8:02.03 | 119259 | 155411 7 | 34:32.12 | 4:45.61 | 155412 | 176847

Track 1 Filename M:\_EAC\Gene Ammons - Brasswind (1974) [FLAC] {2014 Japan Rare Groove Funk Best Collection 1000}\01 - Cantaro.wav Pre-gap length 0:00:02.00 Peak level 98.8 %
Extraction speed 3.4 X
Track quality 100.0 %
Test CRC CDFFB781
Copy CRC CDFFB781
Cannot be verified as accurate (confidence 1) [8E2FE163], AccurateRip returned [71C86F63] (AR v2)
Copy OK

Track 2 Filename M:\_EAC\Gene Ammons - Brasswind (1974) [FLAC] {2014 Japan Rare Groove Funk Best Collection 1000}\02 - Brasswind.wav Pre-gap length 0:00:02.68 Peak level 98.9 %
Extraction speed 4.0 X
Track quality 100.0 %
Test CRC 5AA10F53
Copy CRC 5AA10F53
Cannot be verified as accurate (confidence 1) [D92E8BCE], AccurateRip returned [1DEACA8E] (AR v2)
Copy OK

Track 3 Filename M:\_EAC\Gene Ammons - Brasswind (1974) [FLAC] {2014 Japan Rare Groove Funk Best Collection 1000}\03 - Solitario.wav Pre-gap length 0:00:03.01 Peak level 98.8 %
Extraction speed 3.9 X
Track quality 99.9 %
Test CRC 237064B6
Copy CRC 237064B6
Cannot be verified as accurate (confidence 1) 07761E0, AccurateRip returned [E55AE83A] (AR v2)
Copy OK

Track 4 Filename M:\_EAC\Gene Ammons - Brasswind (1974) [FLAC] {2014 Japan Rare Groove Funk Best Collection 1000}\04 - Cariba.wav Pre-gap length 0:00:03.18 Peak level 98.8 %
Extraction speed 4.9 X
Track quality 100.0 %
Test CRC 7A95CCF6
Copy CRC 7A95CCF6
Cannot be verified as accurate (confidence 1) [05B70B10], AccurateRip returned [4020B194] (AR v2)
Copy OK

Track 5 Filename M:\_EAC\Gene Ammons - Brasswind (1974) [FLAC] {2014 Japan Rare Groove Funk Best Collection 1000}\05 - Once I Loved.wav Pre-gap length 0:00:02.08 Peak level 98.8 %
Extraction speed 5.4 X
Track quality 100.0 %
Test CRC A3B37E41
Copy CRC A3B37E41
Cannot be verified as accurate (confidence 1) [25203E0B], AccurateRip returned [EF27CBC3] (AR v2)
Copy OK

Track 6 Filename M:\_EAC\Gene Ammons - Brasswind (1974) [FLAC] {2014 Japan Rare Groove Funk Best Collection 1000}\06 - 'Round Midnight.wav Pre-gap length 0:00:03.62 Peak level 98.8 %
Extraction speed 5.2 X
Track quality 99.9 %
Test CRC 2E691DFD
Copy CRC 2E691DFD
Cannot be verified as accurate (confidence 1) [D0DDF283], AccurateRip returned [DF7DE4E0] (AR v2)
Copy OK

Track 7 Filename M:\_EAC\Gene Ammons - Brasswind (1974) [FLAC] {2014 Japan Rare Groove Funk Best Collection 1000}\07 - Rozzie.wav Pre-gap length 0:00:01.66 Peak level 98.9 %
Extraction speed 6.1 X
Track quality 100.0 %
Test CRC 4B0F8DFF
Copy CRC 4B0F8DFF
Cannot be verified as accurate (confidence 1) A146EF6, AccurateRip returned [9E5D0FCA] (AR v2)
Copy OK

No tracks could be verified as accurate
You may have a different pressing from the one(s) in the database

No errors occurred

End of status report

==== Log checksum 0579CF81E8C9A87AD17ABCF0D78F99D295A840A4626A0B792042A431C6D20D5A ====

Gene Ammons - Brasswind (1974) {2014 Japan Rare Groove Funk Best Collection 1000}

Gene Ammons - Brasswind (1974) {2014 Japan Rare Groove Funk Best Collection 1000}






NEXT -> More 2014 Japan Rare Groove Funk Best Collection 1000...
DOWNLOAD LINKS
Buy Premium From My Links To Get Resumable Support & Max Speed & To Support Me


Links are Interchangeable - No Password - Single Extraction
Direct Download

Tags: Ammons, Brasswind, Groove, Collection

Gene Ammons - Brasswind (1974) {2014 Japan Rare Groove Funk Best Collection 1000} Download via Hotfile Rapidshare Fileserve Megaupload & FileSonic, Gene Ammons - Brasswind (1974) {2014 Japan Rare Groove Funk Best Collection 1000} free torrent downloads included crack, serial, keygen.Gene Ammons - Brasswind (1974) {2014 Japan Rare Groove Funk Best Collection 1000} Fast Download via Rapidshare Hotfile Fileserve Filesonic Megaupload, Gene Ammons - Brasswind (1974) {2014 Japan Rare Groove Funk Best Collection 1000} Torrents and Emule Download or anything related.
Leave a Comment
Your Name:
E-Mail:
Add Comments:

Enter Code: