Dokken - Alone Again and Other Hits (2009)

Download Now

Dokken - Alone Again and Other Hits (2009)

Dokken - Alone Again and Other Hits (2009)
EAC | Flac(Image) + Cue + Log & MP3 CBR 320Kbps
Rhino, R2-78309 | ~ 333 or 125 Mb | Scans Included
Hard Rock / Heavy Metal

"This is a great bargain album for the 1980's melodic metal act. Although it could have included Tooth And Nail, the song selection is very good. Alone Again was the band's biggest hit, reaching number 65 or something on the Billboard chart. This also includes the MTV favorite Dream Warriors from the Nightmare On Elm Street soundtrack. For a Dokken beginner, this is a best bet..."


Tracklist:

01. Alone Again (4:22)
02. Dream Warriors (4:48)
03. In My Dreams (4:19)
04. Just Got Lucky (4:36)
05. Stop Fighting Love (4:53)
06. Heaven Sent (4:53)
07. The Hunter (4:09)
08. Slippin' Away (3:48)
09. Jaded Heart (4:18)
10. Breaking The Chains (3:50)

Exact Audio Copy V1.0 beta 3 from 29. August 2011

EAC extraction logfile from 7. March 2012, 11:37

Dokken / Alone Again and Other Hits

Used drive : HL-DT-STDVD-RAM GH22LP20 Adapter: 4 ID: 1

Read mode : Secure
Utilize accurate stream : Yes
Defeat audio cache : Yes
Make use of C2 pointers : No

Read offset correction

: 102
Overread into Lead-In and Lead-Out : No
Fill up missing offset samples with silence : Yes
Delete leading and trailing silent blocks : No
Null samples used in CRC calculations : Yes
Used interface
: Installed external ASPI interface

Used output format : User Defined Encoder
Selected bitrate : 896 kBit/s
Quality : High
Add ID3 tag : No
Command line compressor : C:\Program Files (x86)\Exact Audio Copy\WAV Pack\wavpack.exe
Additional command line options : -hlmx2 %source% %dest%

TOC of the extracted CD Track | Start | Length | Start sector | End sector
--1 | 0:00.32 | 4:21.73 | 32 | 19679 2 | 4:22.30 | 4:47.52 | 19680 | 41256 3 | 9:10.07 | 4:19.23 | 41257 | 60704 4 | 13:29.30 | 4:36.25 | 60705 | 81429 5 | 18:05.55 | 4:53.00 | 81430 | 103404 6 | 22:58.55 | 4:53.07 | 103405 | 125386 7 | 27:51.62 | 4:08.53 | 125387 | 144039 8 | 32:00.40 | 3:48.15 | 144040 | 161154 9 | 35:48.55 | 4:18.02 | 161155 | 180506
10 | 40:06.57 | 3:50.23 | 180507 | 197779

Range status and errors

Selected range Filename X:\Releases RAW\Dokken - Alone Again and Other Hits\Dokken - Alone Again and Other Hits.wav Peak level 99.9 %
Extraction speed 2.6 X
Range quality 99.9 %
Test CRC 795F8AB5
Copy CRC 795F8AB5
Copy OK

No errors occurred


AccurateRip summary

Track 1 accurately ripped (confidence 2) 2273CDD (AR v1)
Track 2 accurately ripped (confidence 2) [6B7D6883] (AR v1)
Track 3 accurately ripped (confidence 2) [30F1AC59] (AR v1)
Track 4 accurately ripped (confidence 2) [1F5581F0] (AR v1)
Track 5 accurately ripped (confidence 2) [98B84177] (AR v1)
Track 6 accurately ripped (confidence 2) [7124C93E] (AR v1)
Track 7 accurately ripped (confidence 2) [0C269F72] (AR v1)
Track 8 accurately ripped (confidence 2) [2A6597A9] (AR v1)
Track 9 accurately ripped (confidence 2) 7BBB65C (AR v1)
Track 10 accurately ripped (confidence 2) [C095BF13] (AR v1)

All tracks accurately ripped

End of status report

- CUETools DB Plugin V2.1.3

[CTDB TOCID: 0DDbR.mMdgksSkB9wRnvJrL6Crg-] disk not present in database, Submit result: discs with pregaps not supported in this protocol version

==== Log checksum 6C5B738CD4ACF45AF35E0C08A34E937EF1AE6114B52B9C88CA5AF2503E75CA47 ====

foobar2000 1.2.9 / Dynamic Range Meter 1.1.1
log date: 2015-08-14 00:56:16

Analyzed: Dokken / Alone Again and Other Hits

DR Peak RMS Duration Track

DR10 -1.48 dB -13.38 dB 4:22 01-Alone Again
DR8 -2.24 dB -11.57 dB 4:48 02-Dream Warriors
DR11 -0.24 dB -12.63 dB 4:19 03-In My Dreams
DR10 -0.24 dB -11.37 dB 4:36 04-Just Got Lucky
DR12 0.00 dB -13.39 dB 4:53 05-Stop Fighting Love
DR8 -2.24 dB -12.13 dB 4:53 06-Heaven Sent
DR10 -2.24 dB -13.12 dB 4:09 07-The Hunter
DR12 0.00 dB -15.42 dB 3:48 08-Slippin' Away
DR11 -0.80 dB -14.67 dB 4:18 09-Jaded Heart
DR7 -2.48 dB -10.78 dB 3:50 10-Breaking The Chains

Number of tracks: 10
Official DR value: DR10

Samplerate: 44100 Hz
Channels: 2
Bits per sample: 16
Bitrate: 957 kbps
Codec: FLAC

[CUETools log; Date: 14.08.2015 0:50:55; Version: 2.1.4]
Pregap length 00:00:32.
[CTDB TOCID: 0DDbR.mMdgksSkB9wRnvJrL6Crg-] found.
Track | CTDB Status
1 | (1/1) Accurately ripped
2 | (1/1) Accurately ripped
3 | (1/1) Accurately ripped
4 | (1/1) Accurately ripped
5 | (1/1) Accurately ripped
6 | (1/1) Accurately ripped
7 | (1/1) Accurately ripped
8 | (1/1) Accurately ripped
9 | (1/1) Accurately ripped
10 | (1/1) Accurately ripped
[AccurateRip ID: 001104f2-0087b8ad-750a4d0a] found.
Track [ CRC | V2 ] Status
01 2273cdd|bee9ecb2 (2+0/5) Accurately ripped
02 [6b7d6883|35c833fb] (2+0/5) Accurately ripped
03 [30f1ac59|18d86e41] (2+0/5) Accurately ripped
04 [1f5581f0|d40a5815] (2+0/5) Accurately ripped
05 [98b84177|87011849] (2+0/5) Accurately ripped
06 [7124c93e|7b444b65] (2+0/5) Accurately ripped
07 [0c269f72|6116f389] (2+0/5) Accurately ripped
08 [2a6597a9|f59eee2b] (2+0/5) Accurately ripped
09 7bbb65c|54f23838 (2+0/5) Accurately ripped
10 [c095bf13|6abfc75e] (2+0/5) Accurately ripped
Offsetted by -24:
01 0ce9325 (3/5) Accurately ripped
02 [18670c03] (3/5) Accurately ripped
03 [25589b31] (3/5) Accurately ripped
04 [e1ff30e0] (3/5) Accurately ripped
05 [d04b67d7] (3/5) Accurately ripped
06 [7e7c5d76] (3/5) Accurately ripped
07 [43ff1ce2] (3/5) Accurately ripped
08 [ed0ef521] (3/5) Accurately ripped
09 [28d3c2ec] (3/5) Accurately ripped
10 [944d5d63] (3/5) Accurately ripped

Track Peak [ CRC32 ] [W/O NULL] [ LOG ]
-- 99,9 [795F8AB5] [8CC8D9E8] CRC32
01 84,3 [F0F9684C] [85F29F20]
02 77,2 [15C49580] [DE90F8C3]
03 97,2 [3CF3E7AE] [868C52C0]
04 97,2 [311941A9] [50F65A73]
05 99,9 [AC113210] [91243A7D]
06 77,2 [FF1E5A90] [98528F69]
07 77,2 [ADF1F1BD] [7EA816CF]
08 99,9 [AE7D7B26] [F6DD04C5]
09 91,1 [38CF8AB8] [C488A55A]
10 75,1 [4EBB0D50] [4E003369]

Dokken - Alone Again and Other Hits (2009)

All thanks go to Гордый



Download Dokken - Alone Again and Other Hits (2009):


DOWNLOAD LINKS
Buy Premium From My Links To Get Resumable Support & Max Speed & To Support Me


Links are Interchangeable - No Password - Single Extraction
Direct Download

Tags: Dokken

Dokken - Alone Again and Other Hits (2009) Download via Hotfile Rapidshare Fileserve Megaupload & FileSonic, Dokken - Alone Again and Other Hits (2009) free torrent downloads included crack, serial, keygen.Dokken - Alone Again and Other Hits (2009) Fast Download via Rapidshare Hotfile Fileserve Filesonic Megaupload, Dokken - Alone Again and Other Hits (2009) Torrents and Emule Download or anything related.
Leave a Comment
Your Name:
E-Mail:
Add Comments:

Enter Code: