Oceansize - Effloresce (2003)

Download Now

Oceansize - Effloresce (2003)

Oceansize - Effloresce (2003)
EAC Rip | FLAC (tracks & cue & log) | 501 MB | MP3 CBR 320 kbps | 177 MB | Artwork (PNG 300 dpi) | 29 MB | 1:15:33
Genre: Space Rock / Psychedelic Rock / Prog Rock | Country: UK | Label: Beggars Banquet | BBQCD 235

"Oceansize's debut "Effloresce" is a monolith in modern music, blending Alternative, Post Rock and Prog to a refreshing style. There is everything you expect from a modern band. Great melodies, complex time signatures, heavy parts and three guitars. By the way, I think the genre "Space Rock" doesn't fit that good. They should be changed into "Crossover Prog". The album starts with "I am the morning". It is an instrumental song, not that exciting. It is a bit Post rockish, though. "Catalyst" starts with a heavy riff with a mechanical mood. After a while the singing begins, companied with a nice guitar melody. The melody part and the heavy part alternate to create contrast. All in all a very nice track. "One Day this could all be yours" is a bit more experimental with distored vocals and spacey guitar parts."



Tracklist:

1. I Am The Morning (4:18)
2. Catalyst (6:40)
3. One Day All This Could Be Yours (4:19)
4. Massive Bereavement (9:59)
5. Rinsed (3:58)
6. You Wish (6:00)
7. Remember Where You Are (5:22)
8. Amputee (5:32)
9. Unravel (2:50)
10. Women Who Love Men Who Love Drugs (8:30)
11. Saturday Morning Breakfast Show (9:04)
12. Long Forgotten (8:57)

Exact Audio Copy V0.99 prebeta 5 from 4. May 2009

EAC extraction logfile from 15. December 2009, 13:57

Oceansize / Effloresce

Used drive : ASUS DRW-2014L1T Adapter: 4 ID: 1

Read mode : Secure
Utilize accurate stream : Yes
Defeat audio cache : Yes
Make use of C2 pointers : No

Read offset correction

: 6
Overread into Lead-In and Lead-Out : No
Fill up missing offset samples with silence : Yes
Delete leading and trailing silent blocks : No
Null samples used in CRC calculations : Yes
Used interface
: Native Win32 interface for Win NT & 2000
Gap handling
: Appended to previous track

Used output format : User Defined Encoder
Selected bitrate : 128 kBit/s
Quality : High
Add ID3 tag : No
Command line compressor : C:\Program Files\FLAC\flac.exe
Additional command line options : -8 -V -T "ARTIST=%a" -T "TITLE=%t" -T "ALBUM=%g" -T "DATE=%y" -T "TRACKNUMBER=%n" -T "GENRE=%m" -T "COMMENT=EAC FLAC -8" %s

TOC of the extracted CD Track | Start | Length | Start sector | End sector
--1 | 0:00.00 | 4:18.20 | 0 | 19369 2 | 4:18.20 | 6:40.02 | 19370 | 49371 3 | 10:58.22 | 4:19.60 | 49372 | 68856 4 | 15:18.07 | 9:59.05 | 68857 | 113786 5 | 25:17.12 | 3:58.23 | 113787 | 131659 6 | 29:15.35 | 6:00.00 | 131660 | 158659 7 | 35:15.35 | 5:22.12 | 158660 | 182821 8 | 40:37.47 | 5:32.45 | 182822 | 207766 9 | 46:10.17 | 2:50.08 | 207767 | 220524
10 | 49:00.25 | 8:30.05 | 220525 | 258779
11 | 57:30.30 | 9:04.17 | 258780 | 299596
12 | 66:34.47 | 8:57.40 | 299597 | 339911

Track 1 Filename C:\Flac\Oceansize - Effloresce (2003) [FLAC]\01 - I Am The Morning.wav Pre-gap length 0:00:02.00 Peak level 98.4 %
Track quality 100.0 %
Test CRC 7A644B9F
Copy CRC 7A644B9F
Accurately ripped (confidence 37) [A7432D6E]
Copy OK

Track 2 Filename C:\Flac\Oceansize - Effloresce (2003) [FLAC]\02 - Catalyst.wav Peak level 98.6 %
Track quality 100.0 %
Test CRC F9B16194
Copy CRC F9B16194
Accurately ripped (confidence 37) [99DE3516]
Copy OK

Track 3 Filename C:\Flac\Oceansize - Effloresce (2003) [FLAC]\03 - One Day All This Could Be Yours.wav Peak level 98.5 %
Track quality 100.0 %
Test CRC DA9AD414
Copy CRC DA9AD414
Accurately ripped (confidence 37) 4A948A7
Copy OK

Track 4 Filename C:\Flac\Oceansize - Effloresce (2003) [FLAC]\04 - Massive Bereavement.wav Peak level 98.7 %
Track quality 99.9 %
Test CRC F14870F5
Copy CRC F14870F5
Accurately ripped (confidence 37) [F259877C]
Copy OK

Track 5 Filename C:\Flac\Oceansize - Effloresce (2003) [FLAC]\05 - Rinsed.wav Peak level 98.0 %
Track quality 100.0 %
Test CRC E8DD95FF
Copy CRC E8DD95FF
Accurately ripped (confidence 37) [18A4272D]
Copy OK

Track 6 Filename C:\Flac\Oceansize - Effloresce (2003) [FLAC]\06 - You Wish.wav Peak level 98.6 %
Track quality 100.0 %
Test CRC 48D3C746
Copy CRC 48D3C746
Accurately ripped (confidence 37) [FC395115]
Copy OK

Track 7 Filename C:\Flac\Oceansize - Effloresce (2003) [FLAC]\07 - Remember Where You Are.wav Peak level 98.6 %
Track quality 100.0 %
Test CRC 9E6977C8
Copy CRC 9E6977C8
Accurately ripped (confidence 37) [28750CF0]
Copy OK

Track 8 Filename C:\Flac\Oceansize - Effloresce (2003) [FLAC]\08 - Amputee.wav Peak level 98.5 %
Track quality 100.0 %
Test CRC 54649DC1
Copy CRC 54649DC1
Accurately ripped (confidence 36) [F453CB28]
Copy OK

Track 9 Filename C:\Flac\Oceansize - Effloresce (2003) [FLAC]\09 - Unravel.wav Pre-gap length 0:00:00.96 Peak level 95.3 %
Track quality 100.0 %
Test CRC 0155A210
Copy CRC 0155A210
Accurately ripped (confidence 36) [A2A06281]
Copy OK

Track 10 Filename C:\Flac\Oceansize - Effloresce (2003) [FLAC]\10 - Women Who Love Men Who Love Drugs.wav Peak level 98.5 %
Track quality 100.0 %
Test CRC 5DE92EA1
Copy CRC 5DE92EA1
Accurately ripped (confidence 36) B96FBB4
Copy OK

Track 11 Filename C:\Flac\Oceansize - Effloresce (2003) [FLAC]\11 - Saturday Morning Breakfast Show.wav Peak level 98.7 %
Track quality 100.0 %
Test CRC 299D9B39
Copy CRC 299D9B39
Accurately ripped (confidence 37) 7E25A4E
Copy OK

Track 12 Filename C:\Flac\Oceansize - Effloresce (2003) [FLAC]\12 - Long Forgotten.wav Pre-gap length 0:00:03.76 Peak level 98.6 %
Track quality 100.0 %
Test CRC 34CDA849
Copy CRC 34CDA849
Accurately ripped (confidence 36) [398D4DDC]
Copy OK

All tracks accurately ripped

No errors occurred

End of status report

Personnel

Mike Vennart / guitar, lead vocals
Steve Durose / guitar, vocals
Gambler/ guitar
Jon Ellis / bass guitar
Mark Heron / drums

All thanks to original releaser

Oceansize - Effloresce (2003)

Oceansize - Effloresce (2003)


DOWNLOAD LINKS
Buy Premium From My Links To Get Resumable Support & Max Speed & To Support Me


Links are Interchangeable - No Password - Single Extraction
Direct Download

Tags: Oceansize, Effloresce

Oceansize - Effloresce (2003) Download via Hotfile Rapidshare Fileserve Megaupload & FileSonic, Oceansize - Effloresce (2003) free torrent downloads included crack, serial, keygen.Oceansize - Effloresce (2003) Fast Download via Rapidshare Hotfile Fileserve Filesonic Megaupload, Oceansize - Effloresce (2003) Torrents and Emule Download or anything related.
Leave a Comment
Your Name:
E-Mail:
Add Comments:

Enter Code: