Dave Alvin - Public Domain: Songs From The Wild Land (2000)

Download Now

Dave Alvin - Public Domain: Songs From The Wild Land (2000)

Dave Alvin - Public Domain: Songs From The Wild Land (2000)
Rock | 1cd | EAC Rip | Flac + Cue + Log | covers
Hightone HCD 8122 | rel: 2002 | 390Mb

Drawing from the mother lode of traditional songs in the public domain, songwriter Dave Alvin brings an authentic voice and extraordinary understanding to his chosen tracks. Familiar songs from the folk canon like "Shenandoah" and "Walk Right In" are reworked by him and a full band with arrangements incorporating the roadhouse style they've honed from years of working together. He also unearthed lesser-known songs like "Mama,
Ain't Long for Day" (perhaps credited to Blind Willie McTell), "Sign of Judgment," and "Railroad Bill," having learned versions from records he unearthed as a kid by obscure artists: from Will Bennett to Kid Prince Moore. This is the work of a scholar as well as a master craftsman. ~Allmusic

Track listing
01. Shenandoah (4:08)
02. Maggie Campbell (3:27)
03. A Short Life of Trouble (3:41)
04. What Did the Deep Sea Say (3:01)
05. Engine 143 (3:56)
06. Delia (3:39)
07. Dark Eyes (4:00)
08. Walk Right In (3:28)
09. Murder of the Lawson Family (4:18)
10. Don't Let Your Deal Go Down (4:36)
11. Railroad Bill (3:28)
12. Texas Rangers (5:07)
13. Mama, Ain't Long for Day (3:20)
14. East Virginia Blues (4:18)
15. Sign of Judgment (3:46)
16. Untitled Instrumental (3:02)
~ (61:14)

Exact Audio Copy V0.99 prebeta 5 from 4. May 2009

EAC extraction logfile from 3. October 2009, 14:27

Dave Alvin / Public Domain

Used drive : ASUS DVD-E616A3 Adapter: 0 ID: 1

Read mode : Secure
Utilize accurate stream : Yes
Defeat audio cache : Yes
Make use of C2 pointers : No

Read offset correction

: 6
Overread into Lead-In and Lead-Out : No
Fill up missing offset samples with silence : Yes
Delete leading and trailing silent blocks : No
Null samples used in CRC calculations : Yes
Used interface
: Native Win32 interface for Win NT & 2000
Gap handling
: Appended to previous track

Used output format : User Defined Encoder
Selected bitrate : 320 kBit/s
Quality : High
Add ID3 tag : No
Command line compressor : C:\Program Files\FLAC\flac.exe
Additional command line options : -V -8 -T "artist=%a" -T "title=%t" -T "album=%g" -T "date=%y" -T "tracknumber=%n" -T "genre=%m" %s

TOC of the extracted CD Track | Start | Length | Start sector | End sector
--1 | 0:00.00 | 4:08.30 | 0 | 18629 2 | 4:08.30 | 3:26.68 | 18630 | 34147 3 | 7:35.23 | 3:41.22 | 34148 | 50744 4 | 11:16.45 | 3:01.08 | 50745 | 64327 5 | 14:17.53 | 3:56.25 | 64328 | 82052 6 | 18:14.03 | 3:38.52 | 82053 | 98454 7 | 21:52.55 | 3:59.48 | 98455 | 116427 8 | 25:52.28 | 3:28.07 | 116428 | 132034 9 | 29:20.35 | 4:18.28 | 132035 | 151412
10 | 33:38.63 | 4:35.40 | 151413 | 172077
11 | 38:14.28 | 3:27.57 | 172078 | 187659
12 | 41:42.10 | 5:07.05 | 187660 | 210689
13 | 46:49.15 | 3:19.40 | 210690 | 225654
14 | 50:08.55 | 4:17.73 | 225655 | 245002
15 | 54:26.53 | 3:45.60 | 245003 | 261937
16 | 58:12.38 | 3:01.55 | 261938 | 275567

Track 1 Filename C:\EAC Extractions\Dave Alvin - Public Domain (2000) [FLAC]\01 - Shenandoah.wav Pre-gap length 0:00:02.00 Peak level 98.8 %
Track quality 99.9 %
Test CRC 845C6A74
Copy CRC 845C6A74
Accurately ripped (confidence 8) [3B0CF774]
Copy OK

Track 2 Filename C:\EAC Extractions\Dave Alvin - Public Domain (2000) [FLAC]\02 - Maggie Campbell.wav Peak level 98.8 %
Track quality 100.0 %
Test CRC 09A5FAC4
Copy CRC 09A5FAC4
Accurately ripped (confidence 8) [1E467029]
Copy OK

Track 3 Filename C:\EAC Extractions\Dave Alvin - Public Domain (2000) [FLAC]\03 - A Short Life of Trouble.wav Pre-gap length 0:00:01.10 Peak level 98.8 %
Track quality 100.0 %
Test CRC 3CAE45AB
Copy CRC 3CAE45AB
Accurately ripped (confidence 8) [C3F7DE01]
Copy OK

Track 4 Filename C:\EAC Extractions\Dave Alvin - Public Domain (2000) [FLAC]\04 - What Did the Deep Sea Say.wav Peak level 98.8 %
Track quality 100.0 %
Test CRC C6CEF516
Copy CRC C6CEF516
Accurately ripped (confidence 8) [8FF62B9E]
Copy OK

Track 5 Filename C:\EAC Extractions\Dave Alvin - Public Domain (2000) [FLAC]\05 - Engine 143.wav Peak level 98.8 %
Track quality 100.0 %
Test CRC C31603EE
Copy CRC C31603EE
Accurately ripped (confidence 8) [A9496A06]
Copy OK

Track 6 Filename C:\EAC Extractions\Dave Alvin - Public Domain (2000) [FLAC]\06 - Delia.wav Peak level 98.8 %
Track quality 100.0 %
Test CRC 12323AB7
Copy CRC 12323AB7
Accurately ripped (confidence 9) [C768B205]
Copy OK

Track 7 Filename C:\EAC Extractions\Dave Alvin - Public Domain (2000) [FLAC]\07 - Dark Eyes.wav Peak level 98.8 %
Track quality 100.0 %
Test CRC 00ED4365
Copy CRC 00ED4365
Accurately ripped (confidence 8) 14C0AA6
Copy OK

Track 8 Filename C:\EAC Extractions\Dave Alvin - Public Domain (2000) [FLAC]\08 - Walk Right In.wav Peak level 98.8 %
Track quality 100.0 %
Test CRC 7A098738
Copy CRC 7A098738
Accurately ripped (confidence 8) [007C957A]
Copy OK

Track 9 Filename C:\EAC Extractions\Dave Alvin - Public Domain (2000) [FLAC]\09 - Murder of the Lawson Family.wav Peak level 98.8 %
Track quality 99.9 %
Test CRC 04667CAF
Copy CRC 04667CAF
Accurately ripped (confidence 8) [8E1C45C5]
Copy OK

Track 10 Filename C:\EAC Extractions\Dave Alvin - Public Domain (2000) [FLAC]\10 - Don't Let Your Deal Go Down.wav Peak level 98.8 %
Track quality 100.0 %
Test CRC C5B49E3E
Copy CRC C5B49E3E
Accurately ripped (confidence 7) [AF5CA5D5]
Copy OK

Track 11 Filename C:\EAC Extractions\Dave Alvin - Public Domain (2000) [FLAC]\11 - Railroad Bill.wav Peak level 100.0 %
Track quality 100.0 %
Test CRC F324E567
Copy CRC F324E567
Accurately ripped (confidence 8) [0CD86E86]
Copy OK

Track 12 Filename C:\EAC Extractions\Dave Alvin - Public Domain (2000) [FLAC]\12 - Texas Rangers.wav Pre-gap length 0:00:01.33 Peak level 98.8 %
Track quality 100.0 %
Test CRC BDCFF80F
Copy CRC BDCFF80F
Accurately ripped (confidence 9) [590F7AEB]
Copy OK

Track 13 Filename C:\EAC Extractions\Dave Alvin - Public Domain (2000) [FLAC]\13 - Mama, Ain't Long for Day.wav Peak level 95.5 %
Track quality 100.0 %
Test CRC 893C0ED4
Copy CRC 893C0ED4
Accurately ripped (confidence 8) [C24966BE]
Copy OK

Track 14 Filename C:\EAC Extractions\Dave Alvin - Public Domain (2000) [FLAC]\14 - East Virginia Blues.wav Peak level 100.0 %
Track quality 100.0 %
Test CRC 2BFB3E58
Copy CRC 2BFB3E58
Accurately ripped (confidence 8) [785A4F04]
Copy OK

Track 15 Filename C:\EAC Extractions\Dave Alvin - Public Domain (2000) [FLAC]\15 - Sign of Judgment.wav Peak level 93.3 %
Track quality 99.9 %
Test CRC 6B98E95F
Copy CRC 6B98E95F
Accurately ripped (confidence 9) [4EB81ECD]
Copy OK

Track 16 Filename C:\EAC Extractions\Dave Alvin - Public Domain (2000) [FLAC]\16 - Untitled Instrumental.wav Pre-gap length 0:00:06.44 Peak level 89.1 %
Track quality 100.0 %
Test CRC A0A53E99
Copy CRC A0A53E99
Accurately ripped (confidence 8) [6F6205EE]
Copy OK

All tracks accurately ripped

No errors occurred

End of status report

[CUETools log; Date: 2015.08.11. 22:45:50; Version: 2.1.5]
[CTDB TOCID: AizeI.MEPWVuJkgj4PzWmRjUY28-] found.
Track | CTDB Status
1 | (16/16) Accurately ripped
2 | (16/16) Accurately ripped
3 | (16/16) Accurately ripped
4 | (16/16) Accurately ripped
5 | (16/16) Accurately ripped
6 | (16/16) Accurately ripped
7 | (16/16) Accurately ripped
8 | (16/16) Accurately ripped
9 | (16/16) Accurately ripped
10 | (16/16) Accurately ripped
11 | (16/16) Accurately ripped
12 | (16/16) Accurately ripped
13 | (16/16) Accurately ripped
14 | (16/16) Accurately ripped
15 | (16/16) Accurately ripped
16 | (16/16) Accurately ripped
[AccurateRip ID: 0023812b-01ac5d6c-d50e5a10] found.
Track [ CRC | V2 ] Status
01 [3b0cf774|95effbbc] (20+25/49) Accurately ripped
02 [1e467029|4b122492] (20+25/49) Accurately ripped
03 [c3f7de01|8e574c54] (20+25/49) Accurately ripped
04 [8ff62b9e|c8fc1abd] (20+25/49) Accurately ripped
05 [a9496a06|b2abcc33] (20+25/49) Accurately ripped
06 [c768b205|0b1e49f9] (21+25/50) Accurately ripped
07 14c0aa6|36606bf5 (20+25/49) Accurately ripped
08 [007c957a|a7e2139f] (20+25/49) Accurately ripped
09 [8e1c45c5|6139947a] (20+23/47) Accurately ripped
10 [af5ca5d5|7fe50a12] (19+25/48) Accurately ripped
11 [0cd86e86|d3fcb762] (21+25/50) Accurately ripped
12 [590f7aeb|b406ea1c] (20+25/49) Accurately ripped
13 [c24966be|3f146156] (19+25/48) Accurately ripped
14 [785a4f04|938bc4f3] (20+24/48) Accurately ripped
15 [4eb81ecd|f3ba53f4] (21+23/48) Accurately ripped
16 [6f6205ee|3a8ba3cf] (20+24/48) Accurately ripped
Offsetted by -86:
01 [4536810e] (04/49) Accurately ripped
02 [3ef5596b] (04/49) Accurately ripped
03 [df537837] (04/49) Accurately ripped
04 [a68e97d6] (04/49) Accurately ripped
05 [77cabaf4] (04/49) Accurately ripped
06 [7bc2c6c3] (04/50) Accurately ripped
07 985e210 (04/49) Accurately ripped
08 [fb62735e] (04/49) Accurately ripped
09 [eee84711] (04/47) Accurately ripped
10 [6beea3fb] (04/48) Accurately ripped
11 [22b0debc] (04/50) Accurately ripped
12 [00fd1e9f] (04/49) Accurately ripped
13 [2b3e5874] (04/48) Accurately ripped
14 [d37df4b6] (04/48) Accurately ripped
15 a9395c1 (04/48) Accurately ripped
16 [7a220cb6] (04/48) Accurately ripped

Track Peak [ CRC32 ] [W/O NULL] [ LOG ]
-- 100,0 E7AE292 [EE158DBB]
01 98,8 [845C6A74] [93B6DFB6] CRC32
02 98,8 [09A5FAC4] [A0748BAF] CRC32
03 98,8 [3CAE45AB] [A74E1CB0] CRC32
04 98,8 [C6CEF516] [7E297A9B] CRC32
05 98,8 [C31603EE] [A6BD2442] CRC32
06 98,8 [12323AB7] [DCFD6875] CRC32
07 98,8 [00ED4365] [2B05EE30] CRC32
08 98,8 [7A098738] [E37E526A] CRC32
09 98,8 [04667CAF] [92C5C429] CRC32
10 98,8 [C5B49E3E] [F25781BA] CRC32
11 100,0 [F324E567] [7E9ABB14] CRC32
12 98,8 DCFF80F [FBD6D744] CRC32
13 95,5 [893C0ED4] [7E313244] CRC32
14 100,0 [2BFB3E58] [7D385CA6] CRC32
15 93,3 [6B98E95F] [9001820D] CRC32
16 89,1 [A0A53E99] [F88B1250] CRC32

Thx to sjo
password: asd
DOWNLOAD:
Buy Premium To Support Me & Get Resumable Support & Max Speed


Links are Interchangeable - No Password
Direct Download

Tags: Public, Domain

Dave Alvin - Public Domain: Songs From The Wild Land (2000) Download via Hotfile Rapidshare Fileserve Megaupload & FileSonic, Dave Alvin - Public Domain: Songs From The Wild Land (2000) free torrent downloads included crack, serial, keygen.Dave Alvin - Public Domain: Songs From The Wild Land (2000) Fast Download via Rapidshare Hotfile Fileserve Filesonic Megaupload, Dave Alvin - Public Domain: Songs From The Wild Land (2000) Torrents and Emule Download or anything related.
Leave a Comment
Your Name:
E-Mail:
Add Comments:

Enter Code: