Elvis Presley - A Legendary Performer, Volume 1 (1973) CD Issue 1989

Download Now

Elvis Presley - A Legendary Performer, Volume 1 (1973) CD Issue 1989

Elvis Presley - A Legendary Performer, Volume 1 (1973) CD Issue 1989
EAC | FLAC | Tracks (Cue&Log) ~ 138 Mb (incl 5%) | Mp3 (CBR320) ~ 64 Mb (incl 5%) | Scans included
Genre: Rock & Roll, Rockabilly, Country Pop, Early Pop/Rock | Label: RCA, BMG | # CAD1-2705 | Time: 00:21:46

"The Legendary Performer series -- there were four on Elvis -- collected hits, non-hits, and previously unreleased studio and live recordings with snippets of interviews. While their importance has been diminished by the various collections that have been released since, many of which robbed the "rare" tracks from here, the albums are essential as albums nonetheless. Each one was issued with a booklet that included rare photos, old posters, session notes and Elvis memorabilia with captions that were generally a bit fannish. Should the reader take the four volumes and painstakingly transfer the material to tape in its correct chronology, he or she would have a more rational overview of Presley's career than the label has yet compiled."

Elvis Presley at Allmusic
Elvis Presley Website
Elvis Presley at Wiki

Tracklist:

01. That's All Right (01:55)
02. Heartbreak Hotel (02:05)
03. Elvis (Excerpt From Interview Held Sept. 22, 1958) (00:35)
04. Don't Be Cruel (02:01)
05. Trying To Get To You (02:31)
06. Love Me Tender (02:43)
07. (There'll Be) Peace In The Valley (For Me) (03:20)
08. Elvis (Excerpt From Interview Held Sept. 22, 1958) (02:12)
09. Tonight's All Right For Love (01:21)
10. Can't Help Falling In Love (02:58)


Exact Audio Copy V1.1 from 23. June 2015

EAC extraction logfile from 10. August 2015, 16:39

Elvis Presley / A Legendary Performer, Vol. 1

Used drive : HL-DT-STDVDRAM GH24NSC0 Adapter: 1 ID: 0

Read mode : Secure
Utilize accurate stream : Yes
Defeat audio cache : Yes
Make use of C2 pointers : No

Read offset correction

: 6
Overread into Lead-In and Lead-Out : No
Fill up missing offset samples with silence : Yes
Delete leading and trailing silent blocks : No
Null samples used in CRC calculations : Yes
Used interface
: Native Win32 interface for Win NT & 2000
Gap handling
: Appended to previous track

Used output format : User Defined Encoder
Selected bitrate : 1024 kBit/s
Quality : High
Add ID3 tag : No
Command line compressor : C:\Program Files (x86)\Exact Audio Copy\Flac\flac.exe
Additional command line options : -0 -V -T "Artist=%artist%" -T "Title=%title%" -T "Album=%albumtitle%" -T "Date=%year%" -T "Tracknumber=%tracknr%" -T "Genre=%genre%" -T "Comment=%comment%" -T "Discnumber=%cdnumber%" -T "Totaldiscs=%totalcds%" %hascover%--picture="%coverfile%"%hascover% %source%

TOC of the extracted CD Track | Start | Length | Start sector | End sector
--1 | 0:00.33 | 1:58.60 | 33 | 8942 2 | 1:59.18 | 2:09.05 | 8943 | 18622 3 | 4:08.23 | 0:35.52 | 18623 | 21299 4 | 4:44.00 | 2:02.65 | 21300 | 30514 5 | 6:46.65 | 2:35.03 | 30515 | 42142 6 | 9:21.68 | 2:48.22 | 42143 | 54764 7 | 12:10.15 | 3:23.23 | 54765 | 70012 8 | 15:33.38 | 2:13.40 | 70013 | 80027 9 | 17:47.03 | 1:22.12 | 80028 | 86189
10 | 19:09.15 | 2:58.73 | 86190 | 99612

Track 1 Filename C:\Elvis Presley - A Legendary Performer, Vol. 1 (1973) [FLAC]\01. That's All Right.wav Pre-gap length 0:00:02.33 Peak level 93.5 %
Extraction speed 0.9 X
Track quality 100.0 %
Test CRC 036EC8E1
Copy CRC 036EC8E1
Cannot be verified as accurate (confidence 5) 878B89B, AccurateRip returned [125FF724] (AR v2)
Copy OK

Track 2 Filename C:\Elvis Presley - A Legendary Performer, Vol. 1 (1973) [FLAC]\02. Heartbreak Hotel.wav Pre-gap length 0:00:02.73 Peak level 91.1 %
Extraction speed 0.9 X
Track quality 100.0 %
Test CRC 210ABF05
Copy CRC 210ABF05
Cannot be verified as accurate (confidence 4) [C7F55B07], AccurateRip returned [AF388A7D] (AR v2)
Copy OK

Track 3 Filename C:\Elvis Presley - A Legendary Performer, Vol. 1 (1973) [FLAC]\03. Elvis (Excerpt From Interview Held Sept. 22, 1958).wav Pre-gap length 0:00:03.38 Peak level 41.2 %
Extraction speed 0.6 X
Track quality 100.0 %
Test CRC CDE9CCCD
Copy CRC CDE9CCCD
Cannot be verified as accurate (confidence 4) 8CC4BE6, AccurateRip returned [F379654E] (AR v2)
Copy OK

Track 4 Filename C:\Elvis Presley - A Legendary Performer, Vol. 1 (1973) [FLAC]\04. Don't Be Cruel.wav Peak level 100.0 %
Extraction speed 1.0 X
Track quality 100.0 %
Test CRC E3A07EC9
Copy CRC E3A07EC9
Cannot be verified as accurate (confidence 5) [2CC0CC29], AccurateRip returned [E4ED052C] (AR v2)
Copy OK

Track 5 Filename C:\Elvis Presley - A Legendary Performer, Vol. 1 (1973) [FLAC]\05. Trying To Get To You.wav Pre-gap length 0:00:01.32 Peak level 77.5 %
Extraction speed 0.9 X
Track quality 99.9 %
Test CRC CC4279BA
Copy CRC CC4279BA
Cannot be verified as accurate (confidence 5) [DC104D51], AccurateRip returned [AB0A9B63] (AR v2)
Copy OK

Track 6 Filename C:\Elvis Presley - A Legendary Performer, Vol. 1 (1973) [FLAC]\06. Love Me Tender.wav Pre-gap length 0:00:03.40 Peak level 56.0 %
Extraction speed 1.0 X
Track quality 99.9 %
Test CRC 92188462
Copy CRC 92188462
Cannot be verified as accurate (confidence 5) [C7A696BD], AccurateRip returned [23624B97] (AR v2)
Copy OK

Track 7 Filename C:\Elvis Presley - A Legendary Performer, Vol. 1 (1973) [FLAC]\07. (There'll Be) Peace In The Valley (For Me).wav Pre-gap length 0:00:04.42 Peak level 82.7 %
Extraction speed 1.3 X
Track quality 100.0 %
Test CRC 580F1C96
Copy CRC 580F1C96
Cannot be verified as accurate (confidence 4) [368BDD73], AccurateRip returned [254E50B3] (AR v2)
Copy OK

Track 8 Filename C:\Elvis Presley - A Legendary Performer, Vol. 1 (1973) [FLAC]\08. Elvis (Excerpt From Interview Held Sept. 22, 1958).wav Pre-gap length 0:00:02.55 Peak level 52.4 %
Extraction speed 1.2 X
Track quality 100.0 %
Test CRC 3D9575A2
Copy CRC 3D9575A2
Cannot be verified as accurate (confidence 5) 14A28A3, AccurateRip returned [620DD578] (AR v2)
Copy OK

Track 9 Filename C:\Elvis Presley - A Legendary Performer, Vol. 1 (1973) [FLAC]\09. Tonight's All Right For Love.wav Pre-gap length 0:00:01.35 Peak level 78.7 %
Extraction speed 1.1 X
Track quality 100.0 %
Test CRC 1C7D62F9
Copy CRC 1C7D62F9
Cannot be verified as accurate (confidence 5) [A6B4732F], AccurateRip returned [F1406FB0] (AR v2)
Copy OK

Track 10 Filename C:\Elvis Presley - A Legendary Performer, Vol. 1 (1973) [FLAC]\10. Can't Help Falling In Love.wav Pre-gap length 0:00:01.00 Peak level 89.3 %
Extraction speed 1.2 X
Track quality 99.9 %
Test CRC B5B91D5D
Copy CRC B5B91D5D
Cannot be verified as accurate (confidence 5) [84A3B3B3], AccurateRip returned [9A86CF29] (AR v2)
Copy OK

No tracks could be verified as accurate
You may have a different pressing from the one(s) in the database

No errors occurred

End of status report

- CUETools DB Plugin V2.1.6

[CTDB TOCID: lmqyRC6lmNwHuTFT9EbyJ_bXWnE-] found
Submit result: lmqyRC6lmNwHuTFT9EbyJ_bXWnE- has been confirmed
Track | CTDB Status
1 | (3/3) Accurately ripped
2 | (3/3) Accurately ripped
3 | (3/3) Accurately ripped
4 | (3/3) Accurately ripped
5 | (3/3) Accurately ripped
6 | (3/3) Accurately ripped
7 | (3/3) Accurately ripped
8 | (3/3) Accurately ripped
9 | (3/3) Accurately ripped
10 | (3/3) Accurately ripped

==== Log checksum 1EF53A28B1AE4320BBA0B1980129265A0808FABD4AC1BA4EAE8304033AFFC54E ====

foobar2000 1.2 / Dynamic Range Meter 1.1.1
log date: 2015-08-13 13:30:22

Analyzed: Elvis Presley / A Legendary Performer, Vol. 1

DR Peak RMS Duration Track

DR10 -0.58 dB -13.15 dB 1:59 01-That's All Right
DR12 -0.81 dB -16.38 dB 2:09 02-Heartbreak Hotel
DR10 -7.68 dB -19.51 dB 0:36 03-Elvis (Excerpt From Interview Held Sept. 22, 1958)
DR12 0.00 dB -14.51 dB 2:03 04-Don't Be Cruel
DR11 -2.21 dB -14.33 dB 2:35 05-Trying To Get To You
DR8 -5.03 dB -15.33 dB 2:48 06-Love Me Tender
DR12 -1.65 dB -16.03 dB 3:23 07-(There'll Be) Peace In The Valley (For Me)
DR11 -5.61 dB -18.45 dB 2:14 08-Elvis (Excerpt From Interview Held Sept. 22, 1958)
DR11 -2.08 dB -15.30 dB 1:22 09-Tonight's All Right For Love
DR11 -0.98 dB -13.61 dB 2:59 10-Can't Help Falling In Love

Number of tracks: 10
Official DR value: DR11

Samplerate: 44100 Hz
Channels: 2
Bits per sample: 16
Bitrate: 835 kbps
Codec: FLAC

Elvis Presley - A Legendary Performer, Volume 1 (1973) CD Issue 1989

Elvis Presley - A Legendary Performer, Volume 1 (1973) CD Issue 1989

All thanks to original releaser - hubtj
Password: designol

DOWNLOAD LINKS
Buy Premium From My Links To Get Resumable Support & Max Speed & To Support Me


Links are Interchangeable - No Password - Single Extraction
Direct Download

Tags: Presley, Legendary, Performer

Elvis Presley - A Legendary Performer, Volume 1 (1973) CD Issue 1989 Download via Hotfile Rapidshare Fileserve Megaupload & FileSonic, Elvis Presley - A Legendary Performer, Volume 1 (1973) CD Issue 1989 free torrent downloads included crack, serial, keygen.Elvis Presley - A Legendary Performer, Volume 1 (1973) CD Issue 1989 Fast Download via Rapidshare Hotfile Fileserve Filesonic Megaupload, Elvis Presley - A Legendary Performer, Volume 1 (1973) CD Issue 1989 Torrents and Emule Download or anything related.
Leave a Comment
Your Name:
E-Mail:
Add Comments:

Enter Code: