Sunbirds - Zagara (1973) [Reissue 2015]

Download Now

Sunbirds - Zagara (1973) [Reissue 2015]

Sunbirds - Zagara (1973) [Reissue 2015]
EAC Rip | FLAC (tracks+.cue+log) - 242 MB | MP3 CBR 320 kbps (LAME 3.93) - 94 MB | Covers - 212 MB
Genre: Progressive/Jazz Rock | RAR 3% Rec. | Label: Garden of Delights (CD 174)

"Fusion from Munich, some smoothly relaxed kind of music with Latin influences. After the first Sunbirds LP from 1971, with Philip Catherine on guitar, the album at hand is the band's second and last one, recorded in 1972 and released in 1973. It is the first CD version, drawn from the master tapes, including the bonus track "Mbira" which was then recorded during the same session. All of the musicians were masters of their trade. Drummer Klaus Weiss, keyboardist Fritz Pauer and bassists Jimmy Woode and Ron Carter were world-famous even back then, and the others were in no way inferior. The nine artists were so skilled that nearly all recordings were perfect at the first attempt..."

Tracklist:
01. Fire Dance
02. Homecoming
03. Ocean Song
04. Stillpointing
05. Zagara
06. My Dear Groovin
07. I Don't Need
08. African Sun
09. Mbira (Bonus track)

Total time: 39:56

Exact Audio Copy V1.0 beta 3 from 29. August 2011

EAC extraction logfile from 15. July 2015, 14:19

Sunbirds / Zagara

Used drive : _NEC DVD_RW ND-3540A Adapter: 1 ID: 0

Read mode : Secure
Utilize accurate stream : Yes
Defeat audio cache : Yes
Make use of C2 pointers : No

Read offset correction

: 48
Overread into Lead-In and Lead-Out : No
Fill up missing offset samples with silence : Yes
Delete leading and trailing silent blocks : No
Null samples used in CRC calculations : Yes
Used interface
: Native Win32 interface for Win NT & 2000
Gap handling
: Appended to previous track

Used output format : User Defined Encoder
Selected bitrate : 1024 kBit/s
Quality : High
Add ID3 tag : Yes
Command line compressor : C:\Program Files (x86)\Exact Audio Copy\FLAC\FLAC.EXE
Additional command line options : -6 -V -T "ARTIST=%artist%" -T "TITLE=%title%" -T "ALBUM=%albumtitle%" -T "DATE=%year%" -T "TRACKNUMBER=%tracknr%" -T "GENRE=%genre%" -T "COMMENT=%comment%" %hascover%--picture="%coverfile%"%hascover% %source% -o %dest%

TOC of the extracted CD Track | Start | Length | Start sector | End sector
--1 | 0:00.00 | 4:42.08 | 0 | 21157 2 | 4:42.08 | 4:08.22 | 21158 | 39779 3 | 8:50.30 | 4:10.63 | 39780 | 58592 4 | 13:01.18 | 2:55.00 | 58593 | 71717 5 | 15:56.18 | 2:54.07 | 71718 | 84774 6 | 18:50.25 | 4:09.44 | 84775 | 103493 7 | 22:59.69 | 4:07.43 | 103494 | 122061 8 | 27:07.37 | 10:57.74 | 122062 | 171410 9 | 38:05.36 | 1:51.22 | 171411 | 179757

Track 1 Filename F:\Music\olaf_alien\Sunbirds - Zagara (1973, Finger - 2015, GoD)\01 - Fire Dance.wav Pre-gap length 0:00:02.00 Peak level 98.8 %
Extraction speed 4.5 X
Track quality 100.0 %
Test CRC 8DDC11C7
Copy CRC 8DDC11C7
Track not present in AccurateRip database
Copy OK

Track 2 Filename F:\Music\olaf_alien\Sunbirds - Zagara (1973, Finger - 2015, GoD)\02 - Homecoming.wav Peak level 98.8 %
Extraction speed 4.1 X
Track quality 99.9 %
Test CRC 4115371C
Copy CRC 4115371C
Track not present in AccurateRip database
Copy OK

Track 3 Filename F:\Music\olaf_alien\Sunbirds - Zagara (1973, Finger - 2015, GoD)\03 - Ocean Song.wav Peak level 98.8 %
Extraction speed 5.4 X
Track quality 100.0 %
Test CRC BB093278
Copy CRC BB093278
Track not present in AccurateRip database
Copy OK

Track 4 Filename F:\Music\olaf_alien\Sunbirds - Zagara (1973, Finger - 2015, GoD)\04 - Stillpointing.wav Peak level 98.8 %
Extraction speed 5.4 X
Track quality 100.0 %
Test CRC CC0B4204
Copy CRC CC0B4204
Track not present in AccurateRip database
Copy OK

Track 5 Filename F:\Music\olaf_alien\Sunbirds - Zagara (1973, Finger - 2015, GoD)\05 - Zagara.wav Peak level 98.8 %
Extraction speed 5.6 X
Track quality 100.0 %
Test CRC E31533D8
Copy CRC E31533D8
Track not present in AccurateRip database
Copy OK

Track 6 Filename F:\Music\olaf_alien\Sunbirds - Zagara (1973, Finger - 2015, GoD)\06 - My Dear Groovin.wav Peak level 98.8 %
Extraction speed 6.2 X
Track quality 100.0 %
Test CRC A916EE10
Copy CRC A916EE10
Track not present in AccurateRip database
Copy OK

Track 7 Filename F:\Music\olaf_alien\Sunbirds - Zagara (1973, Finger - 2015, GoD)\07 - I Don't Need.wav Peak level 98.8 %
Extraction speed 6.5 X
Track quality 100.0 %
Test CRC 68604C84
Copy CRC 68604C84
Track not present in AccurateRip database
Copy OK

Track 8 Filename F:\Music\olaf_alien\Sunbirds - Zagara (1973, Finger - 2015, GoD)\08 - African Sun.wav Peak level 98.8 %
Extraction speed 7.1 X
Track quality 99.9 %
Test CRC 77ACC9B8
Copy CRC 77ACC9B8
Track not present in AccurateRip database
Copy OK

Track 9 Filename F:\Music\olaf_alien\Sunbirds - Zagara (1973, Finger - 2015, GoD)\09 - Mbira (bonus).wav Pre-gap length 0:00:02.00 Peak level 48.4 %
Extraction speed 6.5 X
Track quality 100.0 %
Test CRC 75BB010D
Copy CRC 75BB010D
Track not present in AccurateRip database
Copy OK

None of the tracks are present in the AccurateRip database

No errors occurred

End of status report

==== Log checksum D6F399A9E5B2358EF33BF639BB912AB9E8F1E2DE5BDD8EE3016AD63C7BB5A8DD ====

[CUETools log; Date: 13.08.2015 9:55:49; Version: 2.1.4]
[CTDB TOCID: WQTAlff5AlDwvvOCF3DGeq55Ry0-] found.
Track | CTDB Status
1 | (1/1) Accurately ripped
2 | (1/1) Accurately ripped
3 | (1/1) Accurately ripped
4 | (1/1) Accurately ripped
5 | (1/1) Accurately ripped
6 | (1/1) Accurately ripped
7 | (1/1) Accurately ripped
8 | (1/1) Accurately ripped
9 | (1/1) Accurately ripped
[AccurateRip ID: 000d030d-006032f6-7b095c09] found.
Track [ CRC | V2 ] Status
01 [618cde72|2a5b7c60] (0+1/1) Accurately ripped
02 [78faf8b6|05e2394c] (0+1/1) Accurately ripped
03 [60d62ec6|9ad557bf] (0+1/1) Accurately ripped
04 [554e867c|bdc478e7] (0+1/1) Accurately ripped
05 [6843d5d0|43292502] (0+1/1) Accurately ripped
06 [a21a28c5|d1766144] (0+1/1) Accurately ripped
07 [77cdf26e|0c23d3e5] (0+1/1) Accurately ripped
08 [5f1bf94d|ebf2ebba] (0+1/1) Accurately ripped
09 [6082e823|a86c5e69] (0+1/1) Accurately ripped

Track Peak [ CRC32 ] [W/O NULL] [ LOG ]
-- 98,8 [24893729] [ECF45FA8]
01 98,8 [8DDC11C7] [87569530] CRC32
02 98,8 [4115371C] [556AD0DC] CRC32
03 98,8 B093278 [D6594531] CRC32
04 98,8 [CC0B4204] [0153B7DC] CRC32
05 98,8 [E31533D8] [A965A84A] CRC32
06 98,8 [A916EE10] [5B107F6E] CRC32
07 98,8 [68604C84] [2FF819F3] CRC32
08 98,8 [77ACC9B8] [0A18A348] CRC32
09 48,4 [75BB010D] [AA597B91] CRC32
Thanks to olaf_alien
DOWNLOAD LINKS
Buy Premium From My Links To Get Resumable Support & Max Speed & To Support Me


Links are Interchangeable - No Password - Single Extraction
Direct Download

Tags: Sunbirds, Zagara, Reissue

Sunbirds - Zagara (1973) [Reissue 2015] Download via Hotfile Rapidshare Fileserve Megaupload & FileSonic, Sunbirds - Zagara (1973) [Reissue 2015] free torrent downloads included crack, serial, keygen.Sunbirds - Zagara (1973) [Reissue 2015] Fast Download via Rapidshare Hotfile Fileserve Filesonic Megaupload, Sunbirds - Zagara (1973) [Reissue 2015] Torrents and Emule Download or anything related.
Leave a Comment
Your Name:
E-Mail:
Add Comments:

Enter Code: