Herbie Hancock - Head Hunters (1973) {2007 Japan SACD Hybrid, SICP 10073} [re-up]

Download Now


Herbie Hancock - Head Hunters (1973) {2007 Japan SACD Hybrid, SICP 10073} [re-up]
Herbie Hancock - Head Hunters (1973) {2007 Japan SACD Hybrid, SICP 10073}
EAC rip (secure mode) | FLAC (tracks)+CUE+LOG -> 271 Mb | MP3 @320 -> 100 Mb
Full Artwork @ 600 dpi (png) -> 98 Mb | 5% repair rar
© 2007 Columbia / Sony Music Japan | SICP 10073 | SACD Hybrid DSD
Jazz / Fusion / Jazz Funk / Post Bop / Piano

"Head Hunters was a pivotal point in Herbie Hancock's career, bringing him into the vanguard of jazz fusion. Hancock had pushed avant-garde boundaries on his own albums and with Miles Davis, but he had never devoted himself to the groove as he did on Head Hunters. Drawing heavily from Sly Stone, Curtis Mayfield, and James Brown, Hancock developed deeply funky, even gritty, rhythms over which he soloed on electric synthesizers, bringing the instrument to the forefront in jazz."

Herbie Hancock - Head Hunters (1973) {2007 Japan SACD Hybrid, SICP 10073} [re-up]


Personnel: Herbie Hancock (Fender Rhodes piano, Clavinet, synthesizer); Bennie Maupin (soprano & tenor saxophones, saxello, bass clarinet, alto flute); Paul Jackson (marimbula, bass); Harvey Mason (drums); Bill Summers (congas, shekere, balafon, agogo, cabasa, hindewho, tambourine, log drum, surdo, gankoqui, beer bottle).

tracklist:
01. Chameleon
02. Watermelon Man
03. Sly
04. Vein Melter

Exact Audio Copy V0.99 prebeta 5 from 4. May 2009

EAC extraction logfile from 22. February 2011, 12:54

Herbie Hancock / Head Hunters

Used drive : TSSTcorpCD/DVDW TS-H552L Adapter: 3 ID: 0

Read mode : Secure
Utilize accurate stream : Yes
Defeat audio cache : Yes
Make use of C2 pointers : No

Read offset correction

: 6
Overread into Lead-In and Lead-Out : No
Fill up missing offset samples with silence : Yes
Delete leading and trailing silent blocks : No
Null samples used in CRC calculations : Yes
Used interface
: Native Win32 interface for Win NT & 2000
Gap handling
: Appended to previous track

Used output format : User Defined Encoder
Selected bitrate : 1024 kBit/s
Quality : High
Add ID3 tag : No
Command line compressor : C:\Program Files\FLAC\flac.exe
Additional command line options : -5 -V -T "ARTIST=%a" -T "TITLE=%t" -T "ALBUM=%g" -T "DATE=%y" -T "TRACKNUMBER=%n" -T "TOTALTRACKS=%x" -T "GENRE=%m" -T "ALBUMARTIST=%v" -T "ALBUM ARTIST=%v" -T "COMMENT=EAC Secure Mode, Test & Copy, AccurateRip, FLAC -5" %s

TOC of the extracted CD Track | Start | Length | Start sector | End sector
--1 | 0:00.00 | 15:44.65 | 0 | 70864 2 | 15:44.65 | 6:31.65 | 70865 | 100254 3 | 22:16.55 | 10:20.74 | 100255 | 146828 4 | 32:37.54 | 9:09.36 | 146829 | 188039

Track 1 Filename E:\EAC\Herbie Hancock - Head Hunters (1973) {2007 Japan SACD Hybrid, SICP 10073}\01 - Chameleon.wav Pre-gap length 0:00:02.00 Peak level 100.0 %
Track quality 100.0 %
Test CRC EBBDD1E4
Copy CRC EBBDD1E4
Accurately ripped (confidence 6) [F5FA66F8]
Copy OK

Track 2 Filename E:\EAC\Herbie Hancock - Head Hunters (1973) {2007 Japan SACD Hybrid, SICP 10073}\02 - Watermelon Man.wav Pre-gap length 0:00:03.50 Peak level 100.0 %
Track quality 100.0 %
Test CRC EC90E4DE
Copy CRC EC90E4DE
Accurately ripped (confidence 6) [075B26FA]
Copy OK

Track 3 Filename E:\EAC\Herbie Hancock - Head Hunters (1973) {2007 Japan SACD Hybrid, SICP 10073}\03 - Sly.wav Pre-gap length 0:00:02.90 Peak level 100.0 %
Track quality 99.9 %
Test CRC 34BA046C
Copy CRC 34BA046C
Accurately ripped (confidence 6) [14B420BD]
Copy OK

Track 4 Filename E:\EAC\Herbie Hancock - Head Hunters (1973) {2007 Japan SACD Hybrid, SICP 10073}\04 - Vein Melter.wav Pre-gap length 0:00:05.49 Peak level 99.9 %
Track quality 100.0 %
Test CRC A99022AF
Copy CRC A99022AF
Accurately ripped (confidence 5) [31845F67]
Copy OK

All tracks accurately ripped

No errors occurred

End of status report

Herbie Hancock - Head Hunters (1973) {2007 Japan SACD Hybrid, SICP 10073} [re-up]

Herbie Hancock - Head Hunters (1973) {2007 Japan SACD Hybrid, SICP 10073} [re-up]


DOWNLOAD LINKS:


No Password
Direct Download

Tags: Herbie, Hancock, Hunters, Hybrid

Herbie Hancock - Head Hunters (1973) {2007 Japan SACD Hybrid, SICP 10073} [re-up] Download via Hotfile Rapidshare Fileserve Megaupload & FileSonic, Herbie Hancock - Head Hunters (1973) {2007 Japan SACD Hybrid, SICP 10073} [re-up] free torrent downloads included crack, serial, keygen.Herbie Hancock - Head Hunters (1973) {2007 Japan SACD Hybrid, SICP 10073} [re-up] Fast Download via Rapidshare Hotfile Fileserve Filesonic Megaupload, Herbie Hancock - Head Hunters (1973) {2007 Japan SACD Hybrid, SICP 10073} [re-up] Torrents and Emule Download or anything related.
Leave a Comment
Your Name:
E-Mail:
Add Comments:

Enter Code: