Jaga Jazzist - Starfire (2015) 2CD [Japanese Edition]

Download Now

Jaga Jazzist - Starfire (2015) 2CD [Japanese Edition]

Jaga Jazzist - Starfire (2015) 2CD
EAC | FLAC | Tracks (Cue&Log) ~ 548 Mb (incl 5%) | Mp3 (CBR320) ~ 215 Mb (incl 5%) | Scans included
Genre: Experimental, Nu Jazz, Post-Rock, Electronic | Label: Beat Records | # BRC-473 | Time: 01:18:45

"Jaga Jazzist, the Norwegian multi-instrumental boundary-busters, may occupy a niche, but it feels like an enduringly spacious and fertile one, where sounds that recall everything from Weather Report to big-band jazz, krautrock, Radiohead or even the Pat Metheny Group intertwine. Last year's 20th anniversary retrospective was fascinatingly diverse, but Starfire - conceived in composer Lars Horntveth's new Los Angeles home, rather than in Oslo - is a more densely layered and studio-dominated deployment of this band's awesome resources. The title track is classic Jazzist: a sound like the Shadows driven by a marching-band thump skids through power-chord guitar hooks and Zappaesque melodic zigzags; the atmospheric Big City Music is a masterly balance of quickfire rhythm-section ingenuity and the instrumental diversity of guitars, keys and brass. The tunes remain quirkily dramatic and the thematic scene-shifting spectacular, but a little thinning-out would have let Jaga Jazzist's uniquely mercurial music breathe more."

"When the biggest stars in our universe begin to burn up and collapse they release neon gas. When electricity is passed through neon gas it glows. When it's captured within glass we can use it to make coloured light. When that glass is shaped into the outline of a naked girl it can be hung outside a strip club. In this meeting of the celestial and the profane, the epic and the particular, lies Jaga's new album Starfire. In December 2012, Jaga's main songwriter, Lars Horntveth, left Norway and moved to Los Angeles. There, on the other side of the world, inspired by the space around him, the size of the sky above him, the endless light flashing past as he drove round the city at night, he began composing the new suite of works which would become Starfire. Periodically he was joined by other members of the 8-piece band who would lay down their contributions in his apartment/studio before returning home to Norway. When the basics of the album were in place, he went back to Oslo to finish the record in the professional studios that the band had built and furnished over the years. The result is a revelation - in itself no mean feat for a band with a twenty year history. After the more heavily scored work of One Armed Bandit and Live with the Britten Sinfonia, Starfire moves to a more experimental studio-led approach - "The idea was that we thought about the songs as both the original song and a remix in one" - morphing each song into a variety of sonic directions. With an increase in the use of electronics and the guitar work of Marcus Forsgren given new prominence, it's probably the least straightforwardly "jazz" of their records. Instead, all the elements which have made them such an important band-the way their technical chops combine with the kind of mutual sympathy which comes from growing up together-are here melded into an utterly unique sound on what could turn out to be the group's crowning achievement. Centering around the Horntveth siblings (Lars, Martin and Line) the eight piece band Jaga formed in 1994, when Lars was still only fourteen. In their two decades of existence they've released five studio albums, one live album, five EPs (CD and vinyl), one live DVD and now a box set. Five of those eight original members are still in the group and all this has contributed to the group's deep mutual understanding. Add in a guest like Leon Dewan, who plays his own Swarmatron on "Shinkansen" and Lars' increasing use of a Pocket Piano synth as a tool for composition and you get the basis of a more hard-edged, electronic sound, perfectly melded with live musicianship. Starfire is a beautiful, visceral, utterly exhilarating piece of work that keeps spiralling up and away, structurally complex, musically rigorous, but without ever losing touch with a certain earthy sensuality and human sympathy. It could just be Jaga's masterpiece."



Tracklist:

CD1:

01. Starfire (08:47)
02. Big City Music (14:07)
03. Shinkansen (07:42)
04. Oban (12:41)
05. Prungen (06:42)
06. Oban (Todd Terje Remix) (09:50)

CD2:

01. Bananfluer Overalt (Clark Remix) (03:36)
02. Kitty Wu (Machinedrum Remix) (06:00)
03. Toccata (Teebs Remix) (03:07)
04. Toccata (Illum Sphere Remix) (06:09)


Exact Audio Copy V1.1 from 23. June 2015

EAC extraction logfile from 11. August 2015, 9:07

Jaga Jazzist / Starfire

Used drive : PLEXTOR DVDR PX-891SAW Adapter: 1 ID: 0

Read mode : Secure
Utilize accurate stream : Yes
Defeat audio cache : Yes
Make use of C2 pointers : No

Read offset correction

: 48
Overread into Lead-In and Lead-Out : No
Fill up missing offset samples with silence : Yes
Delete leading and trailing silent blocks : No
Null samples used in CRC calculations : Yes
Used interface
: Native Win32 interface for Win NT & 2000
Gap handling
: Appended to previous track

Used output format : User Defined Encoder
Selected bitrate : 1024 kBit/s
Quality : High
Add ID3 tag : No
Command line compressor : C:\Program Files (x86)\Exact Audio Copy\Flac\flac.exe
Additional command line options : -8 -V -T "ARTIST=%artist%" -T "TITLE=%title%" -T "ALBUM=%albumtitle%" -T "DATE=%year%" -T "TRACKNUMBER=%tracknr%" -T "GENRE=%genre%" -T "PERFORMER=%albuminterpret%" -T "COMPOSER=%composer%" %haslyrics%--tag-from-file=LYRICS="%lyricsfile%"%haslyrics% -T "ALBUMARTIST=%albumartist%" -T "DISCNUMBER=%cdnumber%" -T "TOTALDISCS=%totalcds%" -T "TOTALTRACKS=%numtracks%" -T "COMMENT=%comment%" %source% -o %dest%

TOC of the extracted CD Track | Start | Length | Start sector | End sector
--1 | 0:00.00 | 8:47.16 | 0 | 39540 2 | 8:47.16 | 14:07.12 | 39541 | 103077 3 | 22:54.28 | 7:42.64 | 103078 | 137791 4 | 30:37.17 | 12:41.37 | 137792 | 194903 5 | 43:18.54 | 6:42.08 | 194904 | 225061 6 | 50:00.62 | 9:50.14 | 225062 | 269325

Track 1 Filename C:\Rips\01 - Starfire.wav Pre-gap length 0:00:02.00 Peak level 98.1 %
Extraction speed 4.2 X
Track quality 99.9 %
Test CRC B0416566
Copy CRC B0416566
Accurately ripped (confidence 1) [23A9F171] (AR v2)
Copy OK

Track 2 Filename C:\Rips\02 - Big City Music.wav Pre-gap length 0:00:01.58 Peak level 98.1 %
Extraction speed 6.6 X
Track quality 100.0 %
Test CRC 45F096DF
Copy CRC 45F096DF
Accurately ripped (confidence 1) [1FD90BD6] (AR v2)
Copy OK

Track 3 Filename C:\Rips\03 - Shinkansen.wav Peak level 98.1 %
Extraction speed 7.3 X
Track quality 100.0 %
Test CRC FBC4A6AF
Copy CRC FBC4A6AF
Accurately ripped (confidence 1) [4E4BD716] (AR v2)
Copy OK

Track 4 Filename C:\Rips\04 - Oban.wav Peak level 98.1 %
Extraction speed 8.3 X
Track quality 100.0 %
Test CRC A7DAF6AE
Copy CRC A7DAF6AE
Accurately ripped (confidence 1) [300EF9DC] (AR v2)
Copy OK

Track 5 Filename C:\Rips\05 - Prungen.wav Peak level 98.1 %
Extraction speed 8.7 X
Track quality 100.0 %
Test CRC 5649F5DC
Copy CRC 5649F5DC
Accurately ripped (confidence 1) [83B62D4B] (AR v2)
Copy OK

Track 6 Filename C:\Rips\06 - Oban (Todd Terje Remix).wav Pre-gap length 0:00:06.80 Peak level 99.9 %
Extraction speed 9.4 X
Track quality 100.0 %
Test CRC 043BADC2
Copy CRC 043BADC2
Accurately ripped (confidence 1) [A903ECF8] (AR v2)
Copy OK

All tracks accurately ripped

No errors occurred

End of status report

- CUETools DB Plugin V2.1.6

[CTDB TOCID: pUWLtn3kbfI6L_7IPqeT52DufSc-] found
Submit result: pUWLtn3kbfI6L_7IPqeT52DufSc- has been confirmed
Track | CTDB Status
1 | (1/1) Accurately ripped
2 | (1/1) Accurately ripped
3 | (1/1) Accurately ripped
4 | (1/1) Accurately ripped
5 | (1/1) Accurately ripped
6 | (1/1) Accurately ripped

==== Log checksum 5EA901D7D0EBA129E7721693EEBEF6DA5D98DA8974FCFE7E23B1AB7A46297DEE ====

foobar2000 1.2 / Dynamic Range Meter 1.1.1
log date: 2015-08-14 22:32:54

Analyzed: Jaga Jazzist / Starfire

DR Peak RMS Duration Track

DR6 -0.16 dB -8.31 dB 8:47 01-Starfire
DR6 -0.16 dB -9.13 dB 14:07 02-Big City Music
DR8 -0.16 dB -12.29 dB 7:43 03-Shinkansen
DR6 -0.16 dB -8.57 dB 12:41 04-Oban
DR5 -0.16 dB -8.50 dB 6:42 05-Prungen
DR6 0.00 dB -8.36 dB 9:50 06-Oban (Todd Terje Remix)

Number of tracks: 6
Official DR value: DR6

Samplerate: 44100 Hz
Channels: 2
Bits per sample: 16
Bitrate: 905 kbps
Codec: FLAC

Exact Audio Copy V1.1 from 23. June 2015

EAC extraction logfile from 11. August 2015, 9:46

Jaga Jazzist / Starfire Bonus CD

Used drive : PLEXTOR DVDR PX-891SAW Adapter: 1 ID: 0

Read mode : Secure
Utilize accurate stream : Yes
Defeat audio cache : Yes
Make use of C2 pointers : No

Read offset correction

: 48
Overread into Lead-In and Lead-Out : No
Fill up missing offset samples with silence : Yes
Delete leading and trailing silent blocks : No
Null samples used in CRC calculations : Yes
Used interface
: Native Win32 interface for Win NT & 2000
Gap handling
: Appended to previous track

Used output format : User Defined Encoder
Selected bitrate : 1024 kBit/s
Quality : High
Add ID3 tag : No
Command line compressor : C:\Program Files (x86)\Exact Audio Copy\Flac\flac.exe
Additional command line options : -8 -V -T "ARTIST=%artist%" -T "TITLE=%title%" -T "ALBUM=%albumtitle%" -T "DATE=%year%" -T "TRACKNUMBER=%tracknr%" -T "GENRE=%genre%" -T "PERFORMER=%albuminterpret%" -T "COMPOSER=%composer%" %haslyrics%--tag-from-file=LYRICS="%lyricsfile%"%haslyrics% -T "ALBUMARTIST=%albumartist%" -T "DISCNUMBER=%cdnumber%" -T "TOTALDISCS=%totalcds%" -T "TOTALTRACKS=%numtracks%" -T "COMMENT=%comment%" %source% -o %dest%

TOC of the extracted CD Track | Start | Length | Start sector | End sector
--1 | 0:00.00 | 3:36.68 | 0 | 16267 2 | 3:36.68 | 6:00.01 | 16268 | 43268 3 | 9:36.69 | 3:07.32 | 43269 | 57325 4 | 12:44.26 | 6:09.26 | 57326 | 85026

Track 1 Filename C:\Rips\01 - Bananfluer Overalt (Clark Remix).wav Pre-gap length 0:00:02.00 Peak level 97.6 %
Extraction speed 4.5 X
Track quality 100.0 %
Test CRC 9CA2161A
Copy CRC 9CA2161A
Accurately ripped (confidence 1) [A87D7749] (AR v2)
Copy OK

Track 2 Filename C:\Rips\02 - Kitty Wu (Machinedrum Remix).wav Peak level 97.6 %
Extraction speed 5.4 X
Track quality 100.0 %
Test CRC 4FD8B272
Copy CRC 4FD8B272
Accurately ripped (confidence 1) [9D969AC4] (AR v2)
Copy OK

Track 3 Filename C:\Rips\03 - Toccata (Teebs Remix).wav Peak level 97.6 %
Extraction speed 5.4 X
Track quality 100.0 %
Test CRC A66EFF2A
Copy CRC A66EFF2A
Accurately ripped (confidence 1) [5249ABCE] (AR v2)
Copy OK

Track 4 Filename C:\Rips\04 - Toccata (Illum Sphere Remix).wav Peak level 92.9 %
Extraction speed 6.4 X
Track quality 100.0 %
Test CRC FD1BA6A3
Copy CRC FD1BA6A3
Accurately ripped (confidence 1) [8CFB8ADD] (AR v2)
Copy OK

All tracks accurately ripped

No errors occurred

End of status report

- CUETools DB Plugin V2.1.6

[CTDB TOCID: qcFWc2JMTkHrMo36cdOD2iOyW7A-] found
Submit result: qcFWc2JMTkHrMo36cdOD2iOyW7A- has been confirmed
Track | CTDB Status
1 | (1/1) Accurately ripped
2 | (1/1) Accurately ripped
3 | (1/1) Accurately ripped
4 | (1/1) Accurately ripped

==== Log checksum F0DF39211F8E363634AD8DAD9CE4B6C6A571139A7F77AE211BF510CF819D67BE ====

foobar2000 1.2 / Dynamic Range Meter 1.1.1
log date: 2015-08-14 22:33:01

Analyzed: Jaga Jazzist / Starfire

DR Peak RMS Duration Track

DR4 -0.21 dB -6.15 dB 3:37 01-Bananfluer Overalt (Clark Remix)
DR5 -0.21 dB -8.38 dB 6:00 02-Kitty Wu (Machinedrum Remix)
DR7 -0.21 dB -10.11 dB 3:07 03-Toccata (Teebs Remix)
DR4 -0.64 dB -6.51 dB 6:09 04-Toccata (Illum Sphere Remix)

Number of tracks: 4
Official DR value: DR5

Samplerate: 44100 Hz
Channels: 2
Bits per sample: 16
Bitrate: 869 kbps
Codec: FLAC

Jaga Jazzist - Starfire (2015) 2CD [Japanese Edition]

Jaga Jazzist - Starfire (2015) 2CD [Japanese Edition]

All thanks to original releaser & dnoz for share
Password: designol

DOWNLOAD LINKS
Buy Premium From My Links To Get Resumable Support & Max Speed & To Support Me


Links are Interchangeable - No Password - Single Extraction
Direct Download

Tags: Jazzist, Starfire, Japanese

Jaga Jazzist - Starfire (2015) 2CD [Japanese Edition] Download via Hotfile Rapidshare Fileserve Megaupload & FileSonic, Jaga Jazzist - Starfire (2015) 2CD [Japanese Edition] free torrent downloads included crack, serial, keygen.Jaga Jazzist - Starfire (2015) 2CD [Japanese Edition] Fast Download via Rapidshare Hotfile Fileserve Filesonic Megaupload, Jaga Jazzist - Starfire (2015) 2CD [Japanese Edition] Torrents and Emule Download or anything related.
Leave a Comment
Your Name:
E-Mail:
Add Comments:

Enter Code: