Gäa - Auf Der Bahn Zum Uranus (1974) [Reissue 2015]

Download Now

Gäa - Auf Der Bahn Zum Uranus (1974) [Reissue 2015]

Gäa - Auf Der Bahn Zum Uranus (1974) [Reissue 2015]
EAC Rip | FLAC (tracks+.cue+log) - 258 MB | MP3 CBR 320 kbps (LAME 3.93) - 102 MB | Covers - 98 MB
Genre: Progressive/Krautrock | RAR 3% Rec. | Label: Garden of Delights (CD 175)

"The Saarland group Gäa played German-language progressive rock. Their band name derives from the ancient Greek gods, where Gaia (Latin notation: Gäa) is the goddess of the earth and fertility. The group's only LP, "Auf der Bahn zum Uranus", was a short run released on the Kerston label in 1974 and is today sold at about € 600. It is a mature and well-balanced album, the artistic value of which long remained undiscovered. The tasteful cover was designed by Eduard Bell, the brother of Gäa bassist Peter Bell. There were several re-issues of the album - LPs as well as CDs -, but unfortunately not all of them legitimate releases. The CD on Garden of Delights was released in co-operation with the artists and has the original cover artwork."

Tracklist:
01. Uranus
02. Bossa Rustical
03. Tanz Mit Dem Mond
04. Mutter Erde
05. Welt Im Dunkel
06. GÄA

Total time: 42:34

Exact Audio Copy V1.0 beta 3 from 29. August 2011

EAC extraction logfile from 15. July 2015, 13:31

Gaa / Auf Der Bahn Zum Uranus

Used drive : _NEC DVD_RW ND-3540A Adapter: 1 ID: 0

Read mode : Secure
Utilize accurate stream : Yes
Defeat audio cache : Yes
Make use of C2 pointers : No

Read offset correction

: 48
Overread into Lead-In and Lead-Out : No
Fill up missing offset samples with silence : Yes
Delete leading and trailing silent blocks : No
Null samples used in CRC calculations : Yes
Used interface
: Native Win32 interface for Win NT & 2000
Gap handling
: Appended to previous track

Used output format : User Defined Encoder
Selected bitrate : 1024 kBit/s
Quality : High
Add ID3 tag : Yes
Command line compressor : C:\Program Files (x86)\Exact Audio Copy\FLAC\FLAC.EXE
Additional command line options : -6 -V -T "ARTIST=%artist%" -T "TITLE=%title%" -T "ALBUM=%albumtitle%" -T "DATE=%year%" -T "TRACKNUMBER=%tracknr%" -T "GENRE=%genre%" -T "COMMENT=%comment%" %hascover%--picture="%coverfile%"%hascover% %source% -o %dest%

TOC of the extracted CD Track | Start | Length | Start sector | End sector
--1 | 0:00.00 | 9:38.09 | 0 | 43358 2 | 9:38.09 | 4:04.46 | 43359 | 61704 3 | 13:42.55 | 7:22.67 | 61705 | 94921 4 | 21:05.47 | 6:57.00 | 94922 | 126196 5 | 28:02.47 | 6:58.57 | 126197 | 157603 6 | 35:01.29 | 7:33.06 | 157604 | 191584

Track 1 Filename F:\Music\olaf_alien\Gaa - Auf der Bahn zum Uranus (1974, Kerston - 2015, GoD)\01 - Uranus.wav Pre-gap length 0:00:02.00 Peak level 100.0 %
Extraction speed 5.0 X
Track quality 100.0 %
Test CRC 3835690E
Copy CRC 3835690E
Cannot be verified as accurate (confidence 1) [0D34B54C], AccurateRip returned [805950AC] (AR v2)
Copy OK

Track 2 Filename F:\Music\olaf_alien\Gaa - Auf der Bahn zum Uranus (1974, Kerston - 2015, GoD)\02 - Bossa Rustical.wav Peak level 100.0 %
Extraction speed 5.4 X
Track quality 100.0 %
Test CRC 01EB435C
Copy CRC 01EB435C
Cannot be verified as accurate (confidence 1) [F9D589DD], AccurateRip returned [CE2264AC] (AR v2)
Copy OK

Track 3 Filename F:\Music\olaf_alien\Gaa - Auf der Bahn zum Uranus (1974, Kerston - 2015, GoD)\03 - Tanz Mit Dem Mond.wav Peak level 99.9 %
Extraction speed 5.7 X
Track quality 99.9 %
Test CRC A11A8DFE
Copy CRC A11A8DFE
Cannot be verified as accurate (confidence 1) [35F69B26], AccurateRip returned [56001D9B] (AR v2)
Copy OK

Track 4 Filename F:\Music\olaf_alien\Gaa - Auf der Bahn zum Uranus (1974, Kerston - 2015, GoD)\04 - Mutter Erde.wav Peak level 100.0 %
Extraction speed 6.2 X
Track quality 99.9 %
Test CRC C34CAA6E
Copy CRC C34CAA6E
Cannot be verified as accurate (confidence 1) [EC5BB410], AccurateRip returned [3F5FF7EA] (AR v2)
Copy OK

Track 5 Filename F:\Music\olaf_alien\Gaa - Auf der Bahn zum Uranus (1974, Kerston - 2015, GoD)\05 - Welt Im Dunkel.wav Peak level 100.0 %
Extraction speed 7.4 X
Track quality 100.0 %
Test CRC 3E8B90C5
Copy CRC 3E8B90C5
Cannot be verified as accurate (confidence 1) [7E9493BD], AccurateRip returned [61D195B3] (AR v2)
Copy OK

Track 6 Filename F:\Music\olaf_alien\Gaa - Auf der Bahn zum Uranus (1974, Kerston - 2015, GoD)\06 - GAA.wav Peak level 100.0 %
Extraction speed 8.0 X
Track quality 100.0 %
Test CRC 16052219
Copy CRC 16052219
Cannot be verified as accurate (confidence 1) [EEB40B5D], AccurateRip returned [508EEC5E] (AR v2)
Copy OK

No tracks could be verified as accurate
You may have a different pressing from the one(s) in the database

No errors occurred

End of status report

==== Log checksum CD71D11C75C466CD5D069EA848D585497A7657AB72C0E7CAD591875D56430BFA ====

[CUETools log; Date: 15.08.2015 14:53:10; Version: 2.1.4]
[CTDB TOCID: 1PAsoi1GlFe0_XoF1ubVuBMNuqU-] found.
Track | CTDB Status
1 | (3/3) Accurately ripped
2 | (3/3) Accurately ripped
3 | (3/3) Accurately ripped
4 | (3/3) Accurately ripped
5 | (3/3) Accurately ripped
6 | (3/3) Accurately ripped
[AccurateRip ID: 000a4e2c-0036764a-4609fa06] found.
Track [ CRC | V2 ] Status
01 [d4d98264|0d34b54c] (0+1/2) Accurately ripped
02 [8aba2a82|f9d589dd] (0+1/2) Accurately ripped
03 [d8e08c13|35f69b26] (0+1/2) Accurately ripped
04 [a10430d2|ec5bb410] (0+1/2) Accurately ripped
05 [5d2c7903|7e9493bd] (0+1/2) Accurately ripped
06 [eab1e5cd|eeb40b5d] (0+1/2) Accurately ripped

Track Peak [ CRC32 ] [W/O NULL] [ LOG ]
-- 100,0 [EC822465] [AE7380AE]
01 100,0 [3835690E] DAAFA75 CRC32
02 100,0 [01EB435C] [A73FDA21] CRC32
03 99,9 [A11A8DFE] [A6D7D8F3] CRC32
04 100,0 [C34CAA6E] [07AF06BE] CRC32
05 100,0 [3E8B90C5] [A869EE11] CRC32
06 100,0 [16052219] [AEA0F2D4] CRC32
Thanks to olaf_alien
DOWNLOAD LINKS
Buy Premium From My Links To Get Resumable Support & Max Speed & To Support Me


Links are Interchangeable - No Password - Single Extraction
Direct Download

Tags: Uranus, Reissue

Gäa - Auf Der Bahn Zum Uranus (1974) [Reissue 2015] Download via Hotfile Rapidshare Fileserve Megaupload & FileSonic, Gäa - Auf Der Bahn Zum Uranus (1974) [Reissue 2015] free torrent downloads included crack, serial, keygen.Gäa - Auf Der Bahn Zum Uranus (1974) [Reissue 2015] Fast Download via Rapidshare Hotfile Fileserve Filesonic Megaupload, Gäa - Auf Der Bahn Zum Uranus (1974) [Reissue 2015] Torrents and Emule Download or anything related.
Leave a Comment
Your Name:
E-Mail:
Add Comments:

Enter Code: