Janis Joplin - Box Of Pearls: The Janis Joplin Collection (1999/2013) [5CD Box Set, Remastered, Limited Edition]

Download Now

Janis Joplin - Box Of Pearls: The Janis Joplin Collection (1999/2013) [5CD Box Set, Remastered, Limited Edition]

Janis Joplin - Box Of Pearls: The Janis Joplin Collection (1999/2013)
5CD | EAC Rip | FLAC (Img) + Cue + Log ~ 1,35 Gb | MP3 CBR320 ~ 537 Mb
Scans (JPG, 600 dpi) ~ 723 Mb | RAR 5% Recovery
Blues Rock, Psychedelic Rock | Columbia/Legacy #88883708892

"A limited-edition five-CD box set comprising both albums that Janis Joplin made with Big Brother & the Holding Company (Cheap Thrills and Big Brother & the Holding Company), both of her solo albums (I Got Dem Ol' Kozmic Blues Again Mama! and Pearl), and a bonus EP with five previously unreleased recordings. Each of these four albums includes previously unreleased bonus tracks (including live material), and each is available separately with the same bonus cuts. The tracks on the bonus EP aren't available anywhere else, and if you're devoted enough to consider laying out for this deluxe box, you're probably most interested in what's on that fifth disc..."

Wiki | Discogs | All Music
***************

Janis Joplin - Box Of Pearls: The Janis Joplin Collection (1999/2013) [5CD Box Set, Remastered, Limited Edition]

Janis Joplin - Big Brother & The Holding Company (1967)
EAC Rip | FLAC (Img) + Cue + Log ~ 221 Mb | MP3 CBR320 ~ 82 Mb

Track List:

01. Bye, Bye Baby [0:02:39.27]
02. Easy Rider [0:02:25.60]
03. Intruder [0:02:30.00]
04. Light Is Faster Than Sound [0:02:33.00]
05. Call On Me [0:02:35.00]
06. Women Is Losers [0:02:05.38]
07. Blindman [0:02:25.52]
08. Down On Me [0:02:07.23]
09. Caterpillar [0:02:20.40]
10. All Is Loneliness [0:02:32.05]
11. Coo Coo [0:01:58.70]
12. The Last Time [Single] [0:02:17.02]
13. Call On Me [Alternate Take] [0:02:41.65]
14. Bye, Bye Baby [Alternate Take] [0:02:39.20]

Exact Audio Copy V1.0 beta 3 from 29. August 2011

EAC extraction logfile from 19. July 2015, 10:39

Janis Joplin / Big Brother & The Holding Company

Used drive : PLEXTOR DVDR PX-L890SA Adapter: 3 ID: 1

Read mode : Secure
Utilize accurate stream : Yes
Defeat audio cache : Yes
Make use of C2 pointers : No

Read offset correction

: 6
Overread into Lead-In and Lead-Out : No
Fill up missing offset samples with silence : Yes
Delete leading and trailing silent blocks : No
Null samples used in CRC calculations : Yes
Used interface
: Native Win32 interface for Win NT & 2000

Used output format : User Defined Encoder
Selected bitrate : 768 kBit/s
Quality : High
Add ID3 tag : No
Command line compressor : C:\Program Files (x86)\Exact Audio Copy\Flac\flac.exe
Additional command line options : -V -8 -T "Date=%year%" -T "Genre=%genre%" %source%

TOC of the extracted CD Track | Start | Length | Start sector | End sector
--1 | 0:00.00 | 2:39.27 | 0 | 11951 2 | 2:39.27 | 2:25.60 | 11952 | 22886 3 | 5:05.12 | 2:30.00 | 22887 | 34136 4 | 7:35.12 | 2:33.00 | 34137 | 45611 5 | 10:08.12 | 2:35.00 | 45612 | 57236 6 | 12:43.12 | 2:05.38 | 57237 | 66649 7 | 14:48.50 | 2:25.52 | 66650 | 77576 8 | 17:14.27 | 2:07.23 | 77577 | 87124 9 | 19:21.50 | 2:20.40 | 87125 | 97664
10 | 21:42.15 | 2:32.05 | 97665 | 109069
11 | 24:14.20 | 1:58.70 | 109070 | 117989
12 | 26:13.15 | 2:17.02 | 117990 | 128266
13 | 28:30.17 | 2:41.65 | 128267 | 140406
14 | 31:12.07 | 2:39.20 | 140407 | 152351

Range status and errors

Selected range Filename H:\MUSIC\2013. Janis Joplin - Box Of Pearls. The Janis Joplin Collection (Columbia-Legacy 88883708892, EU)\1967. Big Brother & The Holding Company\Janis Joplin - Big Brother & The Holding Company.wav Peak level 100.0 %
Extraction speed 7.8 X
Range quality 100.0 %
Test CRC 3DF08054
Copy CRC 3DF08054
Copy OK

No errors occurred


AccurateRip summary

Track 1 accurately ripped (confidence 15) [A5BCAC16] (AR v2)
Track 2 accurately ripped (confidence 15) [762005E8] (AR v2)
Track 3 accurately ripped (confidence 15) [181423D9] (AR v2)
Track 4 accurately ripped (confidence 15) [7DEC19B0] (AR v2)
Track 5 accurately ripped (confidence 15) [4794476C] (AR v2)
Track 6 accurately ripped (confidence 15) [8FB3148C] (AR v2)
Track 7 accurately ripped (confidence 15) [EBC3BEA7] (AR v2)
Track 8 accurately ripped (confidence 15) [FA1C9392] (AR v2)
Track 9 accurately ripped (confidence 15) [16277F60] (AR v2)
Track 10 accurately ripped (confidence 15) [F0A6E23D] (AR v2)
Track 11 accurately ripped (confidence 15) [0DDE4301] (AR v2)
Track 12 accurately ripped (confidence 15) [2D85F5D4] (AR v2)
Track 13 accurately ripped (confidence 15) [2041FEB7] (AR v2)
Track 14 accurately ripped (confidence 15) [1256F3E1] (AR v2)

All tracks accurately ripped

End of status report

==== Log checksum 53687178255A0E16F44B7B155BBA96E8DD5BFF9A1438A73811EB55EA38660713 ====

foobar2000 1.2.6 / Dynamic Range Meter 1.1.1
log date: 2015-08-18 13:21:53

Analyzed: Janis Joplin / Big Brother & The Holding Company

DR Peak RMS Duration Track

DR12 0.00 dB -15.24 dB 2:39 01-Bye, Bye Baby
DR11 0.00 dB -13.83 dB 2:26 02-Easy Rider
DR11 0.00 dB -12.92 dB 2:30 03-Intruder
DR11 0.00 dB -13.54 dB 2:33 04-Light Is Faster Than Sound
DR11 0.00 dB -13.24 dB 2:35 05-Call On Me
DR10 0.00 dB -11.63 dB 2:06 06-Women Is Losers
DR11 0.00 dB -11.98 dB 2:26 07-Blindman
DR12 0.00 dB -13.96 dB 2:07 08-Down On Me
DR11 0.00 dB -12.75 dB 2:21 09-Caterpillar
DR11 -0.01 dB -14.16 dB 2:32 10-All Is Loneliness
DR11 0.00 dB -12.45 dB 1:59 11-Coo Coo
DR12 0.00 dB -14.21 dB 2:17 12-The Last Time [Single]
DR13 0.00 dB -14.69 dB 2:42 13-Call On Me [Alternate Take]
DR12 -0.56 dB -15.47 dB 2:39 14-Bye, Bye Baby [Alternate Take]

Number of tracks: 14
Official DR value: DR11

Samplerate: 44100 Hz
Channels: 2
Bits per sample: 16
Bitrate: 867 kbps
Codec: FLAC

[CUETools log; Date: 18.08.2015 13:21:45; Version: 2.1.5]
[CTDB TOCID: qP3buZEE0buNtcAMbyQYIZ.TziE-] found.
Track | CTDB Status
1 | (115/116) Accurately ripped
2 | (114/116) Accurately ripped
3 | (114/116) Accurately ripped
4 | (115/116) Accurately ripped
5 | (115/116) Accurately ripped
6 | (115/116) Accurately ripped
7 | (113/116) Accurately ripped
8 | (115/116) Accurately ripped
9 | (114/116) Accurately ripped
10 | (115/116) Accurately ripped
11 | (114/116) Accurately ripped
12 | (115/116) Accurately ripped
13 | (114/116) Accurately ripped
14 | (112/116) Accurately ripped
[AccurateRip ID: 00118800-00b9e46c-ac07ef0e] found.
Track [ CRC | V2 ] Status
01 [2b62afbf|a5bcac16] (000+016/253) Accurately ripped
02 [926b79d9|762005e8] (000+016/253) Accurately ripped
03 [f6d5123c|181423d9] (000+016/253) Accurately ripped
04 [9f84c239|7dec19b0] (000+016/253) Accurately ripped
05 [0080b7b8|4794476c] (000+016/253) Accurately ripped
06 [fe48bbc9|8fb3148c] (000+016/253) Accurately ripped
07 [ccbe1b4a|ebc3bea7] (000+016/252) Accurately ripped
08 [9aa46223|fa1c9392] (000+016/253) Accurately ripped
09 [cf81f3b3|16277f60] (000+016/252) Accurately ripped
10 [493a2e79|f0a6e23d] (000+016/252) Accurately ripped
11 [a2c1b24d|0dde4301] (000+016/253) Accurately ripped
12 [edbfbf87|2d85f5d4] (000+016/252) Accurately ripped
13 [9af0d0bc|2041feb7] (000+016/251) Accurately ripped
14 [3c74f332|1256f3e1] (000+016/244) Accurately ripped
Offsetted by 647:
01 [c2709224] (005/253) Accurately ripped
02 [a53c796e] (005/253) Accurately ripped
03 [f5373e90] (005/253) Accurately ripped
04 [e3e35d27] (005/253) Accurately ripped
05 [d3da85de] (005/253) Accurately ripped
06 [ab145c14] (005/253) Accurately ripped
07 [e516011b] (005/252) Accurately ripped
08 [40a1b30b] (005/253) Accurately ripped
09 [ddd20126] (005/252) Accurately ripped
10 [7ead79e1] (005/252) Accurately ripped
11 [39a9c252] (005/253) Accurately ripped
12 [997431bd] (005/252) Accurately ripped
13 [04a08438] (005/251) Accurately ripped
14 [9889dfe8] (005/244) Accurately ripped
Offsetted by 676:
01 [8be1906b] (006/253) Accurately ripped
02 [807da1c5] (007/253) Accurately ripped
03 [7da679ec] (007/253) Accurately ripped
04 [4fce4801] (007/253) Accurately ripped
05 [e14896a0] (007/253) Accurately ripped
06 [f2ec6c5d] (007/253) Accurately ripped
07 [1df78546] (007/252) Accurately ripped
08 [3ef8a083] (007/253) Accurately ripped
09 [830fc1a7] (007/252) Accurately ripped
10 [65c5a2d9] (007/252) Accurately ripped
11 [297a6479] (007/253) Accurately ripped
12 [7fe9e22f] (007/252) Accurately ripped
13 [ea806dcc] (007/251) Accurately ripped
14 [ccbceb81] (006/244) Accurately ripped
Offsetted by 1105:
01 [7f45c662] (002/253) Accurately ripped
02 [dc7f4ecc] (002/253) Accurately ripped
03 [4e48e808] (002/253) Accurately ripped
04 [4e7317fb] (002/253) Accurately ripped
05 [8d78a902] (002/253) Accurately ripped
06 [d31939f6] (002/253) Accurately ripped
07 [a5349261] (002/252) Accurately ripped
08 [49b7ef7b] (002/253) Accurately ripped
09 [f5025cf8] (002/252) Accurately ripped
10 [5f458551] (002/252) Accurately ripped
11 [3a0d2450] (002/253) Accurately ripped
12 [17bfb341] (002/252) Accurately ripped
13 [9cfe07a0] (002/251) Accurately ripped
14 [c4145a8b] (002/244) Accurately ripped
Offsetted by 1173:
01 [d3343dee] (002/253) Accurately ripped
02 [63066f98] (002/253) Accurately ripped
03 [00f57338] (002/253) Accurately ripped
04 [5d272d03] (002/253) Accurately ripped
05 [d919a42a] (002/253) Accurately ripped
06 [469845aa] (002/253) Accurately ripped
07 [18ed17bd] (002/252) Accurately ripped
08 [604eccdb] (002/253) Accurately ripped
09 [a49bfd0c] (002/252) Accurately ripped
10 [745208b1] (002/252) Accurately ripped
11 [1419a95c] (002/253) Accurately ripped
12 [691a4829] (002/252) Accurately ripped
13 [0774ff30] (002/251) Accurately ripped
14 [f8a10a61] (002/244) Accurately ripped
Offsetted by 1189:
01 [6e7b691e] (005/253) Accurately ripped
02 [afdaefc8] (005/253) Accurately ripped
03 [d0a593f8] (005/253) Accurately ripped
04 [e8245f23] (005/253) Accurately ripped
05 [272166ca] (005/253) Accurately ripped
06 [7fe3577a] (005/253) Accurately ripped
07 [e8dc462d] (005/252) Accurately ripped
08 [56906a5b] (005/253) Accurately ripped
09 [4665c85c] (005/252) Accurately ripped
10 [4c18be31] (005/252) Accurately ripped
11 [0b2baa8c] (005/253) Accurately ripped
12 [d69901c9] (005/252) Accurately ripped
13 [6bcd3970] (005/251) Accurately ripped
14 [22f914d1] (005/244) Accurately ripped
Offsetted by 1191:
01 [61e44e84] (105/253) Accurately ripped
02 [d9757fce] (104/253) Accurately ripped
03 [8a9b9810] (104/253) Accurately ripped
04 [59840567] (104/253) Accurately ripped
05 [30e25f1e] (104/253) Accurately ripped
06 [470cb9b4] (104/253) Accurately ripped
07 [82da2bfb] (103/252) Accurately ripped
08 [f5589e0b] (105/253) Accurately ripped
09 [5a9f01c6] (104/252) Accurately ripped
10 [271194e1] (104/252) Accurately ripped
11 [0a0deab2] (104/253) Accurately ripped
12 [2448d8fd] (103/252) Accurately ripped
13 [585840b8] (103/251) Accurately ripped
14 [8844161f] (100/244) Accurately ripped
Offsetted by 1323:
01 [22ef72d0] (015/253) Accurately ripped
02 [934ea15a] (015/253) Accurately ripped
03 [7c08a640] (015/253) Accurately ripped
04 [942ce2ef] (015/253) Accurately ripped
05 4a264c6 (015/253) Accurately ripped
06 [9fb80ca8] (015/253) Accurately ripped
07 [364f6b17] (015/252) Accurately ripped
08 [e4f5f16b] (015/253) Accurately ripped
09 [915fcf1a] (015/252) Accurately ripped
10 [9b38ee41] (015/252) Accurately ripped
11 [c062747e] (015/253) Accurately ripped
12 [2b9e5465] (015/252) Accurately ripped
13 [54302148] (015/251) Accurately ripped
14 [a59a6c3b] (014/244) Accurately ripped
Offsetted by 1698:
01 [6a437705] (005/253) Accurately ripped
02 [8c031dbf] (005/253) Accurately ripped
03 [afb8a5d4] (005/253) Accurately ripped
04 [9dbb29bd] (005/253) Accurately ripped
05 [5978464c] (005/253) Accurately ripped
06 [7e877e23] (005/253) Accurately ripped
07 [7fc53b78] (005/252) Accurately ripped
08 [3097ccd3] (005/253) Accurately ripped
09 [e1495c3d] (005/252) Accurately ripped
10 [7c7a2c29] (005/252) Accurately ripped
11 [ef187053] (005/253) Accurately ripped
12 [91e872fb] (005/252) Accurately ripped
13 [1403f684] (005/251) Accurately ripped
14 [d609e0dc] (004/244) Accurately ripped

Track Peak [ CRC32 ] [W/O NULL] [ LOG ]
-- 99,9 [3DF08054] [503E92BC] CRC32
01 99,9 [DA4C4D57] [91DA5B1B]
02 99,9 [AD7C7B9E] [182E5C88]
03 99,9 [EB694C8C] [7E57EA9F]
04 99,9 [D0DC76FB] [4D8865DF]
05 99,9 [3B8BCE31] [C991C4D1]
06 99,9 [EC76A694] [19185215]
07 99,9 [EDEE98A2] [F52A1D78]
08 99,9 [731D7F2E] [69BDE2CA]
09 99,9 [64D029F5] [636F4BEB]
10 99,8 [737E7276] 88E234B
11 99,9 [2DDA6B76] [E8EC76FA]
12 99,9 [2D5AD8B6] [8141C2AB]
13 99,9 [9AEDA208] [0698560C]
14 93,7 47535D1 [CECED612]

***************

Janis Joplin - Box Of Pearls: The Janis Joplin Collection (1999/2013) [5CD Box Set, Remastered, Limited Edition]

Janis Joplin - Janis Joplin - Cheap Thrills (1968)
EAC Rip | FLAC (Img) + Cue + Log ~ 341 Mb | MP3 CBR320 ~ 134 Mb

Track List:

01. Combination Of The Two [0:05:47.47]
02. I Need A Man To Love [0:04:54.35]
03. Summertime [0:04:00.60]
04. Piece Of My Heart [0:04:15.45]
05. Turtle Blues [0:04:22.70]
06. Oh, Sweet Mary [0:04:16.28]
07. Ball And Chain [0:09:37.72]
08. Roadblock [0:05:33.03]
09. Flower In The Sun [Previously Unissued] [0:03:05.30]
10. Catch Me Daddy [Live] [0:05:31.52]
11. Magic Of Love [Live] [0:03:58.20]

Exact Audio Copy V1.0 beta 3 from 29. August 2011

EAC extraction logfile from 19. July 2015, 11:26

Janis Joplin / Big Brother & The Holding Company

Used drive : PLEXTOR DVDR PX-L890SA Adapter: 3 ID: 1

Read mode : Secure
Utilize accurate stream : Yes
Defeat audio cache : Yes
Make use of C2 pointers : No

Read offset correction

: 6
Overread into Lead-In and Lead-Out : No
Fill up missing offset samples with silence : Yes
Delete leading and trailing silent blocks : No
Null samples used in CRC calculations : Yes
Used interface
: Native Win32 interface for Win NT & 2000

Used output format : User Defined Encoder
Selected bitrate : 768 kBit/s
Quality : High
Add ID3 tag : No
Command line compressor : C:\Program Files (x86)\Exact Audio Copy\Flac\flac.exe
Additional command line options : -V -8 -T "Date=%year%" -T "Genre=%genre%" %source%

TOC of the extracted CD Track | Start | Length | Start sector | End sector
--1 | 0:00.00 | 5:47.47 | 0 | 26071 2 | 5:47.47 | 4:54.35 | 26072 | 48156 3 | 10:42.07 | 4:00.60 | 48157 | 66216 4 | 14:42.67 | 4:15.45 | 66217 | 85386 5 | 18:58.37 | 4:22.70 | 85387 | 105106 6 | 23:21.32 | 4:16.28 | 105107 | 124334 7 | 27:37.60 | 9:37.72 | 124335 | 167681 8 | 37:15.57 | 5:33.03 | 167682 | 192659 9 | 42:48.60 | 3:05.30 | 192660 | 206564
10 | 45:54.15 | 5:31.52 | 206565 | 231441
11 | 51:25.67 | 3:58.20 | 231442 | 249311

Range status and errors

Selected range Filename H:\MUSIC\2013. Janis Joplin - Box Of Pearls. The Janis Joplin Collection (Columbia-Legacy 88883708892, EU)\1968. Cheap Thrills\Janis Joplin - Cheap Thrills.wav Peak level 100.0 %
Extraction speed 8.8 X
Range quality 100.0 %
Test CRC 3907A699
Copy CRC 3907A699
Copy OK

No errors occurred


AccurateRip summary

Track 1 accurately ripped (confidence 15) B403802 (AR v2)
Track 2 accurately ripped (confidence 15) [C4A31750] (AR v2)
Track 3 accurately ripped (confidence 15) [49020A97] (AR v2)
Track 4 accurately ripped (confidence 15) [36382770] (AR v2)
Track 5 accurately ripped (confidence 15) [8E855F6F] (AR v2)
Track 6 accurately ripped (confidence 15) [7951CCD9] (AR v2)
Track 7 accurately ripped (confidence 15) AC0C1EF (AR v2)
Track 8 accurately ripped (confidence 15) [7EC70547] (AR v2)
Track 9 accurately ripped (confidence 15) [2F3D10DC] (AR v2)
Track 10 accurately ripped (confidence 15) [DCFA8629] (AR v2)
Track 11 accurately ripped (confidence 14) [C1E66C62] (AR v2)

All tracks accurately ripped

End of status report

==== Log checksum CD2A2ACD39CDAF1C0D9F7505E2D06BDE0C652B66EC39FA98E1ADD95DE20A5378 ====

foobar2000 1.2.6 / Dynamic Range Meter 1.1.1
log date: 2015-08-18 13:23:20

Analyzed: Janis Joplin / Big Brother & The Holding Company

DR Peak RMS Duration Track

DR11 0.00 dB -13.38 dB 5:48 01-Combination Of The Two
DR11 -0.64 dB -13.62 dB 4:54 02-I Need A Man To Love
DR10 -1.85 dB -16.50 dB 4:01 03-Summertime
DR11 0.00 dB -12.90 dB 4:16 04-Piece Of My Heart
DR12 -0.36 dB -15.38 dB 4:23 05-Turtle Blues
DR10 -2.91 dB -14.30 dB 4:16 06-Oh, Sweet Mary
DR11 -0.12 dB -15.79 dB 9:38 07-Ball And Chain
DR12 -0.47 dB -15.21 dB 5:33 08-Roadblock
DR12 0.00 dB -14.19 dB 3:05 09-Flower In The Sun [Previously Unissued]
DR12 0.00 dB -13.97 dB 5:32 10-Catch Me Daddy [Live]
DR12 0.00 dB -14.72 dB 3:58 11-Magic Of Love [Live]

Number of tracks: 11
Official DR value: DR11

Samplerate: 44100 Hz
Channels: 2
Bits per sample: 16
Bitrate: 818 kbps
Codec: FLAC

[CUETools log; Date: 18.08.2015 13:23:25; Version: 2.1.5]
[CTDB TOCID: 6SzklzMHLNtxu57_l0spSYpFzI4-] found.
Track | CTDB Status
1 | (114/115) Accurately ripped
2 | (115/115) Accurately ripped
3 | (115/115) Accurately ripped
4 | (115/115) Accurately ripped
5 | (114/115) Accurately ripped
6 | (115/115) Accurately ripped
7 | (115/115) Accurately ripped
8 | (115/115) Accurately ripped
9 | (115/115) Accurately ripped
10 | (113/115) Accurately ripped
11 | (111/115) Accurately ripped
[AccurateRip ID: 0016eed8-00c7671a-990cfc0b] found.
Track [ CRC | V2 ] Status
01 [27ac2fb9|bb403802] (000+016/210) Accurately ripped
02 [062b47b3|c4a31750] (000+016/211) Accurately ripped
03 [7342f270|49020a97] (000+016/214) Accurately ripped
04 [45aa3f8c|36382770] (000+016/210) Accurately ripped
05 [8ed290fd|8e855f6f] (000+016/212) Accurately ripped
06 [55c2ce0a|7951ccd9] (000+016/212) Accurately ripped
07 [1c473d2e|bac0c1ef] (000+016/213) Accurately ripped
08 [3ffe2aca|7ec70547] (000+016/208) Accurately ripped
09 [7723cd57|2f3d10dc] (000+016/205) Accurately ripped
10 [4d94069e|dcfa8629] (000+016/207) Accurately ripped
11 [e14be98f|c1e66c62] (000+015/201) Accurately ripped
Offsetted by 676:
01 [0c355f93] (074/210) Accurately ripped
02 [3bf1be85] (074/211) Accurately ripped
03 [778f7530] (077/214) Accurately ripped
04 [68820ee0] (073/210) Accurately ripped
05 [7eab6679] (075/212) Accurately ripped
06 [f8734ed6] (075/212) Accurately ripped
07 [a3d8453e] (076/213) Accurately ripped
08 [168297d6] (073/208) Accurately ripped
09 [dfb2fc5f] (072/205) Accurately ripped
10 [34f4b2b6] (073/207) Accurately ripped
11 [dcbfd4e9] (068/201) Accurately ripped

Track Peak [ CRC32 ] [W/O NULL] [ LOG ]
-- 99,9 [3907A699] [5A8D22A5] CRC32
01 99,9 [AD164E94] [4EC4330F]
02 92,8 [035F4B9D] [A90961ED]
03 80,8 [84D5A3F6] [077B1352]
04 99,9 [0E6E93C3] [81342E50]
05 95,9 [F999FB7B] [98956E0A]
06 71,5 [FC17AA49] [99F0713E]
07 98,6 [CBD2009A] [F392A1FD]
08 94,7 [0C438BEF] [4C0C94FC]
09 99,9 [D94E9275] [5A7AAC0B]
10 99,9 [8EDEF6E9] [9AE54D61]
11 99,9 [E54BB35D] [8631B6C3]

***************

Janis Joplin - Box Of Pearls: The Janis Joplin Collection (1999/2013) [5CD Box Set, Remastered, Limited Edition]

Janis Joplin - I Got Dem Ol' Kozmic Blues Again Mama (1969)
EAC Rip | FLAC (Img) + Cue + Log ~ 322 Mb | MP3 CBR320 ~ 125 Mb

Track List:

01. Try [Just A Little Bit Harder] [0:03:57.50]
02. Maybe [0:03:41.40]
03. One Good Man [0:04:12.00]
04. As Good As You've Been To This World [0:05:27.35]
05. To Love Somebody [0:05:14.37]
06. Kozmic Blues [0:04:24.25]
07. Little Girl Blue [0:03:51.13]
08. Work Me, Lord [0:06:46.00]
09. Dear Landlord [Session Outtake] [0:02:32.67]
10. Summertime [Live At Woodstock] [0:05:04.13]
11. Piece Of My Heart [Live At Woodstock] [0:06:31.35]

Exact Audio Copy V1.0 beta 3 from 29. August 2011

EAC extraction logfile from 19. July 2015, 15:26

Janis Joplin / I Got Dem Ol' Kozmic Blues Again Mama!

Used drive : HL-DT-STCDRW/DVD GCCT10N Adapter: 0 ID: 0

Read mode : Secure
Utilize accurate stream : Yes
Defeat audio cache : Yes
Make use of C2 pointers : No

Read offset correction

: 102
Overread into Lead-In and Lead-Out : No
Fill up missing offset samples with silence : Yes
Delete leading and trailing silent blocks : No
Null samples used in CRC calculations : Yes
Used interface
: Native Win32 interface for Win NT & 2000

Used output format : User Defined Encoder
Selected bitrate : 896 kBit/s
Quality : High
Add ID3 tag : No
Command line compressor : C:\Program Files\Exact Audio Copy\FLAC\FLAC.EXE
Additional command line options : -8 -V -T "DATE=%year%" -T "GENRE=%genre%" %source%

TOC of the extracted CD Track | Start | Length | Start sector | End sector
--1 | 0:00.00 | 3:57.50 | 0 | 17824 2 | 3:57.50 | 3:41.40 | 17825 | 34439 3 | 7:39.15 | 4:12.00 | 34440 | 53339 4 | 11:51.15 | 5:27.35 | 53340 | 77899 5 | 17:18.50 | 5:14.37 | 77900 | 101486 6 | 22:33.12 | 4:24.25 | 101487 | 121311 7 | 26:57.37 | 3:51.13 | 121312 | 138649 8 | 30:48.50 | 6:46.00 | 138650 | 169099 9 | 37:34.50 | 2:32.67 | 169100 | 180566
10 | 40:07.42 | 5:04.13 | 180567 | 203379
11 | 45:11.55 | 6:31.35 | 203380 | 232739

Range status and errors

Selected range Filename D:\1969. I Got Dem Ol' Kozmic Blues Again Mama\Janis Joplin - I Got Dem Ol' Kozmic Blues Again Mama!.wav Peak level 100.0 %
Extraction speed 3.2 X
Range quality 99.9 %
Test CRC 8A43A8F3
Copy CRC 8A43A8F3
Copy OK

No errors occurred


AccurateRip summary

Track 1 accurately ripped (confidence 14) [E248BC2D] (AR v2)
Track 2 accurately ripped (confidence 14) EEFF04A (AR v2)
Track 3 accurately ripped (confidence 14) [7CE3BACE] (AR v2)
Track 4 accurately ripped (confidence 14) [C4C3A768] (AR v2)
Track 5 accurately ripped (confidence 14) [27D01AC6] (AR v2)
Track 6 accurately ripped (confidence 14) 3E1246C (AR v2)
Track 7 accurately ripped (confidence 14) [0F2116E8] (AR v2)
Track 8 accurately ripped (confidence 14) [227D7677] (AR v2)
Track 9 accurately ripped (confidence 14) [9A3A9A79] (AR v2)
Track 10 accurately ripped (confidence 14) [A0F87D17] (AR v2)
Track 11 accurately ripped (confidence 14) [AC988BEB] (AR v2)

All tracks accurately ripped

End of status report

==== Log checksum D7436D11FA0DC5D7CDE5EF90AF3083FACAB0B99AFB407A081E460C2055126235 ====

foobar2000 1.2.6 / Dynamic Range Meter 1.1.1
log date: 2015-08-18 13:24:15

Analyzed: Janis Joplin / I Got Dem Ol' Kozmic Blues Again Mama!

DR Peak RMS Duration Track

DR11 -0.28 dB -13.74 dB 3:58 01-Try [Just A Little Bit Harder]
DR12 -0.01 dB -15.38 dB 3:42 02-Maybe
DR12 0.00 dB -13.81 dB 4:12 03-One Good Man
DR12 -0.17 dB -13.83 dB 5:27 04-As Good As You've Been To This World
DR11 -0.01 dB -14.31 dB 5:14 05-To Love Somebody
DR9 0.00 dB -12.23 dB 4:24 06-Kozmic Blues
DR12 0.00 dB -14.62 dB 3:51 07-Little Girl Blue
DR11 0.00 dB -14.34 dB 6:46 08-Work Me, Lord
DR12 0.00 dB -13.73 dB 2:33 09-Dear Landlord [Session Outtake]
DR10 -0.87 dB -15.78 dB 5:04 10-Summertime [Live At Woodstock]
DR11 0.00 dB -14.40 dB 6:31 11-Piece Of My Heart [Live At Woodstock]

Number of tracks: 11
Official DR value: DR11

Samplerate: 44100 Hz
Channels: 2
Bits per sample: 16
Bitrate: 826 kbps
Codec: FLAC

[CUETools log; Date: 18.08.2015 13:24:25; Version: 2.1.5]
[CTDB TOCID: laZdA2bV5cPiMQ_fECsTu8iNj5U-] found.
Track | CTDB Status
1 | (68/69) Accurately ripped
2 | (68/69) Accurately ripped
3 | (68/69) Accurately ripped
4 | (68/69) Accurately ripped
5 | (68/69) Accurately ripped
6 | (68/69) Accurately ripped
7 | (68/69) Accurately ripped
8 | (68/69) Accurately ripped
9 | (68/69) Accurately ripped
10 | (67/69) Accurately ripped
11 | (66/69) Accurately ripped
[AccurateRip ID: 00144e35-00b2054f-830c1f0b] found.
Track [ CRC | V2 ] Status
01 [27cdbaa9|e248bc2d] (000+016/110) Accurately ripped
02 [a084239f|beeff04a] (000+016/111) Accurately ripped
03 [7d07ca2f|7ce3bace] (000+016/110) Accurately ripped
04 7ff9a35|c4c3a768 (000+016/109) Accurately ripped
05 [5137cba7|27d01ac6] (000+016/109) Accurately ripped
06 [55b62f8d|b3e1246c] (000+016/110) Accurately ripped
07 6e746ff|0f2116e8 (000+016/110) Accurately ripped
08 [a59267d3|227d7677] (000+016/110) Accurately ripped
09 [773b79ff|9a3a9a79] (000+016/109) Accurately ripped
10 [f9a30288|a0f87d17] (000+016/108) Accurately ripped
11 [6e0147d9|ac988beb] (000+015/105) Accurately ripped
Offsetted by 618:
01 [5af239e9] (020/110) Accurately ripped
02 [ca595127] (021/111) Accurately ripped
03 [7c55beff] (020/110) Accurately ripped
04 [ed7cd269] (021/109) Accurately ripped
05 [3aed660d] (021/109) Accurately ripped
06 [7a0d7497] (020/110) Accurately ripped
07 [09d7f1dd] (021/110) Accurately ripped
08 [530cddd3] (021/110) Accurately ripped
09 [3fc2f2f1] (020/109) Accurately ripped
10 [e96ed3a3] (021/108) Accurately ripped
11 [e193ebbe] (020/105) Accurately ripped
Offsetted by 623:
01 [42176389] (002/110) Accurately ripped
02 [0c8d2a2b] (002/111) Accurately ripped
03 [65f5dbe7] (002/110) Accurately ripped
04 8e5cf23 (002/109) Accurately ripped
05 [c72c96f0] (002/109) Accurately ripped
06 [32aee2ec] (002/110) Accurately ripped
07 [c26fd8bc] (002/110) Accurately ripped
08 [1e9a48d3] (002/110) Accurately ripped
09 [355ef87a] (002/109) Accurately ripped
10 592dac4 (002/108) Accurately ripped
11 [4090f4ab] (002/105) Accurately ripped
Offsetted by 647:
01 [64635e89] (009/110) Accurately ripped
02 [e3ec6f0b] (009/111) Accurately ripped
03 [60f666a7] (009/110) Accurately ripped
04 [894425d3] (009/109) Accurately ripped
05 [01f58198] (009/109) Accurately ripped
06 [a8e8f484] (009/110) Accurately ripped
07 [d215c684] (009/110) Accurately ripped
08 [22dab0d3] (009/110) Accurately ripped
09 [69e57972] (009/109) Accurately ripped
10 [f2981cf9] (009/108) Accurately ripped
11 [e0807d82] (009/105) Accurately ripped
Offsetted by 676:
01 [6dd48329] (009/110) Accurately ripped
02 [fd7f8cef] (009/111) Accurately ripped
03 [45970e4f] (009/110) Accurately ripped
04 [250b793d] (009/109) Accurately ripped
05 [c8fd9d23] (008/109) Accurately ripped
06 [d7c47471] (009/110) Accurately ripped
07 [9a539b2b] (008/110) Accurately ripped
08 [f2a883d3] (008/110) Accurately ripped
09 [9407fff3] (009/109) Accurately ripped
10 [ac482687] (008/108) Accurately ripped
11 [9a977746] (009/105) Accurately ripped

Track Peak [ CRC32 ] [W/O NULL] [ LOG ]
-- 99,9 [8A43A8F3] [F623B3ED] CRC32
01 96,8 [4D5686AF] [F42815BE]
02 99,8 [EC56DCFF] [2EC41FFF]
03 99,9 [9B3C05F2] [DAE87C1F]
04 98,0 [5A6A0B12] [C6A44B2D]
05 99,8 [2DCE7709] [C2072956]
06 99,9 [5B4B94C4] [A3FFF3A7]
07 99,9 [720240B2] [6EC59E13]
08 99,9 [753F9104] [90528CFC]
09 99,9 [07229C1F] [E2EE07E4]
10 90,5 [EBB16F36] [4963B816]
11 99,9 [3A3C42AF] [FA74247C]

***************

Janis Joplin - Box Of Pearls: The Janis Joplin Collection (1999/2013) [5CD Box Set, Remastered, Limited Edition]

Janis Joplin - Pearl (1971)
EAC Rip | FLAC (Img) + Cue + Log ~ 365 Mb | MP3 CBR320 ~ 141 Mb

Track List:

01. Move Over [0:03:43.52]
02. Cry Baby [0:03:58.48]
03. A Woman Left Lonely [0:03:29.50]
04. Half Moon [0:03:53.60]
05. Buried Alive In The Blues [0:02:27.25]
06. My Baby [0:03:45.45]
07. Me And Bobby McGee [0:04:31.17]
08. Mercedes Benz [0:01:47.65]
09. Trust Me [0:03:17.60]
10. Get It While You Can [0:03:33.18]
11. Tell Mama [Live] [0:06:32.27]
12. Little Girl Blue [Live] [0:03:56.18]
13. Try (Just A Little Bit Harder) [Live] [0:06:52.17]
14. Cry Baby [Live] [0:06:30.00]

Exact Audio Copy V1.0 beta 3 from 29. August 2011

EAC extraction logfile from 28. July 2015, 21:16

Janis Joplin / Big Brother & The Holding Company

Used drive : PLEXTOR DVDR PX-L890SA Adapter: 3 ID: 1

Read mode : Secure
Utilize accurate stream : Yes
Defeat audio cache : Yes
Make use of C2 pointers : No

Read offset correction

: 6
Overread into Lead-In and Lead-Out : No
Fill up missing offset samples with silence : Yes
Delete leading and trailing silent blocks : No
Null samples used in CRC calculations : Yes
Used interface
: Native Win32 interface for Win NT & 2000

Used output format : User Defined Encoder
Selected bitrate : 768 kBit/s
Quality : High
Add ID3 tag : No
Command line compressor : C:\Program Files (x86)\Exact Audio Copy\Flac\flac.exe
Additional command line options : -V -8 -T "Date=%year%" -T "Genre=%genre%" %source%

TOC of the extracted CD Track | Start | Length | Start sector | End sector
--1 | 0:00.00 | 3:43.52 | 0 | 16776 2 | 3:43.52 | 3:58.48 | 16777 | 34674 3 | 7:42.25 | 3:29.50 | 34675 | 50399 4 | 11:12.00 | 3:53.60 | 50400 | 67934 5 | 15:05.60 | 2:27.25 | 67935 | 78984 6 | 17:33.10 | 3:45.45 | 78985 | 95904 7 | 21:18.55 | 4:31.17 | 95905 | 116246 8 | 25:49.72 | 1:47.65 | 116247 | 124336 9 | 27:37.62 | 3:17.60 | 124337 | 139171
10 | 30:55.47 | 3:33.18 | 139172 | 155164
11 | 34:28.65 | 6:32.27 | 155165 | 184591
12 | 41:01.17 | 3:56.18 | 184592 | 202309
13 | 44:57.35 | 6:52.17 | 202310 | 233226
14 | 51:49.52 | 6:30.00 | 233227 | 262476

Range status and errors

Selected range Filename H:\MUSIC\2013. Janis Joplin - Box Of Pearls. The Janis Joplin Collection (Columbia-Legacy 88883708892, EU)\1971. Pearl\Janis Joplin - Pearl.wav Peak level 100.0 %
Extraction speed 9.5 X
Range quality 100.0 %
Test CRC D211E1E4
Copy CRC D211E1E4
Copy OK

No errors occurred


AccurateRip summary

Track 1 accurately ripped (confidence 71) [786238B6] (AR v2)
Track 2 accurately ripped (confidence 71) [7448B575] (AR v2)
Track 3 accurately ripped (confidence 70) [FB1BE661] (AR v2)
Track 4 accurately ripped (confidence 70) [C5F7F422] (AR v2)
Track 5 accurately ripped (confidence 70) [3552AF70] (AR v2)
Track 6 accurately ripped (confidence 70) [3F435B6D] (AR v2)
Track 7 accurately ripped (confidence 71) [A66AED77] (AR v2)
Track 8 accurately ripped (confidence 71) [EB3D1A81] (AR v2)
Track 9 accurately ripped (confidence 70) [5D0B5FD3] (AR v2)
Track 10 accurately ripped (confidence 70) [286556CE] (AR v2)
Track 11 accurately ripped (confidence 66) [3C6412CC] (AR v2)
Track 12 accurately ripped (confidence 65) [8D03E861] (AR v2)
Track 13 accurately ripped (confidence 64) [2C9EF4D6] (AR v2)
Track 14 accurately ripped (confidence 64) [667EA78A] (AR v2)

All tracks accurately ripped

End of status report

==== Log checksum 7D3C223A329FAF2AF59685C189C4431623E5E6AAD292414A41C1FA9FD7380D28 ====

foobar2000 1.2.6 / Dynamic Range Meter 1.1.1
log date: 2015-08-18 13:25:11

Analyzed: Janis Joplin / Big Brother & The Holding Company

DR Peak RMS Duration Track

DR12 0.00 dB -13.66 dB 3:44 01-Move Over
DR11 0.00 dB -14.14 dB 3:59 02-Cry Baby
DR11 -0.07 dB -15.21 dB 3:30 03-A Woman Left Lonely
DR12 -0.88 dB -15.58 dB 3:54 04-Half Moon
DR12 -0.92 dB -15.07 dB 2:27 05-Buried Alive In The Blues
DR12 0.00 dB -14.55 dB 3:46 06-My Baby
DR11 -1.00 dB -15.19 dB 4:31 07-Me And Bobby McGee
DR12 -3.68 dB -18.97 dB 1:48 08-Mercedes Benz
DR12 0.00 dB -14.40 dB 3:18 09-Trust Me
DR12 0.00 dB -14.03 dB 3:33 10-Get It While You Can
DR11 0.00 dB -12.85 dB 6:32 11-Tell Mama [Live]
DR13 -0.83 dB -18.90 dB 3:56 12-Little Girl Blue [Live]
DR12 0.00 dB -14.00 dB 6:52 13-Try (Just A Little Bit Harder) [Live]
DR12 0.00 dB -15.47 dB 6:30 14-Cry Baby [Live]

Number of tracks: 14
Official DR value: DR12

Samplerate: 44100 Hz
Channels: 2
Bits per sample: 16
Bitrate: 831 kbps
Codec: FLAC

[CUETools log; Date: 18.08.2015 13:25:25; Version: 2.1.5]
[CTDB TOCID: ubIbepRLnnz5qsT2SIKjkd4Qtz4-] found.
Track | CTDB Status
1 | ( 92/285) Accurately ripped
2 | ( 92/285) Accurately ripped
3 | ( 92/285) Accurately ripped
4 | ( 92/285) Accurately ripped
5 | ( 92/285) Accurately ripped
6 | ( 92/285) Accurately ripped
7 | ( 92/285) Accurately ripped
8 | ( 92/285) Accurately ripped
9 | ( 90/285) Accurately ripped
10 | ( 92/285) Accurately ripped
11 | ( 92/285) Accurately ripped
12 | ( 91/285) Accurately ripped
13 | ( 92/285) Accurately ripped
14 | ( 91/285) Accurately ripped
[AccurateRip ID: 001ae39c-01223567-be0dab0e] found.
Track [ CRC | V2 ] Status
01 [6129fe2a|786238b6] (115+073/596) Accurately ripped
02 [f71d0a5f|7448b575] (115+073/600) Accurately ripped
03 [0efef54e|fb1be661] (116+072/597) Accurately ripped
04 [22752c0a|c5f7f422] (116+072/596) Accurately ripped
05 [3cebaf8f|3552af70] (114+071/595) Accurately ripped
06 [7516ce27|3f435b6d] (116+072/597) Accurately ripped
07 [41c4ebf3|a66aed77] (117+072/600) Accurately ripped
08 [ec6da833|eb3d1a81] (116+073/603) Accurately ripped
09 [571b5534|5d0b5fd3] (116+071/597) Accurately ripped
10 [221c2065|286556ce] (116+072/599) Accurately ripped
11 [ed994ea2|3c6412cc] (113+068/585) Accurately ripped
12 [5219b8ea|8d03e861] (116+066/583) Accurately ripped
13 [d30b11c7|2c9ef4d6] (116+065/580) Accurately ripped
14 [c29042d4|667ea78a] (114+065/579) Accurately ripped
Offsetted by -144:
01 [d26d01aa] (002/596) Accurately ripped
02 [198b1c8f] (002/600) Accurately ripped
03 [33731c6e] (002/597) Accurately ripped
04 [e7e63c2a] (002/596) Accurately ripped
05 [7b1cea3f] (002/595) Accurately ripped
06 [4d89b50d] (002/597) Accurately ripped
07 [5d1e873d] (002/600) Accurately ripped
08 [339c62b3] (002/603) Accurately ripped
09 [92c22dd4] (002/597) Accurately ripped
10 [31f2a0c5] (002/599) Accurately ripped
11 [25ed37de] (002/585) Accurately ripped
12 [40784d76] (002/583) Accurately ripped
13 [03868bbf] (002/580) Accurately ripped
14 [c46fe0cc] (002/579) Accurately ripped
Offsetted by -2:
01 [6263d1d4] (041/596) Accurately ripped
02 [3eccb583] (041/600) Accurately ripped
03 [369d0412] (040/597) Accurately ripped
04 [61a4f6ee] (040/596) Accurately ripped
05 [731e25b5] (040/595) Accurately ripped
06 [627c628b] (040/597) Accurately ripped
07 [c5bb4e79] (042/600) Accurately ripped
08 [6d731512] (042/603) Accurately ripped
09 [06206dc7] (040/597) Accurately ripped
10 [8cff1b11] (041/599) Accurately ripped
11 [7b930476] (041/585) Accurately ripped
12 [33023f0c] (040/583) Accurately ripped
13 [8ae4fd0b] (041/580) Accurately ripped
14 [3ad3238a] (040/579) Accurately ripped
Offsetted by 517:
01 [875650c5] (012/596) Accurately ripped
02 d4211c5 (012/600) Accurately ripped
03 [8de50c64] (012/597) Accurately ripped
04 [54b2ccd0] (012/596) Accurately ripped
05 [02f76230] (012/595) Accurately ripped
06 [5984a71d] (012/597) Accurately ripped
07 [663e5674] (012/600) Accurately ripped
08 [60e095f3] (012/603) Accurately ripped
09 4ac5697 (012/597) Accurately ripped
10 3ea01b7 (012/599) Accurately ripped
11 [ddbb3077] (012/585) Accurately ripped
12 [dcdfba4e] (012/583) Accurately ripped
13 [3b87a547] (012/580) Accurately ripped
14 [02838ddd] (012/579) Accurately ripped
Offsetted by 6:
01 [72514078] (002/596) Accurately ripped
02 [200808ef] (000/600) No match (V2 was not tested)
03 [9824c902] (000/597) No match
04 [64e5cb5e] (000/596) No match
05 [9a544d1d] (002/595) Accurately ripped
06 [ebcf4d85] (002/597) Accurately ripped
07 5d7c457 (000/600) No match
08 [7d538d12] (000/603) No match
09 [4a0f0b6f] (000/597) No match
10 [e1733061] (000/599) No match
11 [8587320c] (000/585) No match
12 [9ef41a62] (000/583) No match
13 [96c0b0bb] (000/580) No match
14 [f2b71f0a] (000/579) No match

Track Peak [ CRC32 ] [W/O NULL] [ LOG ]
-- 100,0 [D211E1E4] CE0EB95 CRC32
01 100,0 [8960D90D] [7727856F]
02 100,0 [ECF8ED0C] [070B15BE]
03 99,1 [E2D4A1E9] [9DBF0F4B]
04 90,3 [C40AF76B] [2D4C3E94]
05 89,9 [85444EA4] [8A46E0F3]
06 100,0 [53F553DB] [D86A1FA9]
07 89,1 [0C18EA3F] [77520F8E]
08 65,4 [448C802D] [C2317C8C]
09 100,0 CCFF0A0 [616FFD58]
10 100,0 [5C807D6F] [437FFDA4]
11 100,0 [698A29AA] [D0428881]
12 90,9 [CD77FE28] [2B86E456]
13 100,0 [DB70CFCD] [E921A589]
14 100,0 [C24D7AC4] [76F58E34]

***************

Janis Joplin - Box Of Pearls: The Janis Joplin Collection (1999/2013) [5CD Box Set, Remastered, Limited Edition]

Janis Joplin - Rare Pearls (1999)
EAC Rip | FLAC (Img) + Cue + Log ~ 135 Mb | MP3 CBR320 ~ 53 Mb

Track List:

01. It's A Deal [0:02:18.20]
02. Easy Once You Know How [0:03:53.37]
03. Maybe [Live] [0:04:00.45]
04. Raise Your Hand [Live] [0:05:16.08]
05. Bo Diddley [Live] [0:06:12.70]

Exact Audio Copy V1.0 beta 3 from 29. August 2011

EAC extraction logfile from 19. July 2015, 17:34

Janis Joplin / Big Brother & The Holding Company

Used drive : PLEXTOR DVDR PX-L890SA Adapter: 3 ID: 1

Read mode : Secure
Utilize accurate stream : Yes
Defeat audio cache : Yes
Make use of C2 pointers : No

Read offset correction

: 6
Overread into Lead-In and Lead-Out : No
Fill up missing offset samples with silence : Yes
Delete leading and trailing silent blocks : No
Null samples used in CRC calculations : Yes
Used interface
: Native Win32 interface for Win NT & 2000

Used output format : User Defined Encoder
Selected bitrate : 768 kBit/s
Quality : High
Add ID3 tag : No
Command line compressor : C:\Program Files (x86)\Exact Audio Copy\Flac\flac.exe
Additional command line options : -V -8 -T "Date=%year%" -T "Genre=%genre%" %source%

TOC of the extracted CD Track | Start | Length | Start sector | End sector
--1 | 0:00.00 | 2:18.20 | 0 | 10369 2 | 2:18.20 | 3:53.37 | 10370 | 27881 3 | 6:11.57 | 4:00.45 | 27882 | 45926 4 | 10:12.27 | 5:16.08 | 45927 | 69634 5 | 15:28.35 | 6:12.70 | 69635 | 97604

Range status and errors

Selected range Filename H:\MUSIC\2013. Janis Joplin - Box Of Pearls. The Janis Joplin Collection (Columbia-Legacy 88883708892, EU)\1999. Rare Pearls\Janis Joplin - Rare Pearls.wav Peak level 100.0 %
Extraction speed 7.1 X
Range quality 100.0 %
Test CRC AC6C1472
Copy CRC AC6C1472
Copy OK

No errors occurred


AccurateRip summary

Track 1 accurately ripped (confidence 14) [53D12C21] (AR v2)
Track 2 accurately ripped (confidence 14) [6A0E4113] (AR v2)
Track 3 accurately ripped (confidence 14) [4317E66D] (AR v2)
Track 4 accurately ripped (confidence 14) [8C56041E] (AR v2)
Track 5 accurately ripped (confidence 14) [92C2D433] (AR v2)

All tracks accurately ripped

End of status report

==== Log checksum 21D8ADAC54F17795DCC71F2BD6661FCF898E3DA2D435E465378B599075CA478C ====

foobar2000 1.2.6 / Dynamic Range Meter 1.1.1
log date: 2015-08-18 13:26:19

Analyzed: Janis Joplin / Big Brother & The Holding Company

DR Peak RMS Duration Track

DR11 0.00 dB -13.28 dB 2:18 01-It's A Deal
DR12 0.00 dB -13.97 dB 3:53 02-Easy Once You Know How
DR10 -1.36 dB -13.67 dB 4:01 03-Maybe [Live]
DR10 0.00 dB -12.67 dB 5:16 04-Raise Your Hand [Live]
DR10 0.00 dB -13.33 dB 6:13 05-Bo Diddley [Live]

Number of tracks: 5
Official DR value: DR11

Samplerate: 44100 Hz
Channels: 2
Bits per sample: 16
Bitrate: 823 kbps
Codec: FLAC

[CUETools log; Date: 18.08.2015 13:26:22; Version: 2.1.5]
[CTDB TOCID: PVJpVID_u.8IkB_Qjyle5QWUXG0-] found.
Track | CTDB Status
1 | (22/22) Accurately ripped
2 | (22/22) Accurately ripped
3 | (22/22) Accurately ripped
4 | (22/22) Accurately ripped
5 | (22/22) Accurately ripped
[AccurateRip ID: 0003d61b-0012a50c-2b051505] found.
Track [ CRC | V2 ] Status
01 [59adf959|53d12c21] (00+15/28) Accurately ripped
02 [d20e1fb8|6a0e4113] (00+15/28) Accurately ripped
03 [17e2c86e|4317e66d] (00+15/28) Accurately ripped
04 [37e8cb1d|8c56041e] (00+15/28) Accurately ripped
05 [7206f5a2|92c2d433] (00+15/28) Accurately ripped
Offsetted by 647:
01 [c6feafcc] (09/28) Accurately ripped
02 [729f97aa] (09/28) Accurately ripped
03 [1a5ea85e] (09/28) Accurately ripped
04 [37c1ce79] (09/28) Accurately ripped
05 [0ae5d157] (09/28) Accurately ripped

Track Peak [ CRC32 ] [W/O NULL] [ LOG ]
-- 99,9 [AC6C1472] [14A96F59] CRC32
01 99,9 [16930E60] [96E09869]
02 99,9 [163149F4] [1EC147C2]
03 85,4 [DA4F331E] [30C8AAA6]
04 99,9 [E76D1C52] C4072C5
05 99,9 [A48F30F6] [013ABF15]

Janis Joplin - Box Of Pearls: The Janis Joplin Collection (1999/2013) [5CD Box Set, Remastered, Limited Edition]

All thanks go to squirr


DOWNLOAD LINKS
Buy Premium From My Links To Get Resumable Support & Max Speed & To Support Me

Rapidgator.net:
http://rapidgator.net/file/281c724a30e93a6edf87f99cfe0dc3da/48tgr.JJ67flac.rar.html
http://rapidgator.net/file/00f32a1f831f03483decc2a0c4b9fb03/48tgr.JJ67mp3.rar.html
http://rapidgator.net/file/b0bb664bfe102c2d1494016be615095d/48tgr.JJ68flac.part1.rar.html
http://rapidgator.net/file/84309e860d1f8dea272488da180f8efd/48tgr.JJ68flac.part2.rar.html
http://rapidgator.net/file/dd9a665c26aeada60a696ea1caae4fe9/48tgr.JJ68mp3.rar.html
http://rapidgator.net/file/e0f8ef2efed242fb7f20a82fd305c07f/48tgr.JJ69flac.part1.rar.html
http://rapidgator.net/file/3e63ca73ea5cb34ccb3f00dc92d1462a/48tgr.JJ69flac.part2.rar.html
http://rapidgator.net/file/926d37790a29d0829ce468f69402d701/48tgr.JJ69mp3.rar.html
http://rapidgator.net/file/df270351a18452e937e9d70b47dca33b/48tgr.JJ71flac.part1.rar.html
http://rapidgator.net/file/e24ab6be8bdc7640b4cb84f2b7ca6398/48tgr.JJ71flac.part2.rar.html
http://rapidgator.net/file/329918f179eae95671f68efd535cc5e6/48tgr.JJ71mp3.rar.html
http://rapidgator.net/file/2e15dd5b7f195d10618153e320e67aeb/48tgr.JJ99flac.rar.html
http://rapidgator.net/file/41d3e50f5ccb759966650b3b1e205ba6/48tgr.JJ99mp3.rar.html
http://rapidgator.net/file/8d74b5e123eaf08b8a71a6ba6c34a638/48tgr.JJScans.part1.rar.html
http://rapidgator.net/file/b7034f7a073540bcd51f869a44227f8d/48tgr.JJScans.part2.rar.html
http://rapidgator.net/file/bd1e29c5a517f4f030c48177e37c3a7a/48tgr.JJScans.part3.rar.html

Uploaded.net:
http://uploaded.net/file/i1bc7arf/48tgr.JJ67flac.rar
http://uploaded.net/file/68573d4d/48tgr.JJ67mp3.rar
http://uploaded.net/file/o61f5lur/48tgr.JJ68flac.part1.rar
http://uploaded.net/file/1j8za7ey/48tgr.JJ68flac.part2.rar
http://uploaded.net/file/cuue4lvn/48tgr.JJ68mp3.rar
http://uploaded.net/file/q0aqkb2j/48tgr.JJ69flac.part1.rar
http://uploaded.net/file/7lta3uqp/48tgr.JJ69flac.part2.rar
http://uploaded.net/file/4c70vabb/48tgr.JJ69mp3.rar
http://uploaded.net/file/zt6gp5i7/48tgr.JJ71flac.part1.rar
http://uploaded.net/file/hk5ss3yu/48tgr.JJ71flac.part2.rar
http://uploaded.net/file/5y9d7ugw/48tgr.JJ71mp3.rar
http://uploaded.net/file/isartt5q/48tgr.JJ99flac.rar
http://uploaded.net/file/2pm2sv61/48tgr.JJ99mp3.rar
http://uploaded.net/file/esxrpjy7/48tgr.JJScans.part1.rar
http://uploaded.net/file/np8ih7v7/48tgr.JJScans.part2.rar
http://uploaded.net/file/1ztayfwn/48tgr.JJScans.part3.rar

Uploadable.ch:
http://www.uploadable.ch/file/bY3TGdHPJxnR/48tgr.JJ67flac.rar
http://www.uploadable.ch/file/kJU4tBND7rrP/48tgr.JJ67mp3.rar
http://www.uploadable.ch/file/Xzp4BfvnRfJN/48tgr.JJ68flac.part1.rar
http://www.uploadable.ch/file/FkUgMtHEbBB9/48tgr.JJ68flac.part2.rar
http://www.uploadable.ch/file/st4nTGZ4yBhf/48tgr.JJ68mp3.rar
http://www.uploadable.ch/file/q69TDEc4W7GG/48tgr.JJ69flac.part1.rar
http://www.uploadable.ch/file/7SvEge9rNaWj/48tgr.JJ69flac.part2.rar
http://www.uploadable.ch/file/vq5wBfW7rbyk/48tgr.JJ69mp3.rar
http://www.uploadable.ch/file/NV5CFaZCHHxD/48tgr.JJ71flac.part1.rar
http://www.uploadable.ch/file/dyz2mEnyuFKC/48tgr.JJ71flac.part2.rar
http://www.uploadable.ch/file/39ScpaFCDndc/48tgr.JJ71mp3.rar
http://www.uploadable.ch/file/aw4xYH3G4mGE/48tgr.JJ99flac.rar
http://www.uploadable.ch/file/bAZvuY9cYQpX/48tgr.JJ99mp3.rar
http://www.uploadable.ch/file/X6GGZyJKvkGR/48tgr.JJScans.part1.rar
http://www.uploadable.ch/file/2EH6xV7NkKNY/48tgr.JJScans.part2.rar
http://www.uploadable.ch/file/pKhMnw4Jkwfv/48tgr.JJScans.part3.rar

Links are Interchangeable - No Password - Single Extraction
Direct Download

Tags: Joplin, Pearls, Joplin, Collection, Remastered, Limited

Janis Joplin - Box Of Pearls: The Janis Joplin Collection (1999/2013) [5CD Box Set, Remastered, Limited Edition] Download via Hotfile Rapidshare Fileserve Megaupload & FileSonic, Janis Joplin - Box Of Pearls: The Janis Joplin Collection (1999/2013) [5CD Box Set, Remastered, Limited Edition] free torrent downloads included crack, serial, keygen.Janis Joplin - Box Of Pearls: The Janis Joplin Collection (1999/2013) [5CD Box Set, Remastered, Limited Edition] Fast Download via Rapidshare Hotfile Fileserve Filesonic Megaupload, Janis Joplin - Box Of Pearls: The Janis Joplin Collection (1999/2013) [5CD Box Set, Remastered, Limited Edition] Torrents and Emule Download or anything related.
Leave a Comment
Your Name:
E-Mail:
Add Comments:

Enter Code: