VA - The House Sound Of Chicago: The Future House Edition (1993)

Download Now

VA - The House Sound Of Chicago: The Future House Edition (1993)

VA - The House Sound Of Chicago: The Future House Edition (1993)
EAC | FLAC | Tracks (Cue&Log) ~ 522 Mb (incl 5%) | Mp3 (CBR320) ~ 234 Mb (incl 5%) | Scans included
Genre: House | Label: BCM Records | # CD 076-556052 | Time: 01:12:42

"As the spiritual and cultural epicenter of house music, the city of Chicago has arguably had the greatest influence on electronic dance music. Tracing its origins from an infamous nightclub called the Warehouse, house music's global reach and stature has made it a ubiquitous and foundational presence in dance and club culture. Includes Simon Harris, Kraze, Vicky Martin, Full House, 2 In A Room, Liz Torres, On Top, 2 Puerto Ricans, A Blackman And A Dominican, Bam Bam, Wally Jump Jr. & The Criminal Element, Musto & Bones, and Arnold Jarvis."

Tracklist:

01. Simon Harris - Ragga House (All Night Long) (06:26)
02. Kraze - Let's Play House (05:21)
03. Vicky Martin - Not Gonna Do It (04:40)
04. Full House - Comminucate (06:25)
05. 2 In A Room - Do What You Want (06:48)
06. Liz Torres - A Touch Of Love (05:52)
07. On Top - Unity (05:58)
08. 2 Puerto Ricans, A Blackman And A Dominican - Do It Properly (06:13)
09. Bam Bam - Where's Your Child (05:39)
10. Wally Jump Jr. & The Criminal Element - Turn Me Loose (07:09)
11. Musto & Bones - Dangerous On The Dance Floor (05:23)
12. Arnold Jarvis - Take Some Time Out (06:43)


Exact Audio Copy V1.0 beta 4 from 7. December 2014

EAC extraction logfile from 18. July 2015, 10:25

Various / The House Sound Of Chicago (The Future House Edition)

Used drive : TSSTcorpCDDVDW SH-224DB Adapter: 1 ID: 0

Read mode : Secure
Utilize accurate stream : Yes
Defeat audio cache : Yes
Make use of C2 pointers : No

Read offset correction

: 6
Overread into Lead-In and Lead-Out : No
Fill up missing offset samples with silence : Yes
Delete leading and trailing silent blocks : No
Null samples used in CRC calculations : Yes
Used interface
: Native Win32 interface for Win NT & 2000
Gap handling
: Appended to previous track

Used output format : User Defined Encoder
Selected bitrate : 896 kBit/s
Quality : High
Add ID3 tag : No
Command line compressor : C:\Program Files\Exact Audio Copy\Flac\flac.exe
Additional command line options : -6 -V -T "ARTIST=%artist%" -T "TITLE=%title%" -T "ALBUM=%albumtitle%" -T "DATE=%year%" -T "TRACKNUMBER=%tracknr%" -T "GENRE=%genre%" -T "COMMENT=%comment%" %source% -o %dest%

TOC of the extracted CD Track | Start | Length | Start sector | End sector
--1 | 0:00.00 | 6:26.35 | 0 | 28984 2 | 6:26.35 | 5:21.73 | 28985 | 53132 3 | 11:48.33 | 4:40.02 | 53133 | 74134 4 | 16:28.35 | 6:25.45 | 74135 | 103054 5 | 22:54.05 | 6:48.15 | 103055 | 133669 6 | 29:42.20 | 5:52.30 | 133670 | 160099 7 | 35:34.50 | 5:58.18 | 160100 | 186967 8 | 41:32.68 | 6:13.55 | 186968 | 214997 9 | 47:46.48 | 5:39.40 | 214998 | 240462
10 | 53:26.13 | 7:09.10 | 240463 | 272647
11 | 60:35.23 | 5:23.35 | 272648 | 296907
12 | 65:58.58 | 6:43.05 | 296908 | 327137

Track 1 Filename C:\New Folder\01 - Simon Harris - Ragga House (All Night Long).wav Pre-gap length 0:00:02.00 Peak level 94.5 %
Extraction speed 2.1 X
Track quality 100.0 %
Test CRC E917539E
Copy CRC E917539E
Accurately ripped (confidence 2) [842E664B] (AR v1)
Copy OK

Track 2 Filename C:\New Folder\02 - Kraze - Let's Play House.wav Peak level 84.5 %
Extraction speed 2.3 X
Track quality 100.0 %
Test CRC EAC172CE
Copy CRC EAC172CE
Accurately ripped (confidence 2) [64D94188] (AR v1)
Copy OK

Track 3 Filename C:\New Folder\03 - Vicky Martin - Not Gonna Do It.wav Peak level 94.5 %
Extraction speed 2.4 X
Track quality 100.0 %
Test CRC E5FB7659
Copy CRC E5FB7659
Accurately ripped (confidence 2) [E78E66E6] (AR v1)
Copy OK

Track 4 Filename C:\New Folder\04 - Full House - Comminucate.wav Peak level 71.5 %
Extraction speed 2.7 X
Track quality 100.0 %
Test CRC FA8F9EC1
Copy CRC FA8F9EC1
Accurately ripped (confidence 2) [8877B91B] (AR v1)
Copy OK

Track 5 Filename C:\New Folder\05 - 2 In A Room - Do What You Want.wav Peak level 78.6 %
Extraction speed 3.0 X
Track quality 100.0 %
Test CRC 2D1FB791
Copy CRC 2D1FB791
Accurately ripped (confidence 2) [823CC759] (AR v1)
Copy OK

Track 6 Filename C:\New Folder\06 - Liz Torres - A Touch Of Love.wav Peak level 81.4 %
Extraction speed 3.1 X
Track quality 100.0 %
Test CRC CF7CC6CA
Copy CRC CF7CC6CA
Accurately ripped (confidence 2) [1B0D0847] (AR v1)
Copy OK

Track 7 Filename C:\New Folder\07 - On Top - Unity.wav Peak level 87.0 %
Extraction speed 2.8 X
Track quality 99.9 %
Test CRC FEEA70D1
Copy CRC FEEA70D1
Accurately ripped (confidence 2) [51A14714] (AR v1)
Copy OK

Track 8 Filename C:\New Folder\08 - 2 Puerto Ricans, A Blackman And A Dominican - Do It Properly.wav Peak level 74.2 %
Extraction speed 3.5 X
Track quality 100.0 %
Test CRC 7DEED595
Copy CRC 7DEED595
Accurately ripped (confidence 2) [ACF98FE6] (AR v1)
Copy OK

Track 9 Filename C:\New Folder\09 - Bam Bam - Where's Your Child.wav Peak level 61.2 %
Extraction speed 3.6 X
Track quality 100.0 %
Test CRC 96DFB0EF
Copy CRC 96DFB0EF
Accurately ripped (confidence 2) [ED6938D1] (AR v1)
Copy OK

Track 10 Filename C:\New Folder\10 - Wally Jump Jr. & The Criminal Element - Turn Me Loose.wav Peak level 91.7 %
Extraction speed 3.8 X
Track quality 100.0 %
Test CRC 6A72BB6E
Copy CRC 6A72BB6E
Accurately ripped (confidence 2) [DA418AFC] (AR v1)
Copy OK

Track 11 Filename C:\New Folder\11 - Musto & Bones - Dangerous On The Dance Floor.wav Peak level 81.6 %
Extraction speed 3.9 X
Track quality 100.0 %
Test CRC 346FAB75
Copy CRC 346FAB75
Accurately ripped (confidence 2) [72486C8E] (AR v1)
Copy OK

Track 12 Filename C:\New Folder\12 - Arnold Jarvis - Take Some Time Out.wav Peak level 94.5 %
Extraction speed 3.4 X
Track quality 99.9 %
Test CRC 3267115D
Copy CRC 3267115D
Accurately ripped (confidence 2) [47F193F7] (AR v1)
Copy OK

All tracks accurately ripped

No errors occurred

End of status report

- CUETools DB Plugin V2.1.4

[CTDB TOCID: WQgKqEMv_J04XE6wcekEVfr.XTA-] found
Submit result: WQgKqEMv_J04XE6wcekEVfr.XTA- has been confirmed
Track | CTDB Status
1 | (2/2) Accurately ripped
2 | (2/2) Accurately ripped
3 | (2/2) Accurately ripped
4 | (2/2) Accurately ripped
5 | (2/2) Accurately ripped
6 | (2/2) Accurately ripped
7 | (2/2) Accurately ripped
8 | (2/2) Accurately ripped
9 | (2/2) Accurately ripped
10 | (2/2) Accurately ripped
11 | (2/2) Accurately ripped
12 | (2/2) Accurately ripped

==== Log checksum 115AA60CAE6202C3874FC1D3371DC9248413896221955AB0DB1FF1CB112A63E4 ====

foobar2000 1.2 / Dynamic Range Meter 1.1.1
log date: 2015-08-19 17:22:41

Analyzed: 2 In A Room / The House Sound Of Chicago (The Future House Edition) (1) 2 Puerto Ricans, A Blackman And A Dominican / The House Sound Of Chicago (The Future House Edition) (2) Arnold Jarvis / The House Sound Of Chicago (The Future House Edition) (3) Bam Bam / The House Sound Of Chicago (The Future House Edition) (4) Full House / The House Sound Of Chicago (The Future House Edition) (5) Kraze / The House Sound Of Chicago (The Future House Edition) (6) Liz Torres / The House Sound Of Chicago (The Future House Edition) (7) Musto & Bones / The House Sound Of Chicago (The Future House Edition) (8) On Top / The House Sound Of Chicago (The Future House Edition) (9) Simon Harris / The House Sound Of Chicago (The Future House Edition) (10) Vicky Martin / The House Sound Of Chicago (The Future House Edition) (11) Wally Jump Jr. & The Criminal Element / The House Sound Of Chicago (The Future House Edition) (12)

DR Peak RMS Duration Track

DR14 -2.09 dB -17.67 dB 6:48 05-Do What You Want
DR13 -2.59 dB -17.65 dB 6:14 08-Do It Properly
DR15 -0.48 dB -17.42 dB 6:43 12-Take Some Time Out
DR11 -4.26 dB -16.35 dB 5:40 09-Where's Your Child
DR13 -2.91 dB -17.22 dB 6:26 04-Comminucate
DR12 -1.46 dB -15.18 dB 5:22 02-Let's Play House
DR12 -1.78 dB -15.54 dB 5:52 06-A Touch Of Love
DR15 -1.76 dB -18.03 dB 5:23 11-Dangerous On The Dance Floor
DR15 -1.21 dB -17.91 dB 5:58 07-Unity
DR16 -0.48 dB -18.52 dB 6:26 01-Ragga House (All Night Long)
DR12 -0.48 dB -15.43 dB 4:40 03-Not Gonna Do It
DR15 -0.75 dB -18.38 dB 7:09 10-Turn Me Loose

Number of tracks: 12
Official DR value: DR14

Samplerate: 44100 Hz
Channels: 2
Bits per sample: 16
Bitrate: 826 kbps
Codec: FLAC

VA - The House Sound Of Chicago: The Future House Edition (1993)

VA - The House Sound Of Chicago: The Future House Edition (1993)

All thanks to original releaser - alekow
Password: designol

DOWNLOAD LINKS
Buy Premium From My Links To Get Resumable Support & Max Speed & To Support Me


Links are Interchangeable - No Password - Single Extraction
Direct Download

Tags: Chicago, Future

VA - The House Sound Of Chicago: The Future House Edition (1993) Download via Hotfile Rapidshare Fileserve Megaupload & FileSonic, VA - The House Sound Of Chicago: The Future House Edition (1993) free torrent downloads included crack, serial, keygen.VA - The House Sound Of Chicago: The Future House Edition (1993) Fast Download via Rapidshare Hotfile Fileserve Filesonic Megaupload, VA - The House Sound Of Chicago: The Future House Edition (1993) Torrents and Emule Download or anything related.
Leave a Comment
Your Name:
E-Mail:
Add Comments:

Enter Code: