Dream Theater - When Dream And Day Unite (1989) [MCA Records MVCM-21059, Japan]

Download Now

Dream Theater - When Dream And Day Unite (1989) [MCA Records MVCM-21059, Japan]

Dream Theater - When Dream And Day Unite (1989)
EAC | Flac(Image) + Cue + Log & MP3 CBR 320Kbps
1992 | MCA Records, MVCM-21059 | ~ 380 or 142 Mb | Scans Included
Progressive Rock / Progressive Metal

"Dream Theater's first official release gave an indication that this was a talented band that combined the styles of Yes, Rush, and Queensrÿche. The latter seemed to be too big of an influence at this stage of their career..."


Tracklist:

01. A Fortune In Lies (5:13)
02. Status Seeker (4:15)
03. The Ytse Jam (5:49)
04. The Killing Hand (8:44)
05. Light Fuse And Get Away (7:23)
06. Afterlife (5:27)
07. The Ones Who Help To Set The Sun (8:05)
08. Only A Matter Of Time (6:39)

Exact Audio Copy V0.99 prebeta 5 from 4. May 2009

Archivo Log de extracciones desde 11. Enero 2012, 17:25

Dream Theater / When Dream And Day Unite - Japan (MVCM-21059)

Usar unidad : HL-DT-STDVDRAM GH22NS70 Adapter: 0 ID: 0

Modo de Lectura : Seguro
Utilizar Corriente Exacta : Sн
Descartar Audio cachй : Sн
Utilizar los punteros C2 : No

Correcciуn de Desplazamiento de Lectura : 667
Sobreleer tanto en Lead-In como en Lead-Out : No
Rellenar las muestras faltantes con silencios : Sн
Eliminar silencios inicial y final : No
Se han usado muestras nulas en los cбlculos CRC : No
Interfaz usada
: Interfaz propio de Win32 para Windowns NT y 2000

Formato de Salida utilizado : Compresor sin pйrdida Monkey's Audio
Bitrate seleccionado

: High Lossless Compression
Calidad
: Alta
Aсadir Etiqueta ID3

: Sн
Compresor de linea de comandos : C:\Program Files (x86)\Exact Audio Copy\MAC.exe

TOC del CD extraido Pista | Inicio | Duraciуn | Sector inicial | Sector final
1 | 0:00.37 | 5:12.48 | 37 | 23484 2 | 5:13.10 | 4:15.10 | 23485 | 42619 3 | 9:28.20 | 5:48.67 | 42620 | 68786 4 | 15:17.12 | 8:43.38 | 68787 | 108049 5 | 24:00.50 | 7:23.25 | 108050 | 141299 6 | 31:24.00 | 5:27.20 | 141300 | 165844 7 | 36:51.20 | 8:04.50 | 165845 | 202194 8 | 44:55.70 | 6:39.17 | 202195 | 232136

Gama de estados y errores

Seleccionar gama Nombre de Archivo E:\Mъsica\EAC\Dream Theater\When Dream And Day United\Dream Theater - When Dream And Day Unite - Japan (MVCM-21059).wav Nivel Pico 98.9 %
Gama de Calidad 100.0 %
Test CRC 6193C877
Copiar CRC 6193C877
Copia OK

Sin Errores


Resumen AccurateRip

Pista 1 extraido de modo preciso (nivel de confianza 5) [C024C42A]
Pista 2 extraido de modo preciso (nivel de confianza 4) 3EFCBDF
Pista 3 extraido de modo preciso (nivel de confianza 5) [E8777290]
Pista 4 extraido de modo preciso (nivel de confianza 5) [C421CDC4]
Pista 5 extraido de modo preciso (nivel de confianza 4) [C52F9C3E]
Pista 6 extraido de modo preciso (nivel de confianza 5) [FC9FDE14]
Pista 7 extraido de modo preciso (nivel de confianza 4) [7DFC9B02]
Pista 8 extraido de modo preciso (nivel de confianza 5) [3E1971A1]

Todas las pistas extraidas de modo preciso

Final del Informe

foobar2000 1.2.9 / Dynamic Range Meter 1.1.1
log date: 2015-08-19 19:28:17

Analyzed: Dream Theater / When Dream And Day Unite [MVCM-21059]

DR Peak RMS Duration Track

DR12 -0.97 dB -14.73 dB 5:13 01-A Fortune In Lies
DR11 -1.77 dB -15.05 dB 4:15 02-Status Seeker
DR12 -0.30 dB -15.10 dB 5:49 03-The Ytse Jam
DR12 -0.09 dB -15.63 dB 8:44 04-The Killing Hand
DR12 -1.33 dB -15.41 dB 7:23 05-Light Fuse And Get Away
DR12 -2.71 dB -15.70 dB 5:27 06-Afterlife
DR12 -0.86 dB -16.37 dB 8:05 07-The Ones Who Help To Set The Sun
DR13 -1.32 dB -15.96 dB 6:39 08-Only A Matter Of Time

Number of tracks: 8
Official DR value: DR12

Samplerate: 44100 Hz
Channels: 2
Bits per sample: 16
Bitrate: 914 kbps
Codec: FLAC

[CUETools log; Date: 19.08.2015 19:34:18; Version: 2.1.4]
Pregap length 00:00:37.
[CTDB TOCID: dBy4i4in2yocbAkHVISYkMCrN8E-] found.
Track | CTDB Status
1 | (8/8) Accurately ripped
2 | (8/8) Accurately ripped
3 | (8/8) Accurately ripped
4 | (8/8) Accurately ripped
5 | (8/8) Accurately ripped
6 | (8/8) Accurately ripped
7 | (8/8) Accurately ripped
8 | (8/8) Accurately ripped
[AccurateRip ID: 000f0588-0066526d-6c0c1708] found.
Track [ CRC | V2 ] Status
01 [c024c42a|67be60e4] (06+06/12) Accurately ripped
02 3efcbdf|017b1e0b (05+06/11) Accurately ripped
03 [e8777290|bf69cfca] (06+06/12) Accurately ripped
04 [c421cdc4|0540c51c] (06+06/12) Accurately ripped
05 [c52f9c3e|71f9b7a2] (05+06/11) Accurately ripped
06 [fc9fde14|fa578f04] (06+06/12) Accurately ripped
07 [7dfc9b02|8e2282ec] (05+06/11) Accurately ripped
08 [3e1971a1|d3869687] (06+06/12) Accurately ripped

Track Peak [ CRC32 ] [W/O NULL]
-- 98,9 [D2A97CCB] [6193C877]
01 89,4 [A716CFD8] [7C69D592]
02 81,5 [7EED4061] [A9B462DF]
03 96,6 826FB3F [422B8520]
04 98,9 [6F6F0543] [1C0AD153]
05 85,7 [3CBF53EB] [1792C252]
06 73,1 [30F5B91C] [7B24EF11]
07 90,5 [69C311B3] [22953C76]
08 85,8 [7152237D] [CC18B407]

Dream Theater - When Dream And Day Unite (1989) [MCA Records MVCM-21059, Japan]

DOWNLOAD LINKS:


No Password
Direct Download

Tags: Theater, Records

Dream Theater - When Dream And Day Unite (1989) [MCA Records MVCM-21059, Japan] Download via Hotfile Rapidshare Fileserve Megaupload & FileSonic, Dream Theater - When Dream And Day Unite (1989) [MCA Records MVCM-21059, Japan] free torrent downloads included crack, serial, keygen.Dream Theater - When Dream And Day Unite (1989) [MCA Records MVCM-21059, Japan] Fast Download via Rapidshare Hotfile Fileserve Filesonic Megaupload, Dream Theater - When Dream And Day Unite (1989) [MCA Records MVCM-21059, Japan] Torrents and Emule Download or anything related.
Leave a Comment
Your Name:
E-Mail:
Add Comments:

Enter Code: