In Extremo - Wacken 2015 [HDTV, 720p]

Download Now

In Extremo - Wacken 2015 [HDTV, 720p]

In Extremo - Wacken 2015
TS, Mpeg4 AVC, 1280x720, 13300 kbps, 50 fps | Dolby AC3, 2 ch, 448 kbps
Medieval Metal / Folk Metal | 00:58:21 | ~ 6.49 Gb

~ In Extremo performing on July 30, 2015 at Wacken Open Air festival in Wacken, Germany ~




Tracklist:

Frei zu sein
Zigeunerskat
Erdbeermund
Himmel und Holle
Vollmond
Feuertaufe
Spielmannsfluch
Sangerkrieg
Kuss mich
Rasend Herz

General
ID : 1 (0x1)
Complete name : G:\UP\Mix\In Extremo - Wacken 2015\In Extremo - Wacken 2015.ts
Format
: MPEG-TS
File size
: 6.16 GiB
Duration
: 58mn 22s
Overall bit rate mode : Variable
Overall bit rate : 15.1 Mbps

Video
ID : 6410 (0x190A)
Menu ID
: 11140 (0x2B84)
Format
: AVC
Format/Info
: Advanced Video Codec
Format profile : [email protected]
Format settings, CABAC : Yes
Format settings, ReFrames : 6 frames
Codec ID
: 27
Duration
: 58mn 21s
Bit rate
: 13.3 Mbps
Width
: 1 280 pixels
Height
: 720 pixels
Display aspect ratio : 16:9
Frame rate
: 50.000 fps
Color space
: YUV
Chroma subsampling

: 4:2:0
Bit depth
: 8 bits
Scan type
: Progressive
Bits/(Pixel*Frame)

: 0.288
Stream size
: 5.40 GiB (88%)
Color primaries : BT.709
Transfer characteristics : BT.709
Matrix coefficients

: BT.709

Audio #1
ID : 6420 (0x1914)
Menu ID
: 11140 (0x2B84)
Format
: AC-3
Format/Info
: Audio Coding 3
Mode extension : CM (complete main)
Format settings, Endianness : Big
Codec ID
: 6
Duration
: 58mn 21s
Bit rate mode : Constant
Bit rate
: 448 Kbps
Channel(s)
: 2 channels
Channel positions: Front: L R
Sampling rate : 48.0 KHz
Bit depth
: 16 bits
Compression mode : Lossy
Stream size
: 187 MiB (3%)
Language
: German

Audio #2
ID : 6421 (0x1915)
Menu ID
: 11140 (0x2B84)
Format
: MPEG Audio
Format version : Version 1
Format profile : Layer 2
Codec ID
: 3
Duration
: 58mn 21s
Bit rate mode : Constant
Bit rate
: 256 Kbps
Channel(s)
: 2 channels
Sampling rate : 48.0 KHz
Compression mode : Lossy
Stream size
: 107 MiB (2%)
Language
: German

Audio #3
ID : 6422 (0x1916)
Menu ID
: 11140 (0x2B84)
Format
: MPEG Audio
Format version : Version 1
Format profile : Layer 2
Codec ID
: 3
Duration
: 58mn 21s
Bit rate mode : Constant
Bit rate
: 192 Kbps
Channel(s)
: 2 channels
Sampling rate : 48.0 KHz
Compression mode : Lossy
Stream size
: 80.2 MiB (1%)

Audio #4
ID : 6423 (0x1917)
Menu ID
: 11140 (0x2B84)
Format
: MPEG Audio
Format version : Version 1
Format profile : Layer 2
Codec ID
: 3
Duration
: 58mn 21s
Bit rate mode : Constant
Bit rate
: 192 Kbps
Channel(s)
: 2 channels
Sampling rate : 48.0 KHz
Compression mode : Lossy
Stream size
: 80.2 MiB (1%)
Language
: Multiple languages

Text
ID : 6424 (0x1918)-100
Menu ID
: 11140 (0x2B84)
Format
: Teletext
Language
: German

Menu
ID : 6400 (0x1900)
Menu ID
: 11140 (0x2B84)
Duration
: 58mn 22s
List
: 6410 (0x190A) (AVC) / 6420 (0x1914) (AC-3, German) / 6421 (0x1915) (MPEG Audio, German) / 6422 (0x1916) (MPEG Audio) / 6423 (0x1917) (MPEG Audio, Multiple languages) / 6424 (0x1918) ()
Language
: / German / German / / Multiple languages

In Extremo - Wacken 2015 [HDTV, 720p]

In Extremo - Wacken 2015 [HDTV, 720p]

In Extremo - Wacken 2015 [HDTV, 720p]

In Extremo - Wacken 2015 [HDTV, 720p]

In Extremo - Wacken 2015 [HDTV, 720p]

In Extremo - Wacken 2015 [HDTV, 720p]

DOWNLOAD LINKS
Buy Premium From My Links To Get Resumable Support & Max Speed & To Support Me

Rapidgator.net:
http://rapidgator.net/file/fd9a37e0a64b0dc358095ceb0f7e877b/dicvb.I.E.W.2015.HDTV.720p.part01.rar.html
http://rapidgator.net/file/c8ed0f7476d47ba13668de44842ec3db/dicvb.I.E.W.2015.HDTV.720p.part02.rar.html
http://rapidgator.net/file/d64e7e418311ce817bdee6eaf4efc886/dicvb.I.E.W.2015.HDTV.720p.part03.rar.html
http://rapidgator.net/file/b2014179134059026082b3b82e5b834c/dicvb.I.E.W.2015.HDTV.720p.part04.rar.html
http://rapidgator.net/file/ee0fcd5a8c972086149d0b4c5b700e45/dicvb.I.E.W.2015.HDTV.720p.part05.rar.html
http://rapidgator.net/file/ff0a25d26706838c72e157fa28880742/dicvb.I.E.W.2015.HDTV.720p.part06.rar.html
http://rapidgator.net/file/9cdefab3198c92de23bb5276fc2cd9e3/dicvb.I.E.W.2015.HDTV.720p.part07.rar.html
http://rapidgator.net/file/862d1aa2936157dd81e378aaff4f6b06/dicvb.I.E.W.2015.HDTV.720p.part08.rar.html
http://rapidgator.net/file/c79c04f7f26e0913645198d92c0f3be7/dicvb.I.E.W.2015.HDTV.720p.part09.rar.html
http://rapidgator.net/file/b51685bc08f50d47aa546c35535039c1/dicvb.I.E.W.2015.HDTV.720p.part10.rar.html

Uploaded.net:
http://uploaded.net/file/ug6tc3he/dicvb.I.E.W.2015.HDTV.720p.part01.rar
http://uploaded.net/file/kgrcjv2s/dicvb.I.E.W.2015.HDTV.720p.part02.rar
http://uploaded.net/file/z6s8rf4d/dicvb.I.E.W.2015.HDTV.720p.part03.rar
http://uploaded.net/file/aqpxra2p/dicvb.I.E.W.2015.HDTV.720p.part04.rar
http://uploaded.net/file/qgdytbxd/dicvb.I.E.W.2015.HDTV.720p.part05.rar
http://uploaded.net/file/i24hds5k/dicvb.I.E.W.2015.HDTV.720p.part06.rar
http://uploaded.net/file/yjwyrr0p/dicvb.I.E.W.2015.HDTV.720p.part07.rar
http://uploaded.net/file/unj7dttv/dicvb.I.E.W.2015.HDTV.720p.part08.rar
http://uploaded.net/file/wo35rtam/dicvb.I.E.W.2015.HDTV.720p.part09.rar
http://uploaded.net/file/3fmq2i31/dicvb.I.E.W.2015.HDTV.720p.part10.rar

Uploadable.ch:
http://www.uploadable.ch/file/75K2NmdXhM8j/dicvb.I.E.W.2015.HDTV.720p.part01.rar
http://www.uploadable.ch/file/yhWfYyzdvqFx/dicvb.I.E.W.2015.HDTV.720p.part02.rar
http://www.uploadable.ch/file/UH2jvPwHRjcq/dicvb.I.E.W.2015.HDTV.720p.part03.rar
http://www.uploadable.ch/file/qSXrF4pzcFNR/dicvb.I.E.W.2015.HDTV.720p.part04.rar
http://www.uploadable.ch/file/rS6PngRcbsKA/dicvb.I.E.W.2015.HDTV.720p.part05.rar
http://www.uploadable.ch/file/gMDsZWGPP2cz/dicvb.I.E.W.2015.HDTV.720p.part06.rar
http://www.uploadable.ch/file/fcXtR9FQWZ2c/dicvb.I.E.W.2015.HDTV.720p.part07.rar
http://www.uploadable.ch/file/HAYnWTSGd7yC/dicvb.I.E.W.2015.HDTV.720p.part08.rar
http://www.uploadable.ch/file/czrDtzaUR2Dp/dicvb.I.E.W.2015.HDTV.720p.part09.rar
http://www.uploadable.ch/file/YjC8Sk3CRaXX/dicvb.I.E.W.2015.HDTV.720p.part10.rar

Links are Interchangeable - No Password - Single Extraction
Direct Download

Tags: Extremo, Wacken

In Extremo - Wacken 2015 [HDTV, 720p] Download via Hotfile Rapidshare Fileserve Megaupload & FileSonic, In Extremo - Wacken 2015 [HDTV, 720p] free torrent downloads included crack, serial, keygen.In Extremo - Wacken 2015 [HDTV, 720p] Fast Download via Rapidshare Hotfile Fileserve Filesonic Megaupload, In Extremo - Wacken 2015 [HDTV, 720p] Torrents and Emule Download or anything related.
Leave a Comment
Your Name:
E-Mail:
Add Comments:

Enter Code: