Diana Ross - Baby It's Me (1977) [2014, Japanese SHM-CD]

Download Now

Diana Ross - Baby It's Me (1977) [2014, Japanese SHM-CD]

Diana Ross - Baby It's Me (1977) [2014, Japanese SHM-CD]
R&B, Soul/Funk, Pop Rock, Disco | EAC Rip | FLAC, Tracks+CUE + LOG + Full Scans-600dpi (JPEG) | 35:48 Min | 328,46 Mb
Label: USM Japan (Japan) | Released: 2014, December, 16

"
Baby It's Me is a 1977 album released by American singer Diana Ross on the Motown label that peaked at #18 on the Billboard Top 200 and #7 on the R&B album chart. The album was produced by producer Richard Perry. The LP yielded one Top 40 hit, "Gettin' Ready for Love", reaching #27 on the US Billboard Hot 100. Other charting singles released from the album include "You Got It" and "Your Love is so Good for Me," the latter receiving a Grammy nomination.
"

Diana Ross - Baby It's Me (1977) [2014, Japanese SHM-CD]

Diana Ross - Baby It's Me (1977) [2014, Japanese SHM-CD]


Release of the album: 1977, September, 16 [LP Motown M7-890R1, USA]
Release of this CD: 2014, December, 16 [CD USM Japan (Japan), Cat.# UICY-76866 / UPC: 4988005861689]
℗ & © 1977 Motown Records
Marketed & Distributed by UNIVERSAL MUSIC LLC.
Manufactured by USM JAPAN, A UNIVERSAL MUSIC COMPANY.


Diana Ross - Baby It's Me (1977) [2014, Japanese SHM-CD]


Art Direction - David Larkham
Drums [Syndrums] - Jeff Porcaro
Engineer [Additional] - Mike Stavrous, Tom Knox
Engineer [Recording & Remix] - Howard Steele
Engineer [Second] - Helen Silvani
Mastered By - Allen Zentz
Photography - Skrebenski
Producer - Richard Perry


Tracklist:

01. "Gettin' Ready For Love" (02:47)
(Franne Golde, Tom Snow)
02. "You Got It" (03:57)
(Linda Laurie, Jerry Ragovoy)
03. "Baby It's Me" (03:15)
(Don Dunn, Chuck Smith)
04. "Too Shy To Say" (03:16)
(Stevie Wonder)
05. "Your Love Is So Good For Me" (04:15)
(Ken Peterson)
06. "Top Of The World" (03:09)
(Tom Snow)
07. "All Night Lover" (03:35)
(Jerry Ragovoy, Lenny Roberts)
08. "Confide In Me" (03:36)
(Melissa Manchester, Stanley Schwartz)
09. "The Same Love That Made Me Laugh" (03:58)
(Bill Withers)
10. "Come In From The Rain" (03:59)
(Melissa Manchester, Carole Bayer Sager)

Note: Recorded and Remixed at Studio 55, Hollywood, California.

Exact Audio Copy V1.0 beta 6 from 9. April 2015

EAC extraction logfile from 10. August 2015, 0:25

Diana Ross / Baby It's Me [SHM-CD]

Used drive : HL-DT-STBD-RE GGW-H20L Adapter: 1 ID: 0

Read mode : Secure
Utilize accurate stream : Yes
Defeat audio cache : Yes
Make use of C2 pointers : No

Read offset correction

: 667
Overread into Lead-In and Lead-Out : No
Fill up missing offset samples with silence : Yes
Delete leading and trailing silent blocks : No
Null samples used in CRC calculations : Yes
Used interface
: Native Win32 interface for Win NT & 2000
Gap handling
: Appended to previous track

Used output format : User Defined Encoder
Selected bitrate : 1024 kBit/s
Quality : High
Add ID3 tag : No
Command line compressor : C:\Program Files (x86)\Exact Audio Copy\Flac\flac.exe
Additional command line options : -8 -V -T "ARTIST=%artist%" -T "TITLE=%title%" -T "ALBUM=%albumtitle%" -T "DATE=%year%" -T "TRACKNUMBER=%tracknr%" -T "GENRE=%genre%" -T "PERFORMER=%albuminterpret%" -T "COMPOSER=%composer%" %haslyrics%--tag-from-file=LYRICS="%lyricsfile%"%haslyrics% -T "ALBUMARTIST=%albumartist%" -T "ALBUM ARTIST=%albumartist%" -T "DISCNUMBER=%cdnumber%" -T "TOTALDISCS=%totalcds%" -T "TOTALTRACKS=%numtracks%" -T "COMMENT=EAC V1.0 beta 6, Secure Mode, Test & Copy, AccurateRip, FLAC - 8 - oneanight oan" %source%

TOC of the extracted CD Track | Start | Length | Start sector | End sector
--1 | 0:00.00 | 2:47.33 | 0 | 12557 2 | 2:47.33 | 3:57.23 | 12558 | 30355 3 | 6:44.56 | 3:15.29 | 30356 | 45009 4 | 10:00.10 | 3:16.16 | 45010 | 59725 5 | 13:16.26 | 4:15.32 | 59726 | 78882 6 | 17:31.58 | 3:08.51 | 78883 | 93033 7 | 20:40.34 | 3:35.36 | 93034 | 109194 8 | 24:15.70 | 3:35.43 | 109195 | 125362 9 | 27:51.38 | 3:58.19 | 125363 | 143231
10 | 31:49.57 | 3:58.54 | 143232 | 161135

Track 1 Filename C:\oneanight\01 - Gettin' Ready For Love.wav Pre-gap length 0:00:02.00 Peak level 100.0 %
Extraction speed 4.0 X
Track quality 100.0 %
Test CRC 84C81706
Copy CRC 84C81706
Accurately ripped (confidence 2) [87984088] (AR v2)
Copy OK

Track 2 Filename C:\oneanight\02 - You Got It.wav Pre-gap length 0:00:02.93 Peak level 100.0 %
Extraction speed 4.6 X
Track quality 100.0 %
Test CRC 8C0632AC
Copy CRC 8C0632AC
Accurately ripped (confidence 2) [44BB5C7C] (AR v2)
Copy OK

Track 3 Filename C:\oneanight\03 - Baby It's Me.wav Pre-gap length 0:00:02.28 Peak level 100.0 %
Extraction speed 4.8 X
Track quality 100.0 %
Test CRC FFDFF393
Copy CRC FFDFF393
Accurately ripped (confidence 2) [6E727FB3] (AR v2)
Copy OK

Track 4 Filename C:\oneanight\04 - Too Shy To Say.wav Pre-gap length 0:00:00.53 Peak level 100.0 %
Extraction speed 4.3 X
Track quality 99.9 %
Test CRC 4A0A6120
Copy CRC 4A0A6120
Accurately ripped (confidence 2) [C1662A4D] (AR v2)
Copy OK

Track 5 Filename C:\oneanight\05 - Your Love Is So Good For Me.wav Pre-gap length 0:00:01.25 Peak level 100.0 %
Extraction speed 6.1 X
Track quality 100.0 %
Test CRC 5F806411
Copy CRC 5F806411
Accurately ripped (confidence 2) [E246EBB7] (AR v2)
Copy OK

Track 6 Filename C:\oneanight\06 - Top Of The World.wav Pre-gap length 0:00:02.05 Peak level 100.0 %
Extraction speed 6.1 X
Track quality 100.0 %
Test CRC D62FD595
Copy CRC D62FD595
Accurately ripped (confidence 2) 86E0483 (AR v2)
Copy OK

Track 7 Filename C:\oneanight\07 - All Night Lover.wav Pre-gap length 0:00:02.38 Peak level 100.0 %
Extraction speed 5.2 X
Track quality 99.9 %
Test CRC 522793A8
Copy CRC 522793A8
Accurately ripped (confidence 2) [E83BBCCD] (AR v2)
Copy OK

Track 8 Filename C:\oneanight\08 - Confide In Me.wav Pre-gap length 0:00:02.28 Peak level 100.0 %
Extraction speed 6.8 X
Track quality 100.0 %
Test CRC 3F13293B
Copy CRC 3F13293B
Accurately ripped (confidence 2) [8F6CAB67] (AR v2)
Copy OK

Track 9 Filename C:\oneanight\09 - The Same Love That Made Me Laugh.wav Pre-gap length 0:00:01.85 Peak level 100.0 %
Extraction speed 7.1 X
Track quality 100.0 %
Test CRC BA12ED25
Copy CRC BA12ED25
Accurately ripped (confidence 2) [CD60A815] (AR v2)
Copy OK

Track 10 Filename C:\oneanight\10 - Come In From The Rain.wav Pre-gap length 0:00:02.73 Peak level 100.0 %
Extraction speed 6.3 X
Track quality 99.9 %
Test CRC CB95B46C
Copy CRC CB95B46C
Accurately ripped (confidence 2) [17E454FA] (AR v2)
Copy OK

All tracks accurately ripped

No errors occurred

End of status report

- CUETools DB Plugin V2.1.6

[CTDB TOCID: f84TQxFbBkeTq6QghWv4Jm5hUwY-] found
Submit result: f84TQxFbBkeTq6QghWv4Jm5hUwY- has been confirmed
Track | CTDB Status
1 | (2/2) Accurately ripped
2 | (2/2) Accurately ripped
3 | (2/2) Accurately ripped
4 | (2/2) Accurately ripped
5 | (2/2) Accurately ripped
6 | (2/2) Accurately ripped
7 | (2/2) Accurately ripped
8 | (2/2) Accurately ripped
9 | (2/2) Accurately ripped
10 | (2/2) Accurately ripped

==== Log checksum 2B5A138D675463B6034215358AC1F53C1CE9AEE2C6A0F316DDEF30C79C1E089C ====

foobar2000 1.3.7 / Dynamic Range Meter 1.1.1
log date: 2015-08-19 23:46:32

Analyzed: Diana Ross / Baby It's Me [SHM-CD]

DR Peak RMS Duration Track

DR10 0.00 dB -12.87 dB 2:47 01-Gettin' Ready For Love
DR9 0.00 dB -13.58 dB 3:57 02-You Got It
DR12 0.00 dB -14.10 dB 3:15 03-Baby It's Me
DR10 0.00 dB -13.96 dB 3:16 04-Too Shy To Say
DR13 0.00 dB -14.46 dB 4:15 05-Your Love Is So Good For Me
DR10 0.00 dB -13.42 dB 3:09 06-Top Of The World
DR10 0.00 dB -12.33 dB 3:35 07-All Night Lover
DR10 0.00 dB -13.21 dB 3:36 08-Confide In Me
DR11 0.00 dB -13.99 dB 3:58 09-The Same Love That Made Me Laugh
DR10 0.00 dB -13.32 dB 3:59 10-Come In From The Rain

Number of tracks: 10
Official DR value: DR11

Samplerate: 44100 Hz
Channels: 2
Bits per sample: 16
Bitrate: 830 kbps
Codec: FLAC

All thanks to - oneanight

password: BlondStyle


DOWNLOAD LINKS
Buy Premium From My Links To Get Resumable Support & Max Speed & To Support Me


Links are Interchangeable - No Password - Single Extraction
Direct Download

Tags: Japanese

Diana Ross - Baby It's Me (1977) [2014, Japanese SHM-CD] Download via Hotfile Rapidshare Fileserve Megaupload & FileSonic, Diana Ross - Baby It's Me (1977) [2014, Japanese SHM-CD] free torrent downloads included crack, serial, keygen.Diana Ross - Baby It's Me (1977) [2014, Japanese SHM-CD] Fast Download via Rapidshare Hotfile Fileserve Filesonic Megaupload, Diana Ross - Baby It's Me (1977) [2014, Japanese SHM-CD] Torrents and Emule Download or anything related.
Leave a Comment
Your Name:
E-Mail:
Add Comments:

Enter Code: