Jordi Savall & Hesperion XXI - Invocation a la Nuit - Musica Notturna (2008) [2CD] {10 Alia Vox Anniversary}

Download Now


Jordi Savall & Hesperion XXI - Invocation a la Nuit - Musica Notturna (2008) [2CD] {10 Alia Vox Anniversary}
Jordi Savall & Hesperion XXI - Invocation a la Nuit - Musica Notturna (2008) [2CD] {10 Alia Vox Anniversary}
XLD rip (secure mode) | FLAC (tracks)+CUE+LOG -> 699 Mb | MP3 @320 -> 359 Mb
Full Artwork @ 300 dpi (jpg) -> 166 Mb | 5% repair rar
© 2008 Alia Vox | AVSA 9861 A+B
Classical / Chamber Music / Vocal Music / Symphonies / Suites

"Did you know that most Alia Vox albums were recorded between 1 and 4 am? Not only because of tight recording schedules, but also because the night creates an very special quality of silence... This double album is the best possible tribute to Alia Vox' short but intense history. Not just an 'anniversary CD': it is a fascinating musical journey, based not only on existing material, but also on unreleased recordings (Charpentier - CD2 track 5) and on future albums (CD2 track 1 was recorded for the upcoming project Jerusalem). Recordings from the Astrée catalogue are also included in this definitive overview of a major component of Jordi Savall's creative process: the night."

Jordi Savall & Hesperion XXI - Invocation a la Nuit - Musica Notturna (2008) [2CD] {10 Alia Vox Anniversary}

"Jordi Savall's label has been issuing compilations of his recordings in attractive packages, this one especially marking the 10 years since the label was founded. (Some of the discs have been reissued from Astrée.) The latest one draws on the last 15 years of recording to make a program of two well-filled discs of "Musica notturna," offered at about a two-for-one price. One is called "Songs of the Night," the other "Music of the Night"-vocal and instrumental respectively. No less than 18 previous issues are excerpted, not counting three unreleased tracks. The lavish 132-page booklet includes pictures of all the Alia Vox releases, but most of its space is devoted to essays by three writers printed in six languages, as well as texts and five translations. Savall's wife, Montserrat Figueras, is a highlight of the program, since her affecting singing is heard on so many of Savall's recordings.

By focusing on a theme such as this set does, the compiler has been able to draw together music of a variety of composers sharing a similar mood. You are likely to hear something new by the juxtaposition, even if you have a few of the original discs. This strikes me as a more constructive compilation than the miscellanies that are so often drawn from previously issued material. It's a truly attractive package both to see and to hear. Perhaps it will serve best as a gift."


Jordi Savall & Hesperion XXI - Invocation a la Nuit - Musica Notturna (2008) [2CD] {10 Alia Vox Anniversary}


Personnel:
Jordi Savall, cond; Montserrat Figueras (sop); Hespèrion XXI; La Concert des Nations; La Capella Reial de Catalunya (period instruments)

Music by ANON, MORALES, CÁRCERES, Guerrero, salinas, MONTEVERDI, TORREJÓN Y VELASCO, MUSSORGSKY, PÄRT, MARAIS, FALLA, HOLBORNE, CHARPENTIER, PURCELL, BACH, HANDEL, HAYDN, BEETHOVEN, MOZART

tracklist:
CD1

01 - Durme, hermosa donzella
02 - Ay luna que reluzes (villancico)
03 - In Primo Nocturno I
04 - No la devemos dormir (villancico)
05 - In primo nocturno II
06 - Si la noche haze escura
07 - Romance del Conde Claros
08 - Hor che'I Ciel e la Terra (I parte)
09 - Cosi sol d'une chiara fonte viva ( 2 parte)
10 - Nana - au rtxo txikia negarrez
11 - Rorro - Desvelado dueno mio
12 - El Mariner
13 - Avec la poupee
14 - Kuus, kuus kallike (estonian lullaby)
15 - Les Voix Humaines
16 - Nana - duermete, nino, duerme

Jordi Savall & Hesperion XXI - Invocation a la Nuit - Musica Notturna (2008) [2CD] {10 Alia Vox Anniversary}


CD2
01 - Cuando el Rey Nimrod
02 - Estas noches a tan largas
03 - Lullabie (Galliard)
04 - Tha Night Watch (Almaine)
05 - Nuit
06 - La Reveuse
07 - A Dance for the Followers of Night
08 - Prelude (The Fairy Queen)
09 - A Fairies Dance
10 - Prelude de l'Acte troisieme
11 - Symphonie pour le Sommeil
12 - Air de la 3e Suite, BWV 1068
13 - La Paix - Largo alla Siciliana
14 - Sonata VI. Lento
15 - Marcia Funebre, Adagio assai
16 - Maurerische Trauermusik, K 477

Jordi Savall & Hesperion XXI - Invocation a la Nuit - Musica Notturna (2008) [2CD] {10 Alia Vox Anniversary}



X Lossless Decoder version 20091202 (114.5)

XLD extraction logfile from 2009-12-09 11:22:34 +0900

Jordi Savall, Montserrat Figueras, Hesperion XXI, La Capella Reial de Catalunya, Le Concert des Nations / Invocation a la Nuit - Musica Notturna

Used drive : HL-DT-ST DVDRW GS21N (revision SA15)

Use cdparanoia mode : YES (CDParanoia III 10.2 engine)
Disable audio cache : OK for the drive with cache less than 2750KB
Make use of C2 pointers : NO
Read offset correction : 667
Max retry count : 100

TOC of the extracted CD
Track | Start | Length | Start sector | End sector
--1 | 00:00:00 | 04:47:36 | 0 | 21560 2 | 04:47:36 | 05:15:32 | 21561 | 45217 3 | 10:02:68 | 03:21:43 | 45218 | 60335 4 | 13:24:36 | 05:16:05 | 60336 | 84040 5 | 18:40:41 | 03:44:44 | 84041 | 100884 6 | 22:25:10 | 04:37:31 | 100885 | 121690 7 | 27:02:41 | 08:18:54 | 121691 | 159094 8 | 35:21:20 | 04:39:57 | 159095 | 180076 9 | 40:01:02 | 04:26:17 | 180077 | 200043
10 | 44:27:19 | 02:30:41 | 200044 | 211334
11 | 46:57:60 | 05:51:02 | 211335 | 237661
12 | 52:48:62 | 04:45:54 | 237662 | 259090
13 | 57:34:41 | 01:53:07 | 259091 | 267572
14 | 59:27:48 | 04:22:49 | 267573 | 287271
15 | 63:50:22 | 07:56:32 | 287272 | 323003
16 | 71:46:54 | 04:39:32 | 323004 | 343960

All Tracks
Album gain : -0.83 dB
Peak : 0.999969

Track 01
Filename : /Users/MacOSX/Documents/01 - Durme, hermosa donzella.flac Track gain : -0.99 dB
Peak : 0.970093
CRC32 hash (test run) : FF687A58
CRC32 hash : FF687A58
CRC32 hash (skip zero) : 07237742
AccurateRip signature : 9D52F1F3->Accurately ripped! (confidence 5)
StatisticsRead error : 0Skipped (treated as error) : 0Edge jitter error (maybe fixed) : 0Atom jitter error (maybe fixed) : 0Drift error (maybe fixed) : 0Dropped bytes error (maybe fixed) : 0Duplicated bytes error (maybe fixed) : 0Inconsistency in error sectors : 0

Track 02
Filename : /Users/MacOSX/Documents/02 - Ay luna que reluzes (villancico).flac Track gain : 1.55 dB
Peak : 0.999969
CRC32 hash (test run) : 89CBF93D
CRC32 hash : 89CBF93D
CRC32 hash (skip zero) : D4BE5858
AccurateRip signature : 49F81F1A->Accurately ripped! (confidence 5)
StatisticsRead error : 0Skipped (treated as error) : 0Edge jitter error (maybe fixed) : 0Atom jitter error (maybe fixed) : 0Drift error (maybe fixed) : 0Dropped bytes error (maybe fixed) : 0Duplicated bytes error (maybe fixed) : 0Inconsistency in error sectors : 0

Track 03
Filename : /Users/MacOSX/Documents/03 - In Primo Nocturno I.flac Track gain : -1.44 dB
Peak : 0.868134
CRC32 hash (test run) : A925CFD8
CRC32 hash : A925CFD8
CRC32 hash (skip zero) : 8DC4829D
AccurateRip signature : 1CAFE3AD->Accurately ripped! (confidence 6)
StatisticsRead error : 0Skipped (treated as error) : 0Edge jitter error (maybe fixed) : 0Atom jitter error (maybe fixed) : 0Drift error (maybe fixed) : 0Dropped bytes error (maybe fixed) : 0Duplicated bytes error (maybe fixed) : 0Inconsistency in error sectors : 0

Track 04
Filename : /Users/MacOSX/Documents/04 - No la devemos dormir (villancico).flac Track gain : 0.38 dB
Peak : 0.695099
CRC32 hash (test run) : 52BBBC2C
CRC32 hash : 52BBBC2C
CRC32 hash (skip zero) : 6CD82219
AccurateRip signature : E9DE8FE8->Accurately ripped! (confidence 5)
StatisticsRead error : 0Skipped (treated as error) : 0Edge jitter error (maybe fixed) : 0Atom jitter error (maybe fixed) : 0Drift error (maybe fixed) : 0Dropped bytes error (maybe fixed) : 0Duplicated bytes error (maybe fixed) : 0Inconsistency in error sectors : 0

Track 05
Filename : /Users/MacOSX/Documents/05 - In primo nocturno II.flac Track gain : 1.49 dB
Peak : 0.615417
CRC32 hash (test run) : 57DB4B78
CRC32 hash : 57DB4B78
CRC32 hash (skip zero) : BFCE5BAA
AccurateRip signature : EF8D2F5A->Accurately ripped! (confidence 6)
StatisticsRead error : 0Skipped (treated as error) : 0Edge jitter error (maybe fixed) : 0Atom jitter error (maybe fixed) : 0Drift error (maybe fixed) : 0Dropped bytes error (maybe fixed) : 0Duplicated bytes error (maybe fixed) : 0Inconsistency in error sectors : 0

Track 06
Filename : /Users/MacOSX/Documents/06 - Si la noche haze escura.flac Track gain : -1.83 dB
Peak : 0.924438
CRC32 hash (test run) : 85CE3079
CRC32 hash : 85CE3079
CRC32 hash (skip zero) : 9EFD3449
AccurateRip signature : FFA04FE1->Accurately ripped! (confidence 5)
StatisticsRead error : 0Skipped (treated as error) : 0Edge jitter error (maybe fixed) : 0Atom jitter error (maybe fixed) : 0Drift error (maybe fixed) : 0Dropped bytes error (maybe fixed) : 0Duplicated bytes error (maybe fixed) : 0Inconsistency in error sectors : 0

Track 07
Filename : /Users/MacOSX/Documents/07 - Romance del Conde Claros.flac Track gain : -1.36 dB
Peak : 0.891144
CRC32 hash (test run) : E2090132
CRC32 hash : E2090132
CRC32 hash (skip zero) : F8FAD836
AccurateRip signature : 09BCCA73->Accurately ripped! (confidence 5)
StatisticsRead error : 0Skipped (treated as error) : 0Edge jitter error (maybe fixed) : 0Atom jitter error (maybe fixed) : 0Drift error (maybe fixed) : 0Dropped bytes error (maybe fixed) : 0Duplicated bytes error (maybe fixed) : 0Inconsistency in error sectors : 0

Track 08
Filename : /Users/MacOSX/Documents/08 - Hor che'I Ciel e la Terra (I parte).flac Track gain : -1.88 dB
Peak : 0.863037
CRC32 hash (test run) : EC0AAEC2
CRC32 hash : EC0AAEC2
CRC32 hash (skip zero) : C8889071
AccurateRip signature : F0DE1B44->Accurately ripped! (confidence 5)
StatisticsRead error : 0Skipped (treated as error) : 0Edge jitter error (maybe fixed) : 0Atom jitter error (maybe fixed) : 0Drift error (maybe fixed) : 0Dropped bytes error (maybe fixed) : 0Duplicated bytes error (maybe fixed) : 0Inconsistency in error sectors : 0

Track 09
Filename : /Users/MacOSX/Documents/09 - Cosi sol d'une chiara fonte viva ( 2 parte).flac Track gain : -2.85 dB
Peak : 0.891266
CRC32 hash (test run) : B29994C6
CRC32 hash : B29994C6
CRC32 hash (skip zero) : F77C2CA4
AccurateRip signature : ACABF5C7->Accurately ripped! (confidence 5)
StatisticsRead error : 0Skipped (treated as error) : 0Edge jitter error (maybe fixed) : 0Atom jitter error (maybe fixed) : 0Drift error (maybe fixed) : 0Dropped bytes error (maybe fixed) : 0Duplicated bytes error (maybe fixed) : 0Inconsistency in error sectors : 0

Track 10
Filename : /Users/MacOSX/Documents/10 - Nana - au rtxo txikia negarrez.flac Track gain : 0.85 dB
Peak : 0.708618
CRC32 hash (test run) : 333F3E1C
CRC32 hash : 333F3E1C
CRC32 hash (skip zero) : 3C33AC1B
AccurateRip signature : 49D4FE2B->Accurately ripped! (confidence 5)
StatisticsRead error : 0Skipped (treated as error) : 0Edge jitter error (maybe fixed) : 0Atom jitter error (maybe fixed) : 0Drift error (maybe fixed) : 0Dropped bytes error (maybe fixed) : 0Duplicated bytes error (maybe fixed) : 0Inconsistency in error sectors : 0

Track 11
Filename : /Users/MacOSX/Documents/11 - Rorro - Desvelado dueno mio.flac Track gain : -1.50 dB
Peak : 0.664825
CRC32 hash (test run) : 1FB3AC7A
CRC32 hash : 1FB3AC7A
CRC32 hash (skip zero) : 5B25521F
AccurateRip signature : D61A1186->Accurately ripped! (confidence 5)
StatisticsRead error : 0Skipped (treated as error) : 0Edge jitter error (maybe fixed) : 0Atom jitter error (maybe fixed) : 0Drift error (maybe fixed) : 0Dropped bytes error (maybe fixed) : 0Duplicated bytes error (maybe fixed) : 0Inconsistency in error sectors : 0

Track 12
Filename : /Users/MacOSX/Documents/12 - El Mariner.flac Track gain : -0.63 dB
Peak : 0.639191
CRC32 hash (test run) : 9E89D275
CRC32 hash : 9E89D275
CRC32 hash (skip zero) : 79CBBAFF
AccurateRip signature : 7DB75AAD->Accurately ripped! (confidence 6)
StatisticsRead error : 0Skipped (treated as error) : 0Edge jitter error (maybe fixed) : 0Atom jitter error (maybe fixed) : 0Drift error (maybe fixed) : 0Dropped bytes error (maybe fixed) : 0Duplicated bytes error (maybe fixed) : 0Inconsistency in error sectors : 0

Track 13
Filename : /Users/MacOSX/Documents/13 - Avec la poupee.flac Track gain : -1.41 dB
Peak : 0.848358
CRC32 hash (test run) : 27826BA0
CRC32 hash : 27826BA0
CRC32 hash (skip zero) : F025CC51
AccurateRip signature : 9E31B8A9->Accurately ripped! (confidence 6)
StatisticsRead error : 0Skipped (treated as error) : 0Edge jitter error (maybe fixed) : 0Atom jitter error (maybe fixed) : 0Drift error (maybe fixed) : 0Dropped bytes error (maybe fixed) : 0Duplicated bytes error (maybe fixed) : 0Inconsistency in error sectors : 0

Track 14
Filename : /Users/MacOSX/Documents/14 - Kuus, kuus kallike (estonian lullaby).flac Track gain : 0.17 dB
Peak : 0.962860
CRC32 hash (test run) : 7701230C
CRC32 hash : 7701230C
CRC32 hash (skip zero) : 261AD9B3
AccurateRip signature : 41B972AD->Accurately ripped! (confidence 5)
StatisticsRead error : 0Skipped (treated as error) : 0Edge jitter error (maybe fixed) : 0Atom jitter error (maybe fixed) : 0Drift error (maybe fixed) : 0Dropped bytes error (maybe fixed) : 0Duplicated bytes error (maybe fixed) : 0Inconsistency in error sectors : 0

Track 15
Filename : /Users/MacOSX/Documents/15 - Les Voix Humaines.flac Track gain : 0.66 dB
Peak : 0.621185
CRC32 hash (test run) : FAC5470D
CRC32 hash : FAC5470D
CRC32 hash (skip zero) : E5CC8437
AccurateRip signature : 925AEAC7->Accurately ripped! (confidence 6)
StatisticsRead error : 0Skipped (treated as error) : 0Edge jitter error (maybe fixed) : 0Atom jitter error (maybe fixed) : 0Drift error (maybe fixed) : 0Dropped bytes error (maybe fixed) : 0Duplicated bytes error (maybe fixed) : 0Inconsistency in error sectors : 0

Track 16
Filename : /Users/MacOSX/Documents/16 - Nana - duermete, nino, duerme.flac Track gain : -0.36 dB
Peak : 0.999176
CRC32 hash (test run) : 8FD6D052
CRC32 hash : 8FD6D052
CRC32 hash (skip zero) : ABAABE01
AccurateRip signature : B89DC374->Accurately ripped! (confidence 5)
StatisticsRead error : 0Skipped (treated as error) : 0Edge jitter error (maybe fixed) : 0Atom jitter error (maybe fixed) : 0Drift error (maybe fixed) : 0Dropped bytes error (maybe fixed) : 0Duplicated bytes error (maybe fixed) : 0Inconsistency in error sectors : 0

No errors occurred

End of status report

X Lossless Decoder version 20091202 (114.5)

XLD extraction logfile from 2009-12-09 12:39:38 +0900

Jordi Savall, Montserrat Figueras, Hesperion XXI, La Capella Reial de Catalunya, Le Concert des Nations / Invocation a la Nuit - Musica Notturna

Used drive : HL-DT-ST DVDRW GS21N (revision SA15)

Use cdparanoia mode : YES (CDParanoia III 10.2 engine)
Disable audio cache : OK for the drive with cache less than 2750KB
Make use of C2 pointers : NO
Read offset correction : 667
Max retry count : 100

TOC of the extracted CD
Track | Start | Length | Start sector | End sector
--1 | 00:00:00 | 07:15:57 | 0 | 32681 2 | 07:15:57 | 04:36:44 | 32682 | 53425 3 | 11:52:26 | 01:54:20 | 53426 | 61995 4 | 13:46:46 | 02:18:66 | 61996 | 72411 5 | 16:05:37 | 05:06:15 | 72412 | 95376 6 | 21:11:52 | 07:39:14 | 95377 | 129815 7 | 28:50:66 | 02:10:13 | 129816 | 139578 8 | 31:01:04 | 01:40:16 | 139579 | 147094 9 | 32:41:20 | 01:56:27 | 147095 | 155821
10 | 34:37:47 | 02:06:64 | 155822 | 165335
11 | 36:44:36 | 01:53:74 | 165336 | 173884
12 | 38:38:35 | 06:04:72 | 173885 | 201256
13 | 44:43:32 | 03:26:61 | 201257 | 216767
14 | 48:10:18 | 07:41:45 | 216768 | 251387
15 | 55:51:63 | 12:48:58 | 251388 | 309045
16 | 68:40:46 | 05:20:60 | 309046 | 333105

All Tracks
Album gain : -0.63 dB
Peak : 0.992310

Track 01
Filename : /Users/MacOSX/Documents/01 - Cuando el Rey Nimrod.flac Track gain : 3.50 dB
Peak : 0.695374
CRC32 hash (test run) : EC4154BC
CRC32 hash : EC4154BC
CRC32 hash (skip zero) : CC547418
AccurateRip signature : 6B8C7938->Accurately ripped! (confidence 6)
StatisticsRead error : 0Skipped (treated as error) : 0Edge jitter error (maybe fixed) : 0Atom jitter error (maybe fixed) : 0Drift error (maybe fixed) : 0Dropped bytes error (maybe fixed) : 0Duplicated bytes error (maybe fixed) : 0Inconsistency in error sectors : 0

Track 02
Filename : /Users/MacOSX/Documents/02 - Estas noches a tan largas.flac Track gain : 3.11 dB
Peak : 0.760620
CRC32 hash (test run) : CD279EB2
CRC32 hash : CD279EB2
CRC32 hash (skip zero) : A0620367
AccurateRip signature : 30CB74BC->Accurately ripped! (confidence 6)
StatisticsRead error : 0Skipped (treated as error) : 0Edge jitter error (maybe fixed) : 0Atom jitter error (maybe fixed) : 0Drift error (maybe fixed) : 0Dropped bytes error (maybe fixed) : 0Duplicated bytes error (maybe fixed) : 0Inconsistency in error sectors : 0

Track 03
Filename : /Users/MacOSX/Documents/03 - Lullabie (Galliard).flac Track gain : 0.64 dB
Peak : 0.715912
CRC32 hash (test run) : 16B0227C
CRC32 hash : 16B0227C
CRC32 hash (skip zero) : D647A029
AccurateRip signature : 50C108F7->Accurately ripped! (confidence 6)
StatisticsRead error : 0Skipped (treated as error) : 0Edge jitter error (maybe fixed) : 0Atom jitter error (maybe fixed) : 0Drift error (maybe fixed) : 0Dropped bytes error (maybe fixed) : 0Duplicated bytes error (maybe fixed) : 0Inconsistency in error sectors : 0

Track 04
Filename : /Users/MacOSX/Documents/04 - Tha Night Watch (Almaine).flac Track gain : 0.78 dB
Peak : 0.628815
CRC32 hash (test run) : 04DD2D0F
CRC32 hash : 04DD2D0F
CRC32 hash (skip zero) : 0BCD410E
AccurateRip signature : CC7B5CC6->Accurately ripped! (confidence 6)
StatisticsRead error : 0Skipped (treated as error) : 0Edge jitter error (maybe fixed) : 0Atom jitter error (maybe fixed) : 0Drift error (maybe fixed) : 0Dropped bytes error (maybe fixed) : 0Duplicated bytes error (maybe fixed) : 0Inconsistency in error sectors : 0

Track 05
Filename : /Users/MacOSX/Documents/05 - Nuit.flac Track gain : 1.17 dB
Peak : 0.794281
CRC32 hash (test run) : B6A14367
CRC32 hash : B6A14367
CRC32 hash (skip zero) : 3362B5BF
AccurateRip signature : 15EB7193->Accurately ripped! (confidence 6)
StatisticsRead error : 0Skipped (treated as error) : 0Edge jitter error (maybe fixed) : 0Atom jitter error (maybe fixed) : 0Drift error (maybe fixed) : 0Dropped bytes error (maybe fixed) : 0Duplicated bytes error (maybe fixed) : 0Inconsistency in error sectors : 0

Track 06
Filename : /Users/MacOSX/Documents/06 - La Reveuse.flac Track gain : 5.03 dB
Peak : 0.567535
CRC32 hash (test run) : F51B6430
CRC32 hash : F51B6430
CRC32 hash (skip zero) : D445A585
AccurateRip signature : BD410816->Accurately ripped! (confidence 6)
StatisticsRead error : 0Skipped (treated as error) : 0Edge jitter error (maybe fixed) : 0Atom jitter error (maybe fixed) : 0Drift error (maybe fixed) : 0Dropped bytes error (maybe fixed) : 0Duplicated bytes error (maybe fixed) : 0Inconsistency in error sectors : 0

Track 07
Filename : /Users/MacOSX/Documents/07 - A Dance for the Followers of Night.flac Track gain : 0.48 dB
Peak : 0.850952
CRC32 hash (test run) : 110ABF6F
CRC32 hash : 110ABF6F
CRC32 hash (skip zero) : BBA2127F
AccurateRip signature : 4D79F27D->Accurately ripped! (confidence 6)
StatisticsRead error : 0Skipped (treated as error) : 0Edge jitter error (maybe fixed) : 0Atom jitter error (maybe fixed) : 0Drift error (maybe fixed) : 0Dropped bytes error (maybe fixed) : 0Duplicated bytes error (maybe fixed) : 0Inconsistency in error sectors : 0

Track 08
Filename : /Users/MacOSX/Documents/08 - Prelude (The Fairy Queen).flac Track gain : 2.47 dB
Peak : 0.416199
CRC32 hash (test run) : DB3402F2
CRC32 hash : DB3402F2
CRC32 hash (skip zero) : 576F4B2F
AccurateRip signature : 0E11E2B7->Accurately ripped! (confidence 6)
StatisticsRead error : 0Skipped (treated as error) : 0Edge jitter error (maybe fixed) : 0Atom jitter error (maybe fixed) : 0Drift error (maybe fixed) : 0Dropped bytes error (maybe fixed) : 0Duplicated bytes error (maybe fixed) : 0Inconsistency in error sectors : 0

Track 09
Filename : /Users/MacOSX/Documents/09 - A Fairies Dance.flac Track gain : 2.05 dB
Peak : 0.661926
CRC32 hash (test run) : 9CC7FEAE
CRC32 hash : 9CC7FEAE
CRC32 hash (skip zero) : 9FD48DA7
AccurateRip signature : 4C527650->Accurately ripped! (confidence 6)
StatisticsRead error : 0Skipped (treated as error) : 0Edge jitter error (maybe fixed) : 0Atom jitter error (maybe fixed) : 0Drift error (maybe fixed) : 0Dropped bytes error (maybe fixed) : 0Duplicated bytes error (maybe fixed) : 0Inconsistency in error sectors : 0

Track 10
Filename : /Users/MacOSX/Documents/10 - Prelude de l'Acte troisieme.flac Track gain : 2.71 dB
Peak : 0.578247
CRC32 hash (test run) : 9AA5E4D3
CRC32 hash : 9AA5E4D3
CRC32 hash (skip zero) : 937733E5
AccurateRip signature : C4B5EB37->Accurately ripped! (confidence 6)
StatisticsRead error : 0Skipped (treated as error) : 0Edge jitter error (maybe fixed) : 0Atom jitter error (maybe fixed) : 0Drift error (maybe fixed) : 0Dropped bytes error (maybe fixed) : 0Duplicated bytes error (maybe fixed) : 0Inconsistency in error sectors : 0

Track 11
Filename : /Users/MacOSX/Documents/11 - Symphonie pour le Sommeil.flac Track gain : 0.98 dB
Peak : 0.696838
CRC32 hash (test run) : 7364AFE4
CRC32 hash : 7364AFE4
CRC32 hash (skip zero) : DF65FB97
AccurateRip signature : FDE40FD1->Accurately ripped! (confidence 6)
StatisticsRead error : 0Skipped (treated as error) : 0Edge jitter error (maybe fixed) : 0Atom jitter error (maybe fixed) : 0Drift error (maybe fixed) : 0Dropped bytes error (maybe fixed) : 0Duplicated bytes error (maybe fixed) : 0Inconsistency in error sectors : 0

Track 12
Filename : /Users/MacOSX/Documents/12 - Air de la 3e Suite, BWV 1068.flac Track gain : 2.96 dB
Peak : 0.718872
CRC32 hash (test run) : 12D7E22E
CRC32 hash : 12D7E22E
CRC32 hash (skip zero) : CEFDDFB8
AccurateRip signature : 9F2FA879->Accurately ripped! (confidence 6)
StatisticsRead error : 0Skipped (treated as error) : 0Edge jitter error (maybe fixed) : 0Atom jitter error (maybe fixed) : 0Drift error (maybe fixed) : 0Dropped bytes error (maybe fixed) : 0Duplicated bytes error (maybe fixed) : 0Inconsistency in error sectors : 0

Track 13
Filename : /Users/MacOSX/Documents/13 - La Paix - Largo alla Siciliana.flac Track gain : -1.20 dB
Peak : 0.687469
CRC32 hash (test run) : 44243DCC
CRC32 hash : 44243DCC
CRC32 hash (skip zero) : 92D15E43
AccurateRip signature : A32FB03F->Accurately ripped! (confidence 6)
StatisticsRead error : 0Skipped (treated as error) : 0Edge jitter error (maybe fixed) : 0Atom jitter error (maybe fixed) : 0Drift error (maybe fixed) : 0Dropped bytes error (maybe fixed) : 0Duplicated bytes error (maybe fixed) : 0Inconsistency in error sectors : 0

Track 14
Filename : /Users/MacOSX/Documents/14 - Sonata VI. Lento.flac Track gain : -1.35 dB
Peak : 0.902649
CRC32 hash (test run) : EE7CDA1C
CRC32 hash : EE7CDA1C
CRC32 hash (skip zero) : B50DE1C0
AccurateRip signature : 944C9CB1->Accurately ripped! (confidence 6)
StatisticsRead error : 0Skipped (treated as error) : 0Edge jitter error (maybe fixed) : 0Atom jitter error (maybe fixed) : 0Drift error (maybe fixed) : 0Dropped bytes error (maybe fixed) : 0Duplicated bytes error (maybe fixed) : 0Inconsistency in error sectors : 0

Track 15
Filename : /Users/MacOSX/Documents/15 - Marcia Funebre, Adagio assai.flac Track gain : -3.88 dB
Peak : 0.976898
CRC32 hash (test run) : B2CF8D17
CRC32 hash : B2CF8D17
CRC32 hash (skip zero) : 046C3395
AccurateRip signature : F9FDBA5F->Accurately ripped! (confidence 6)
StatisticsRead error : 0Skipped (treated as error) : 0Edge jitter error (maybe fixed) : 0Atom jitter error (maybe fixed) : 0Drift error (maybe fixed) : 0Dropped bytes error (maybe fixed) : 0Duplicated bytes error (maybe fixed) : 0Inconsistency in error sectors : 0

Track 16
Filename : /Users/MacOSX/Documents/16 - Maurerische Trauermusik, K 477.flac Track gain : -2.69 dB
Peak : 0.992310
CRC32 hash (test run) : 7184A38D
CRC32 hash : 7184A38D
CRC32 hash (skip zero) : 9484455E
AccurateRip signature : 529EFC80->Accurately ripped! (confidence 6)
StatisticsRead error : 0Skipped (treated as error) : 0Edge jitter error (maybe fixed) : 0Atom jitter error (maybe fixed) : 0Drift error (maybe fixed) : 0Dropped bytes error (maybe fixed) : 0Duplicated bytes error (maybe fixed) : 0Inconsistency in error sectors : 0

No errors occurred

End of status report

Jordi Savall & Hesperion XXI - Invocation a la Nuit - Musica Notturna (2008) [2CD] {10 Alia Vox Anniversary}

DOWNLOAD LINKS
Buy Premium From My Links To Get Resumable Support & Max Speed & To Support Me

Rapidgator.net:
http://rapidgator.net/file/57452419ba4f2e3a29af4aca845e9e85/449u6.savallinvocationARTWORK.rar.html
http://rapidgator.net/file/4baa7b03b8873631411dd6596a16d4c7/449u6.savallinvocationCD1.part1.rar.html
http://rapidgator.net/file/955513ef3e996aeead2b1fe4bc541cdb/449u6.savallinvocationCD1.part2.rar.html
http://rapidgator.net/file/842ba3143b12b506728f992c428317d0/449u6.savallinvocationCD1MP.rar.html
http://rapidgator.net/file/e4c816abfca603d35703414edb002fac/449u6.savallinvocationCD2.part1.rar.html
http://rapidgator.net/file/ea00259ab5d1dc5a159e832c37437506/449u6.savallinvocationCD2.part2.rar.html
http://rapidgator.net/file/70a766f1c57d014a293105d86bac79a9/449u6.savallinvocationCD2MP.rar.html

Uploaded.net:
http://uploaded.net/file/cyjx13z0/449u6.savallinvocationARTWORK.rar
http://uploaded.net/file/iu2lf4l1/449u6.savallinvocationCD1.part1.rar
http://uploaded.net/file/99mw0pjp/449u6.savallinvocationCD1.part2.rar
http://uploaded.net/file/bfcy80sr/449u6.savallinvocationCD1MP.rar
http://uploaded.net/file/12183x64/449u6.savallinvocationCD2.part1.rar
http://uploaded.net/file/0os6aetx/449u6.savallinvocationCD2.part2.rar
http://uploaded.net/file/wlhoi1sy/449u6.savallinvocationCD2MP.rar

Uploadable.ch:
http://www.uploadable.ch/file/wFfPA9DA9aax/449u6.savallinvocationARTWORK.rar
http://www.uploadable.ch/file/XGgejgAKrnwz/449u6.savallinvocationCD1.part1.rar
http://www.uploadable.ch/file/gtNTZhczvbtn/449u6.savallinvocationCD1.part2.rar
http://www.uploadable.ch/file/cvpsttzXKPHG/449u6.savallinvocationCD1MP.rar
http://www.uploadable.ch/file/PEYdcGNZnK9p/449u6.savallinvocationCD2.part1.rar
http://www.uploadable.ch/file/mrmBQFd6sWuc/449u6.savallinvocationCD2.part2.rar
http://www.uploadable.ch/file/6beM8khNzkXA/449u6.savallinvocationCD2MP.rar

Links are Interchangeable - No Password - Single Extraction
Direct Download

Tags: Savall, Hesperion, Invocation, Musica, Notturna, Anniversary

Jordi Savall & Hesperion XXI - Invocation a la Nuit - Musica Notturna (2008) [2CD] {10 Alia Vox Anniversary} Download via Hotfile Rapidshare Fileserve Megaupload & FileSonic, Jordi Savall & Hesperion XXI - Invocation a la Nuit - Musica Notturna (2008) [2CD] {10 Alia Vox Anniversary} free torrent downloads included crack, serial, keygen.Jordi Savall & Hesperion XXI - Invocation a la Nuit - Musica Notturna (2008) [2CD] {10 Alia Vox Anniversary} Fast Download via Rapidshare Hotfile Fileserve Filesonic Megaupload, Jordi Savall & Hesperion XXI - Invocation a la Nuit - Musica Notturna (2008) [2CD] {10 Alia Vox Anniversary} Torrents and Emule Download or anything related.
Leave a Comment
Your Name:
E-Mail:
Add Comments:

Enter Code: