Nine Stones Close - Traces (2010) [2CD Limited Edition]

Download Now

Nine Stones Close - Traces (2010) [2CD Limited Edition]

Nine Stones Close - Traces (2010) [2CD Limited Edition]
EAC Rip | FLAC (tracks+.cue+log) - 453 MB | MP3 CBR 320 kbps (LAME 3.93) - 183 MB | Covers - 80 MB
Genre: Progressive Rock | RAR 3% Rec. | Label: Self-released

"Nine Stones Close was conceived in 2008 as a solo project by Adrian Jones (Numb, Lie Big) and independently released the first CD, St Lo, in the Netherlands. After heavy airplay on The Rogues' Gallery on The Dividing Line Network he received an outpouring of critical acclaim and visibility which inspired the 2010 follow up "Traces". The project grew into a band for Traces when Adrian joined up with Brendan Eyre (Riversea), Marc Atkinson (Mandalaband, Riversea), and Neil Quarrell. Geoff Barton even listed Traces in his top 20 albums of 2011 in Classic Rock Presents Prog! "One Eye on the Sunrise" sees a further evolution of the band with returning members Marc Atkinson and Brendan Eyre now joined by Peter Vink (Q65/Ayreon/Star One/Finch) and Pieter van Hoorn (Knight Area)."

CD 1 Tracklist (Traces):
01. Reality Check
02. Threads
03. Falling To Pieces
04. Traces
05. Thicker Than Water

Total time: 43:51

CD 2 Tracklist (Re-Traced):
01. Innersense (Acoustic)
02. Threads (Rewoven)
03. Traces (Reconstructed)
04. Thicker Than Water (Instrumental mix)
05. Threads (Alternate, Hidden track)

Total time: 33:59

Exact Audio Copy V1.0 beta 3 from 29. August 2011

EAC extraction logfile from 2. July 2015, 22:37

Nine Stones Close / Traces

Used drive : _NEC DVD_RW ND-3540A Adapter: 1 ID: 0

Read mode : Secure
Utilize accurate stream : Yes
Defeat audio cache : Yes
Make use of C2 pointers : No

Read offset correction

: 48
Overread into Lead-In and Lead-Out : No
Fill up missing offset samples with silence : Yes
Delete leading and trailing silent blocks : No
Null samples used in CRC calculations : Yes
Used interface
: Native Win32 interface for Win NT & 2000
Gap handling
: Appended to previous track

Used output format : User Defined Encoder
Selected bitrate : 1024 kBit/s
Quality : High
Add ID3 tag : Yes
Command line compressor : C:\Program Files (x86)\Exact Audio Copy\FLAC\FLAC.EXE
Additional command line options : -6 -V -T "ARTIST=%artist%" -T "TITLE=%title%" -T "ALBUM=%albumtitle%" -T "DATE=%year%" -T "TRACKNUMBER=%tracknr%" -T "GENRE=%genre%" -T "COMMENT=%comment%" %hascover%--picture="%coverfile%"%hascover% %source% -o %dest%

TOC of the extracted CD Track | Start | Length | Start sector | End sector
--1 | 0:00.00 | 4:55.74 | 0 | 22198 2 | 4:55.74 | 10:30.04 | 22199 | 69452 3 | 15:26.03 | 6:16.29 | 69453 | 97681 4 | 21:42.32 | 7:19.35 | 97682 | 130641 5 | 29:01.67 | 14:49.15 | 130642 | 197331

Track 1 Filename F:\Music\olaf_alien\Nine Stones Close - Traces (2010) [Limited Edition with Bonus Disc]\Traces\01 - Reality Check.wav Pre-gap length 0:00:02.00 Peak level 96.0 %
Extraction speed 4.5 X
Track quality 100.0 %
Test CRC B6605502
Copy CRC B6605502
Accurately ripped (confidence 4) [7D8A8EB4] (AR v2)
Copy OK

Track 2 Filename F:\Music\olaf_alien\Nine Stones Close - Traces (2010) [Limited Edition with Bonus Disc]\Traces\02 - Threads.wav Peak level 96.0 %
Extraction speed 5.7 X
Track quality 100.0 %
Test CRC 5EBB3F6E
Copy CRC 5EBB3F6E
Accurately ripped (confidence 4) [ED777503] (AR v2)
Copy OK

Track 3 Filename F:\Music\olaf_alien\Nine Stones Close - Traces (2010) [Limited Edition with Bonus Disc]\Traces\03 - Falling to Pieces.wav Peak level 96.0 %
Extraction speed 6.3 X
Track quality 100.0 %
Test CRC C91B72F9
Copy CRC C91B72F9
Accurately ripped (confidence 4) [3B2C9687] (AR v2)
Copy OK

Track 4 Filename F:\Music\olaf_alien\Nine Stones Close - Traces (2010) [Limited Edition with Bonus Disc]\Traces\04 - Traces.wav Pre-gap length 0:00:02.00 Peak level 96.0 %
Extraction speed 6.9 X
Track quality 100.0 %
Test CRC 169F4352
Copy CRC 169F4352
Accurately ripped (confidence 4) [6D129915] (AR v2)
Copy OK

Track 5 Filename F:\Music\olaf_alien\Nine Stones Close - Traces (2010) [Limited Edition with Bonus Disc]\Traces\05 - Thicker Than Water.wav Pre-gap length 0:00:02.00 Peak level 96.0 %
Extraction speed 8.0 X
Track quality 100.0 %
Test CRC 3BFB9BCB
Copy CRC 3BFB9BCB
Accurately ripped (confidence 4) [7463573B] (AR v2)
Copy OK

All tracks accurately ripped

No errors occurred

End of status report

==== Log checksum B065233D5820C0DA0E2EFF6E49CD4F853EC7EAC5BACABB0C9B792550EBAE9779 ====

[CUETools log; Date: 21.08.2015 19:18:05; Version: 2.1.4]
[CTDB TOCID: .VcfMy1AY3CGIP2SDYmKmrW_uLw-] found.
Track | CTDB Status
1 | (6/6) Accurately ripped
2 | (6/6) Accurately ripped
3 | (6/6) Accurately ripped
4 | (6/6) Accurately ripped
5 | (6/6) Accurately ripped
[AccurateRip ID: 0007e4bc-0025da30-3e0a4705] found.
Track [ CRC | V2 ] Status
01 [8d72a11c|7d8a8eb4] (02+05/14) Accurately ripped
02 [915718ca|ed777503] (02+05/13) Accurately ripped
03 [e372a6b9|3b2c9687] (02+05/13) Accurately ripped
04 [cc6936c3|6d129915] (02+05/13) Accurately ripped
05 [dde97cf6|7463573b] (02+05/13) Accurately ripped
Offsetted by -60:
01 [8fed63b1] (00/14) No match (V2 was not tested)
02 [5ad808a7] (00/13) No match (V2 was not tested)
03 [7809f73a] (00/13) No match (V2 was not tested)
04 [4df38b43] (00/13) No match (V2 was not tested)
05 [dc8ac523] (00/13) No match (V2 was not tested)
Offsetted by -54:
01 [07337dcc] (00/14) No match (V2 was not tested)
02 [a9f6e91f] (00/13) No match (V2 was not tested)
03 [89d88666] (00/13) No match (V2 was not tested)
04 [2765b603] (00/13) No match (V2 was not tested)
05 [a4db9d80] (00/13) No match (V2 was not tested)

Track Peak [ CRC32 ] [W/O NULL] [ LOG ]
-- 96,0 [F67FC71A] [AA5F44AB]
01 96,0 6605502 [360ED590] CRC32
02 96,0 [5EBB3F6E] [E1FAB0BC] CRC32
03 96,0 [C91B72F9] [E73DB1B0] CRC32
04 96,0 [169F4352] [04DB6D4A] CRC32
05 96,0 [3BFB9BCB] [186AE44F] CRC32

Exact Audio Copy V1.0 beta 3 from 29. August 2011

EAC extraction logfile from 2. July 2015, 23:01

Nine Stones Close / Re-Traced

Used drive : _NEC DVD_RW ND-3540A Adapter: 1 ID: 0

Read mode : Secure
Utilize accurate stream : Yes
Defeat audio cache : Yes
Make use of C2 pointers : No

Read offset correction

: 48
Overread into Lead-In and Lead-Out : No
Fill up missing offset samples with silence : Yes
Delete leading and trailing silent blocks : No
Null samples used in CRC calculations : Yes
Used interface
: Native Win32 interface for Win NT & 2000
Gap handling
: Appended to previous track

Used output format : User Defined Encoder
Selected bitrate : 1024 kBit/s
Quality : High
Add ID3 tag : Yes
Command line compressor : C:\Program Files (x86)\Exact Audio Copy\FLAC\FLAC.EXE
Additional command line options : -6 -V -T "ARTIST=%artist%" -T "TITLE=%title%" -T "ALBUM=%albumtitle%" -T "DATE=%year%" -T "TRACKNUMBER=%tracknr%" -T "GENRE=%genre%" -T "COMMENT=%comment%" %hascover%--picture="%coverfile%"%hascover% %source% -o %dest%

TOC of the extracted CD Track | Start | Length | Start sector | End sector
--1 | 0:00.00 | 4:30.00 | 0 | 20249 2 | 4:30.00 | 5:40.46 | 20250 | 45795 3 | 10:10.46 | 4:50.46 | 45796 | 67591 4 | 15:01.17 | 15:01.56 | 67592 | 135222 5 | 30:02.73 | 3:56.09 | 135223 | 152931

Track 1 Filename F:\Music\olaf_alien\Nine Stones Close - Traces (2010) [Limited Edition with Bonus Disc]\Re-Traced (Bonus CD)\01 - Innersense (Acoustic).wav Pre-gap length 0:00:02.00 Peak level 96.0 %
Extraction speed 5.0 X
Track quality 100.0 %
Test CRC DB5300D4
Copy CRC DB5300D4
Accurately ripped (confidence 1) [5F6E27BB] (AR v2)
Copy OK

Track 2 Filename F:\Music\olaf_alien\Nine Stones Close - Traces (2010) [Limited Edition with Bonus Disc]\Re-Traced (Bonus CD)\02 - Threads (Rewoven).wav Pre-gap length 0:00:02.00 Peak level 96.0 %
Extraction speed 4.9 X
Track quality 99.9 %
Test CRC EE0031C0
Copy CRC EE0031C0
Accurately ripped (confidence 1) [0ACA5B9B] (AR v2)
Copy OK

Track 3 Filename F:\Music\olaf_alien\Nine Stones Close - Traces (2010) [Limited Edition with Bonus Disc]\Re-Traced (Bonus CD)\03 - Traces (Reconstructed).wav Pre-gap length 0:00:02.00 Peak level 96.0 %
Extraction speed 6.1 X
Track quality 100.0 %
Test CRC 9160386B
Copy CRC 9160386B
Accurately ripped (confidence 1) [60102BA7] (AR v2)
Copy OK

Track 4 Filename F:\Music\olaf_alien\Nine Stones Close - Traces (2010) [Limited Edition with Bonus Disc]\Re-Traced (Bonus CD)\04 - Thicker Than Water (Instrumental mix).wav Pre-gap length 0:00:02.00 Peak level 96.0 %
Extraction speed 7.6 X
Track quality 100.0 %
Test CRC 31B81327
Copy CRC 31B81327
Accurately ripped (confidence 1) [C16A224F] (AR v2)
Copy OK

Track 5 Filename F:\Music\olaf_alien\Nine Stones Close - Traces (2010) [Limited Edition with Bonus Disc]\Re-Traced (Bonus CD)\05 - Threads (Alternate, Hidden track).wav Pre-gap length 0:00:10.00 Peak level 96.0 %
Extraction speed 7.6 X
Track quality 100.0 %
Test CRC B4A6BE0B
Copy CRC B4A6BE0B
Accurately ripped (confidence 1) [CE65BB90] (AR v2)
Copy OK

All tracks accurately ripped

No errors occurred

End of status report

==== Log checksum 25311AA9192F7D33838FF39DA5F5C79C0EA4C4BB323A57E2211615CF13DF908F ====

[CUETools log; Date: 21.08.2015 19:17:25; Version: 2.1.4]
[CTDB TOCID: VQB7TVc1jpZX1DGpLm1B.tGMjUQ-] disk not present in database.
[AccurateRip ID: 00066fa1-001f286c-2f07f705] found.
Track [ CRC | V2 ] Status
01 [862219f9|5f6e27bb] (0+2/2) Accurately ripped
02 [674387f7|0aca5b9b] (0+2/2) Accurately ripped
03 [056f5edd|60102ba7] (0+2/2) Accurately ripped
04 [33c9ef49|c16a224f] (0+2/2) Accurately ripped
05 [6fbd8feb|ce65bb90] (0+2/2) Accurately ripped

Track Peak [ CRC32 ] [W/O NULL] [ LOG ]
-- 96,0 [6FC815DC] [A7484FE9]
01 96,0 [DB5300D4] [3669EE47] CRC32
02 96,0 [EE0031C0] [0216E58A] CRC32
03 96,0 [9160386B] [CC8B4AF2] CRC32
04 96,0 [31B81327] [270610E0] CRC32
05 96,0 4A6BE0B [DC772A52] CRC32
Thanks to olaf_alien

See also:
DOWNLOAD LINKS
Buy Premium From My Links To Get Resumable Support & Max Speed & To Support Me


Links are Interchangeable - No Password - Single Extraction
Direct Download

Tags: Stones, Traces, Limited

Nine Stones Close - Traces (2010) [2CD Limited Edition] Download via Hotfile Rapidshare Fileserve Megaupload & FileSonic, Nine Stones Close - Traces (2010) [2CD Limited Edition] free torrent downloads included crack, serial, keygen.Nine Stones Close - Traces (2010) [2CD Limited Edition] Fast Download via Rapidshare Hotfile Fileserve Filesonic Megaupload, Nine Stones Close - Traces (2010) [2CD Limited Edition] Torrents and Emule Download or anything related.
Leave a Comment
Your Name:
E-Mail:
Add Comments:

Enter Code: