The Runaways - Selftitled Album (1976) [SHM-CD '2011] RESTORED

Download Now


The Runaways - Selftitled Album (1976) [SHM-CD '2011] RESTORED
The Runaways - The Runaways (1976) [SHM-CD '2011]
FLAC+CUE+LOG or MP3 CBR 320 | Complete Scanwork | 237 or 74 MB
Based on Japanese 24-bit Remaster '2006s

When the Runaways debuted in 1976 with this self-titled LP, aggressive female rockers were the exception instead of the rule. With this album, the Runaways made it crystal clear that women (or specifically, adolescent girls) were more than capable of playing intense, forceful hard rock that went directly for the jugular...
Tracklist:

01. Cherry Bomb
02. You Drive Me Wild
03. Is It Day Or Night
04. Thunder
05. Rock And Roll
06. Lovers
07. American Nights
08. Blackmail
09. Secrets
10. Dead End Justice

Exact Audio Copy V1.0 beta 1 from 15. November 2010

EAC extraction logfile from 19. January 2012, 23:13

The Runaways / The Runaways (SHM-CD)

Used drive : PIONEER DVD-RW DVR-219L Adapter: 6 ID: 0

Read mode : Secure
Utilize accurate stream : Yes
Defeat audio cache : Yes
Make use of C2 pointers : No

Read offset correction

: 6
Overread into Lead-In and Lead-Out : No
Fill up missing offset samples with silence : Yes
Delete leading and trailing silent blocks : No
Null samples used in CRC calculations : Yes
Used interface
: Installed external ASPI interface

Used output format : Internal WAV Routines
Sample format : 44.100 Hz; 16 Bit; Stereo

TOC of the extracted CD Track | Start | Length | Start sector | End sector
--1 | 0:00.00 | 2:19.50 | 0 | 10474 2 | 2:19.50 | 3:21.71 | 10475 | 25620 3 | 5:41.46 | 2:47.48 | 25621 | 38193 4 | 8:29.19 | 2:36.32 | 38194 | 49925 5 | 11:05.51 | 3:20.40 | 49926 | 64965 6 | 14:26.16 | 2:09.50 | 64966 | 74690 7 | 16:35.66 | 3:15.63 | 74691 | 89378 8 | 19:51.54 | 2:42.17 | 89379 | 101545 9 | 22:33.71 | 2:46.40 | 101546 | 114035
10 | 25:20.36 | 7:03.02 | 114036 | 145762

Range status and errors

Selected range Filename C:\_www.AvaxHome.ru\The Runaways - Selftitled Album (1976) [SHM-CD '2011]\The Runaways - The Runaways (UICY-25090).wav Peak level 99.9 %
Extraction speed 1.3 X
Range quality 100.0 %
Test CRC 6A787E78
Copy CRC 6A787E78
Copy OK

No errors occurred


AccurateRip summary

Track 1 accurately ripped (confidence 2) [A8886DD4]
Track 2 accurately ripped (confidence 2) [1AD20DA5]
Track 3 accurately ripped (confidence 2) [C637F797]
Track 4 accurately ripped (confidence 2) [65927FE3]
Track 5 accurately ripped (confidence 2) [205412E6]
Track 6 accurately ripped (confidence 2) [A5BC0E65]
Track 7 accurately ripped (confidence 2) [A57A583B]
Track 8 accurately ripped (confidence 2) [7BBD9986]
Track 9 accurately ripped (confidence 2) C71B384
Track 10 accurately ripped (confidence 2) [6ABD660F]

All tracks accurately ripped

End of status report

==== Log checksum 40A11B4510E585B8D1BFE4A73DE4F361D8219A4446A99B7C30B97290E85E505F ====

all songs arranged by The Runaways, Scott Anderson & Kim Fowley
Produced and Directed by Kim Fowley. Recorded at Fidelity Recorders Studio City, CA.
24 bit Remaster 2006 - Mastering Engineer: Hitoshi Takiguchi (Universal Mastering Studios).

* Cherie Currie - lead vocals, piano
* Joan Jett - rhythm guitar, vocals
* Lita Ford - lead guitar
* Jackie Fox - bass, backing vocals
* Sandy West - drums, backing vocals

Original Release Date: June 1, 1976
This CD Re-released: November 9, 2011
Format: Original Recording Remastered
Label: Universal Japan
Catalog No.: UICY-25090
DOWNLOAD LINKS
Buy Premium From My Links To Get Resumable Support & Max Speed & To Support Me


Links are Interchangeable - No Password - Single Extraction
Direct Download

Tags: Runaways, Selftitled, RESTORED

The Runaways - Selftitled Album (1976) [SHM-CD '2011] RESTORED Download via Hotfile Rapidshare Fileserve Megaupload & FileSonic, The Runaways - Selftitled Album (1976) [SHM-CD '2011] RESTORED free torrent downloads included crack, serial, keygen.The Runaways - Selftitled Album (1976) [SHM-CD '2011] RESTORED Fast Download via Rapidshare Hotfile Fileserve Filesonic Megaupload, The Runaways - Selftitled Album (1976) [SHM-CD '2011] RESTORED Torrents and Emule Download or anything related.
Leave a Comment
Your Name:
E-Mail:
Add Comments:

Enter Code: