The Bill Evans Trio - I Will Say Goodbye (1977) {2012 Japan SHM-CD Mini LP 24-96 Remaster}

Download Now


The Bill Evans Trio - I Will Say Goodbye (1977) {2012 Japan SHM-CD Mini LP 24-96 Remaster}
The Bill Evans Trio - I Will Say Goodbye (1977) {2012 Japan SHM-CD Mini LP 24-96 Remaster}
EAC rip (secure mode) | FLAC (tracks)+CUE+LOG -> 220 Mb | MP3 @320 -> 111 Mb
Full Artwork @ 600 dpi (png) -> 213 Mb | 5% repair rar | 24-96 remaster
© 2012 Fantasy / Concord / Universal Japan | UCCO-90131
Jazz / Post Bop / Modal Music / Piano

"Cardboard sleeve (mini LP) reissue from Bill Evans featuring the high-fidelity SHM-CD format (compatible with standard CD players) and the latest 24bit/96kHz digital remastering. Comes with bonus track(s). Part of a 5-album Bill Evans SHM-CD cardboard sleeve reissue series featuring albums "I Will Say Goodbye," "Alone (Again)," "Intuition," "Re: Person I Knew," and "Jazzhouse." The title refers to the Michel Legrand piece performed twice on the date, and to the fact that pianist Bill Evans was on the verge of switching labels from Fantasy to Warner Bros."

The Bill Evans Trio - I Will Say Goodbye (1977) {2012 Japan SHM-CD Mini LP 24-96 Remaster}


Personnel:
Bill Evans - piano
Eddie Gomez - bass
Eliot Zigmund - drums

tracklist:
01 - I Will Say Goodbye
02 - Dolphin Dance
03 - Seascape
04 - Peau Douce
05 - I Will Say Goodbye (Take 2)
06 - The Opener
07 - Quiet Light
08 - A House Is Not A Home
09 - Nobody Else But Me (bonus track)
10 - Orson's Theme (bonus track)

Exact Audio Copy V1.1 from 23. June 2015

EAC extraction logfile from 11. August 2015, 19:47

The Bill Evans Trio / I Will Say Goodbye

Used drive : TSSTcorpCDDVDW SE-208DB Adapter: 7 ID: 0

Read mode : Secure
Utilize accurate stream : Yes
Defeat audio cache : Yes
Make use of C2 pointers : No

Read offset correction

: 6
Overread into Lead-In and Lead-Out : No
Fill up missing offset samples with silence : Yes
Delete leading and trailing silent blocks : No
Null samples used in CRC calculations : Yes
Used interface
: Installed external ASPI interface
Gap handling
: Appended to previous track

Used output format : User Defined Encoder
Selected bitrate : 1024 kBit/s
Quality : High
Add ID3 tag : No
Command line compressor : C:\Program Files (x86)\FLAC Frontend\tools\flac.exe
Additional command line options : -8 -V -T "ARTIST=%artist%" -T "TITLE=%title%" -T "ALBUM=%albumtitle%" -T "DATE=%year%" -T "TRACKNUMBER=%tracknr%" -T "TOTALTRACKS=%numtracks%" -T "GENRE=%genre%" -T "ALBUMARTIST=%albumartist%" -T "ALBUM ARTIST=%albumartist%" -T "COMMENT=EAC Secure Mode, Test & Copy, AccurateRip, FLAC -8" %source%

TOC of the extracted CD Track | Start | Length | Start sector | End sector
--1 | 0:00.00 | 3:31.15 | 0 | 15839 2 | 3:31.15 | 6:03.48 | 15840 | 43112 3 | 9:34.63 | 5:23.30 | 43113 | 67367 4 | 14:58.18 | 4:19.10 | 67368 | 86802 5 | 19:17.28 | 4:50.49 | 86803 | 108601 6 | 24:08.02 | 6:12.40 | 108602 | 136541 7 | 30:20.42 | 2:29.15 | 136542 | 147731 8 | 32:49.57 | 4:39.73 | 147732 | 168729 9 | 37:29.55 | 5:06.12 | 168730 | 191691
10 | 42:35.67 | 3:47.31 | 191692 | 208747

Track 1 Filename M:\_EAC\The Bill Evans Trio - I Will Say Goodbye (1977) [FLAC] {2012 Japan SHM-CD Mini LP 24-96 Remaster}\01 - I Will Say Goodbye.wav Pre-gap length 0:00:02.00 Peak level 42.5 %
Extraction speed 0.9 X
Track quality 100.0 %
Test CRC 7DA5CB20
Copy CRC 7DA5CB20
Accurately ripped (confidence 1) [687BDDDA] (AR v2)
Copy OK

Track 2 Filename M:\_EAC\The Bill Evans Trio - I Will Say Goodbye (1977) [FLAC] {2012 Japan SHM-CD Mini LP 24-96 Remaster}\02 - Dolphin Dance.wav Pre-gap length 0:00:01.45 Peak level 92.8 %
Extraction speed 1.1 X
Track quality 100.0 %
Test CRC 4D8089FB
Copy CRC 4D8089FB
Accurately ripped (confidence 1) [164338DC] (AR v2)
Copy OK

Track 3 Filename M:\_EAC\The Bill Evans Trio - I Will Say Goodbye (1977) [FLAC] {2012 Japan SHM-CD Mini LP 24-96 Remaster}\03 - Seascape.wav Pre-gap length 0:00:01.30 Peak level 61.8 %
Extraction speed 1.2 X
Track quality 100.0 %
Test CRC 1CE42635
Copy CRC 1CE42635
Accurately ripped (confidence 1) [345BC4ED] (AR v2)
Copy OK

Track 4 Filename M:\_EAC\The Bill Evans Trio - I Will Say Goodbye (1977) [FLAC] {2012 Japan SHM-CD Mini LP 24-96 Remaster}\04 - Peau Douce.wav Pre-gap length 0:00:01.40 Peak level 72.5 %
Extraction speed 1.3 X
Track quality 100.0 %
Test CRC 9B48DFE4
Copy CRC 9B48DFE4
Accurately ripped (confidence 1) [2EDF040D] (AR v2)
Copy OK

Track 5 Filename M:\_EAC\The Bill Evans Trio - I Will Say Goodbye (1977) [FLAC] {2012 Japan SHM-CD Mini LP 24-96 Remaster}\05 - I Will Say Goodbye (Take 2).wav Pre-gap length 0:00:03.45 Peak level 56.7 %
Extraction speed 1.4 X
Track quality 100.0 %
Test CRC 22C32C4A
Copy CRC 22C32C4A
Accurately ripped (confidence 1) [34844A7D] (AR v2)
Copy OK

Track 6 Filename M:\_EAC\The Bill Evans Trio - I Will Say Goodbye (1977) [FLAC] {2012 Japan SHM-CD Mini LP 24-96 Remaster}\06 - The Opener.wav Pre-gap length 0:00:02.39 Peak level 94.1 %
Extraction speed 1.5 X
Track quality 100.0 %
Test CRC 207562EF
Copy CRC 207562EF
Accurately ripped (confidence 1) [9F5D257B] (AR v2)
Copy OK

Track 7 Filename M:\_EAC\The Bill Evans Trio - I Will Say Goodbye (1977) [FLAC] {2012 Japan SHM-CD Mini LP 24-96 Remaster}\07 - Quiet Light.wav Pre-gap length 0:00:02.21 Peak level 73.0 %
Extraction speed 1.4 X
Track quality 100.0 %
Test CRC E16059EC
Copy CRC E16059EC
Accurately ripped (confidence 1) [6B0D9042] (AR v2)
Copy OK

Track 8 Filename M:\_EAC\The Bill Evans Trio - I Will Say Goodbye (1977) [FLAC] {2012 Japan SHM-CD Mini LP 24-96 Remaster}\08 - A House Is Not A Home.wav Pre-gap length 0:00:02.09 Peak level 62.5 %
Extraction speed 1.6 X
Track quality 100.0 %
Test CRC 3F8CD975
Copy CRC 3F8CD975
Accurately ripped (confidence 1) [0F4E916D] (AR v2)
Copy OK

Track 9 Filename M:\_EAC\The Bill Evans Trio - I Will Say Goodbye (1977) [FLAC] {2012 Japan SHM-CD Mini LP 24-96 Remaster}\09 - Nobody Else But Me (bonus track).wav Pre-gap length 0:00:03.29 Peak level 94.0 %
Extraction speed 1.6 X
Track quality 100.0 %
Test CRC 2C1577A3
Copy CRC 2C1577A3
Accurately ripped (confidence 1) [31771E8B] (AR v2)
Copy OK

Track 10 Filename M:\_EAC\The Bill Evans Trio - I Will Say Goodbye (1977) [FLAC] {2012 Japan SHM-CD Mini LP 24-96 Remaster}\10 - Orson's Theme (bonus track).wav Pre-gap length 0:00:02.10 Peak level 99.7 %
Extraction speed 1.4 X
Track quality 99.9 %
Test CRC 6E1100E5
Copy CRC 6E1100E5
Accurately ripped (confidence 1) [6EF1DAD4] (AR v2)
Copy OK

All tracks accurately ripped

No errors occurred

End of status report

==== Log checksum CF8AC2433971582A0BAA3A536DA461136F4CB9E285125F47C85B4AD921ACE975 ====

The Bill Evans Trio - I Will Say Goodbye (1977) {2012 Japan SHM-CD Mini LP 24-96 Remaster}

The Bill Evans Trio - I Will Say Goodbye (1977) {2012 Japan SHM-CD Mini LP 24-96 Remaster}


NEXT -> More 2012 Japan SHM-CD Mini LP 24-96 Remaster...
DOWNLOAD LINKS
Buy Premium From My Links To Get Resumable Support & Max Speed & To Support Me


Links are Interchangeable - No Password - Single Extraction
Direct Download

Tags: Goodbye, Remaster

The Bill Evans Trio - I Will Say Goodbye (1977) {2012 Japan SHM-CD Mini LP 24-96 Remaster} Download via Hotfile Rapidshare Fileserve Megaupload & FileSonic, The Bill Evans Trio - I Will Say Goodbye (1977) {2012 Japan SHM-CD Mini LP 24-96 Remaster} free torrent downloads included crack, serial, keygen.The Bill Evans Trio - I Will Say Goodbye (1977) {2012 Japan SHM-CD Mini LP 24-96 Remaster} Fast Download via Rapidshare Hotfile Fileserve Filesonic Megaupload, The Bill Evans Trio - I Will Say Goodbye (1977) {2012 Japan SHM-CD Mini LP 24-96 Remaster} Torrents and Emule Download or anything related.
Leave a Comment
Your Name:
E-Mail:
Add Comments:

Enter Code: