Richard Horowitz & Sussan Deyhim - Majoun (1997)

Download Now

Richard Horowitz & Sussan Deyhim - Majoun (1997)

Richard Horowitz & Sussan Deyhim - Majoun (1997)
EAC | FLAC | Image (Cue&Log) ~ 389 Mb (incl 5%) | Mp3 (CBR320) ~ 198 Mb (incl 5%) | Scans included
Genre: Ethnic Fusion, Ambient, Worldbeat, Experimental | Label: Sony Classical | # SK 62721 | Time: 01:02:20

"This feast for the ears almost defies classification. Richard Horowitz is probably best known for his award-winning score to the Bernardo Bertolucci movie, The Sheltering Sky. Featured on the album is Tehran singer Sussan Deyhim; her voice is extremely expressive in an "x-tatic" Middle Eastern style, with its distinctive embellishments and phrasing. Horowitz takes recordings of her voice and layers it in subtle yet exotic tapestries and harmonies. This is not the ripoff sampling done so often on ambient dance albums. Deyhim's voice is the center of the compositions, and her artistry is always honored. At times, her combined voices sound like the Manhattan Transfer, but when the title track features 84 recombined samples of her voice, the result is very unique. Although the sound processing is important, the album features many live musicians, including world music expert Jaron Lanier and members of the Moroccan National Radio and Television Orchestra. Majoun offers layers upon veils of mysteries and never stoops to trite Middle Eastern musical clich├ęs. Highly recommended."



Tracklist:

01. Majoun (05:55)
02. Kye Kye (Who is Who is) (08:36)
03. Agonethi (Shadow Maps) (07:20)
04. Whorl on the Mount of Moon (10:33)
05. Coldest Day (05:04)
06. Ipissima Verba (07:24)
07. Murmur Mutanta (07:53)
08. Botachine (Infinitely Curved) (09:32)


Exact Audio Copy V0.99 prebeta 5 from 4. May 2009

EAC extraction logfile from 1. February 2010, 16:40

Richard Horowitz & Sussan Deyhim / Majoun

Used drive : HL-DT-STDVDRAM GSA-H10N Adapter: 4 ID: 0

Read mode : Secure
Utilize accurate stream : Yes
Defeat audio cache : Yes
Make use of C2 pointers : No

Read offset correction

: 667
Overread into Lead-In and Lead-Out : No
Fill up missing offset samples with silence : Yes
Delete leading and trailing silent blocks : No
Null samples used in CRC calculations : Yes
Used interface
: Native Win32 interface for Win NT & 2000

Used output format : User Defined Encoder
Selected bitrate : 768 kBit/s
Quality : High
Add ID3 tag : No
Command line compressor : C:\Program Files\Exact Audio Copy\FLAC\FLAC.EXE
Additional command line options : -6 -V -T "ARTIST=%a" -T "TITLE=%t" -T "ALBUM=%g" -T "DATE=%y" -T "TRACKNUMBER=%n" -T "GENRE=%m" -T "COMMENT=%e" %s -o %d

TOC of the extracted CD Track | Start | Length | Start sector | End sector
--1 | 0:00.00 | 5:55.42 | 0 | 26666 2 | 5:55.42 | 8:36.70 | 26667 | 65436 3 | 14:32.37 | 7:20.28 | 65437 | 98464 4 | 21:52.65 | 10:33.45 | 98465 | 145984 5 | 32:26.35 | 5:04.25 | 145985 | 168809 6 | 37:30.60 | 7:24.00 | 168810 | 202109 7 | 44:54.60 | 7:53.05 | 202110 | 237589 8 | 52:47.65 | 9:32.20 | 237590 | 280509

Range status and errors

Selected range Filename D:\TMP_MUSIC\Richard Horowitz & Sussan Deyhim - Majoun (1997)\Richard Horowitz & Sussan Deyhim - Majoun.wav Peak level 100.0 %
Range quality 100.0 %
Test CRC 2C633022
Copy CRC 2C633022
Copy OK

No errors occurred


AccurateRip summary

Track 1 accurately ripped (confidence 2) [4C8C05D9]
Track 2 accurately ripped (confidence 2) [62CCF58F]
Track 3 accurately ripped (confidence 2) [C43456D1]
Track 4 accurately ripped (confidence 2) [2A77EB3B]
Track 5 accurately ripped (confidence 2) [DD0D2DFC]
Track 6 accurately ripped (confidence 2) [10A4AA9E]
Track 7 accurately ripped (confidence 2) [75A31176]
Track 8 accurately ripped (confidence 2) [D3292D60]

All tracks accurately ripped

End of status report

foobar2000 1.2 / Dynamic Range Meter 1.1.1
log date: 2015-08-21 23:09:08

Analyzed: Richard Horowitz & Sussan Deyhim / Majoun

DR Peak RMS Duration Track

DR13 -1.67 dB -18.50 dB 5:56 01-Majoun
DR13 0.00 dB -17.16 dB 8:37 02-Kye Kye (Who is Who is)
DR13 -1.56 dB -17.54 dB 7:20 03-Agonethi (Shadow Maps)
DR13 0.00 dB -15.91 dB 10:34 04-Whorl on the Mount of Moon
DR12 -1.80 dB -17.01 dB 5:04 05-Coldest Day
DR13 -0.75 dB -17.37 dB 7:24 06-Ipissima Verba
DR13 -1.50 dB -17.01 dB 7:53 07-Murmur Mutanta
DR12 -1.00 dB -17.16 dB 9:32 08-Botachine (Infinitely Curved)

Number of tracks: 8
Official DR value: DR13

Samplerate: 44100 Hz
Channels: 2
Bits per sample: 16
Bitrate: 728 kbps
Codec: FLAC

Richard Horowitz & Sussan Deyhim - Majoun (1997)

Richard Horowitz & Sussan Deyhim - Majoun (1997)

All thanks to original releaser
Password: designol

DOWNLOAD LINKS
Buy Premium From My Links To Get Resumable Support & Max Speed & To Support Me


Links are Interchangeable - No Password - Single Extraction
Direct Download

Tags: Richard, Horowitz, Sussan, Deyhim, Majoun

Richard Horowitz & Sussan Deyhim - Majoun (1997) Download via Hotfile Rapidshare Fileserve Megaupload & FileSonic, Richard Horowitz & Sussan Deyhim - Majoun (1997) free torrent downloads included crack, serial, keygen.Richard Horowitz & Sussan Deyhim - Majoun (1997) Fast Download via Rapidshare Hotfile Fileserve Filesonic Megaupload, Richard Horowitz & Sussan Deyhim - Majoun (1997) Torrents and Emule Download or anything related.
Leave a Comment
Your Name:
E-Mail:
Add Comments:

Enter Code: