Various Artists - Let's Go Zydeco! (1994) RE-UP

Download Now

Various Artists - Let's Go Zydeco! (1994) RE-UP

Various Artists - Let's Go Zydeco! (1994)
EAC-FLAC(tracks) with CUE & LOG - 450 MB | Full Scans | MP3 CBR 320 Kbps - 175 MB
Zydeco / Cajun / Creole / Blues | TT - 65:17 mins | Label: Ace Records | Catalogue # CDCHD 543

Zydeco is a form of American roots or folk music. It evolved in southwest Louisiana in the early 19th century from forms of "la la" Creole music. The rural black Creoles of southwest Louisiana and southeast Texas still sing in Louisiana Creole French. Usually fast tempo and dominated by the button or piano accordion and a form of a washboard known as a "rub-board," "scrub-board," "wash-board," or frottoir, zydeco music was originally created at house dances, where families and friends gathered for socializing.
Tracks:

01. Clifton Chenier - Cher Catin (Zydeco)
02. John Delafose - Petite et la Grosse
03. C. J. Chenier - Used and Abused
04. Lawrence 'Black' Ardoin - Walking Down the Interstate
05. Clifton Chenier - Zydeco Two Step
06. John Delafose - Crying in the Streets
07. Lawrence 'Black' Ardoin - Midland Two Step
08. Leo Thomas & Preston Frank's Swallow Band - Shake What You Got
09. Sam Brothers 5 - Lafayette Special
10. John Delafose - Lonesome Road
11. Clifton Chenier - I'm Coming Home
12. Lawrence 'Black' Ardoin - I've Been There
13. John Delafose - Mardi Gras Song
14. Clifton Chenier - Je Suis En Recolteur (I'm A Farmer)
15. C. J. Chenier - Check Out The Zydeco
16. Lightin' Hopkins - Zolo Go (Zydeco)
17. Willie Green - Green's Zydeco
18. Peter King & L. Herbert - King's Zydeco
19. McZiel & Gernger - Allons a Lafayette
20. Albert Chevalier - Moman Couche
21. Canray Fontenot - Two Step de Grand Mallet
22. Boisec Ardoin & Canray Fontenot - Home Sweet Home

Compiled by John Broven and Chris Strachwitz.

Exact Audio Copy V1.0 beta 2 from 29. April 2011

EAC extraction logfile from 27. June 2011, 16:24

Various Artists / Let's Go Zydeco

Used drive : PLEXTOR CD-R PX-W4824A Adapter: 6 ID: 3

Read mode : Secure
Utilize accurate stream : Yes
Defeat audio cache : Yes
Make use of C2 pointers : No

Read offset correction

: 98
Overread into Lead-In and Lead-Out : No
Fill up missing offset samples with silence : Yes
Delete leading and trailing silent blocks : No
Null samples used in CRC calculations : Yes
Used interface
: Installed external ASPI interface
Gap handling
: Appended to previous track

Used output format : User Defined Encoder
Selected bitrate : 768 kBit/s
Quality : High
Add ID3 tag : No
Command line compressor : C:\Program Files\Exact Audio Copy\FLAC\FLAC.EXE
Additional command line options : -8 -V -T "ARTIST=%artist%" -T "TITLE=%title%" -T "ALBUM=%albumtitle%" -T "DATE=%year%" -T "TRACKNUMBER=%tracknr%" -T "TOTALTRACKS=%numtracks%" -T "GENRE=%genre%" -T "ALBUMARTIST=%albumartist%" -T "ALBUM ARTIST=%albumartist%

TOC of the extracted CD Track | Start | Length | Start sector | End sector
--1 | 0:00.32 | 3:44.03 | 32 | 16834 2 | 3:44.35 | 2:03.67 | 16835 | 26126 3 | 5:48.27 | 4:04.63 | 26127 | 44489 4 | 9:53.15 | 3:27.55 | 44490 | 60069 5 | 13:20.70 | 3:17.15 | 60070 | 74859 6 | 16:38.10 | 3:17.17 | 74860 | 89651 7 | 19:55.27 | 2:48.10 | 89652 | 102261 8 | 22:43.37 | 2:20.60 | 102262 | 112821 9 | 25:04.22 | 1:59.58 | 112822 | 121804
10 | 27:04.05 | 2:28.67 | 121805 | 132971
11 | 29:32.72 | 3:01.25 | 132972 | 146571
12 | 32:34.22 | 3:03.65 | 146572 | 160361
13 | 35:38.12 | 2:36.03 | 160362 | 172064
14 | 38:14.15 | 4:54.37 | 172065 | 194151
15 | 43:08.52 | 3:19.18 | 194152 | 209094
16 | 46:27.70 | 2:46.57 | 209095 | 221601
17 | 49:14.52 | 3:34.58 | 221602 | 237709
18 | 52:49.35 | 2:48.20 | 237710 | 250329
19 | 55:37.55 | 3:04.12 | 250330 | 264141
20 | 58:41.67 | 1:14.50 | 264142 | 269741
21 | 59:56.42 | 2:05.30 | 269742 | 279146
22 | 62:01.72 | 3:15.33 | 279147 | 293804

Track 1 Filename I:\Various Artists - Let's Go Zydeco (1994) [FLAC] {Ace CDCHD 543}\01 - Clifton Chenier - Cher Catin (Zydeco).wav Pre-gap length 0:00:02.32 Peak level 98.5 %
Extraction speed 4.3 X
Track quality 100.0 %
Test CRC 6C112B5E
Copy CRC 6C112B5E
Track not present in AccurateRip database
Copy OK

Track 2 Filename I:\Various Artists - Let's Go Zydeco (1994) [FLAC] {Ace CDCHD 543}\02 - John Delafose - Petite et la Grosse.wav Pre-gap length 0:00:03.43 Peak level 99.6 %
Extraction speed 4.1 X
Track quality 100.0 %
Test CRC 2F3D5405
Copy CRC 2F3D5405
Track not present in AccurateRip database
Copy OK

Track 3 Filename I:\Various Artists - Let's Go Zydeco (1994) [FLAC] {Ace CDCHD 543}\03 - C. J. Chenier - Used and Abused.wav Pre-gap length 0:00:03.10 Peak level 99.6 %
Extraction speed 4.6 X
Track quality 100.0 %
Test CRC DF648D1F
Copy CRC DF648D1F
Track not present in AccurateRip database
Copy OK

Track 4 Filename I:\Various Artists - Let's Go Zydeco (1994) [FLAC] {Ace CDCHD 543}\04 - Lawrence 'Black' Ardoin - Walking Down the Interstate.wav Pre-gap length 0:00:03.35 Peak level 99.6 %
Extraction speed 4.6 X
Track quality 100.0 %
Test CRC 952F0D4A
Copy CRC 952F0D4A
Track not present in AccurateRip database
Copy OK

Track 5 Filename I:\Various Artists - Let's Go Zydeco (1994) [FLAC] {Ace CDCHD 543}\05 - Clifton Chenier - Zydeco Two Step.wav Pre-gap length 0:00:03.40 Peak level 99.6 %
Extraction speed 3.7 X
Track quality 99.9 %
Test CRC 3A8507EE
Copy CRC 3A8507EE
Track not present in AccurateRip database
Copy OK

Track 6 Filename I:\Various Artists - Let's Go Zydeco (1994) [FLAC] {Ace CDCHD 543}\06 - John Delafose - Crying in the Streets.wav Pre-gap length 0:00:03.20 Peak level 99.6 %
Extraction speed 3.7 X
Track quality 99.9 %
Test CRC BA3B725B
Copy CRC BA3B725B
Track not present in AccurateRip database
Copy OK

Track 7 Filename I:\Various Artists - Let's Go Zydeco (1994) [FLAC] {Ace CDCHD 543}\07 - Lawrence 'Black' Ardoin - Midland Two Step.wav Pre-gap length 0:00:03.65 Peak level 99.6 %
Extraction speed 4.0 X
Track quality 100.0 %
Test CRC A6D4CBA1
Copy CRC A6D4CBA1
Track not present in AccurateRip database
Copy OK

Track 8 Filename I:\Various Artists - Let's Go Zydeco (1994) [FLAC] {Ace CDCHD 543}\08 - Leo Thomas & Preston Frank's Swallow Band - Shake What You Got.wav Pre-gap length 0:00:03.07 Peak level 99.6 %
Extraction speed 4.2 X
Track quality 100.0 %
Test CRC BD1D3D80
Copy CRC BD1D3D80
Track not present in AccurateRip database
Copy OK

Track 9 Filename I:\Various Artists - Let's Go Zydeco (1994) [FLAC] {Ace CDCHD 543}\09 - Sam Brothers 5 - Lafayette Special.wav Pre-gap length 0:00:03.30 Peak level 99.6 %
Extraction speed 4.1 X
Track quality 100.0 %
Test CRC 766F9805
Copy CRC 766F9805
Track not present in AccurateRip database
Copy OK

Track 10 Filename I:\Various Artists - Let's Go Zydeco (1994) [FLAC] {Ace CDCHD 543}\10 - John Delafose - Lonesome Road.wav Pre-gap length 0:00:01.68 Peak level 99.6 %
Extraction speed 4.3 X
Track quality 100.0 %
Test CRC 86D59FF6
Copy CRC 86D59FF6
Track not present in AccurateRip database
Copy OK

Track 11 Filename I:\Various Artists - Let's Go Zydeco (1994) [FLAC] {Ace CDCHD 543}\11 - Clifton Chenier - I'm Coming Home.wav Pre-gap length 0:00:05.05 Peak level 99.6 %
Extraction speed 4.5 X
Track quality 100.0 %
Test CRC D0D70DFB
Copy CRC D0D70DFB
Track not present in AccurateRip database
Copy OK

Track 12 Filename I:\Various Artists - Let's Go Zydeco (1994) [FLAC] {Ace CDCHD 543}\12 - Lawrence 'Black' Ardoin - I've Been There.wav Pre-gap length 0:00:03.70 Peak level 99.6 %
Extraction speed 4.5 X
Track quality 100.0 %
Test CRC 42713B7E
Copy CRC 42713B7E
Track not present in AccurateRip database
Copy OK

Track 13 Filename I:\Various Artists - Let's Go Zydeco (1994) [FLAC] {Ace CDCHD 543}\13 - John Delafose - Mardi Gras Song.wav Pre-gap length 0:00:02.17 Peak level 99.6 %
Extraction speed 3.5 X
Track quality 99.9 %
Test CRC 1B19E149
Copy CRC 1B19E149
Track not present in AccurateRip database
Copy OK

Track 14 Filename I:\Various Artists - Let's Go Zydeco (1994) [FLAC] {Ace CDCHD 543}\14 - Clifton Chenier - Je Suis En Recolteur (I'm A Farmer).wav Pre-gap length 0:00:02.73 Peak level 99.6 %
Extraction speed 4.2 X
Track quality 99.9 %
Test CRC A3563603
Copy CRC A3563603
Track not present in AccurateRip database
Copy OK

Track 15 Filename I:\Various Artists - Let's Go Zydeco (1994) [FLAC] {Ace CDCHD 543}\15 - C. J. Chenier - Check Out The Zydeco.wav Pre-gap length 0:00:02.72 Peak level 99.6 %
Extraction speed 4.5 X
Track quality 100.0 %
Test CRC 740C2E96
Copy CRC 740C2E96
Track not present in AccurateRip database
Copy OK

Track 16 Filename I:\Various Artists - Let's Go Zydeco (1994) [FLAC] {Ace CDCHD 543}\16 - Lightin' Hopkins - Zolo Go (Zydeco).wav Pre-gap length 0:00:03.23 Peak level 98.5 %
Extraction speed 4.3 X
Track quality 100.0 %
Test CRC 132E8452
Copy CRC 132E8452
Track not present in AccurateRip database
Copy OK

Track 17 Filename I:\Various Artists - Let's Go Zydeco (1994) [FLAC] {Ace CDCHD 543}\17 - Willie Green - Green's Zydeco.wav Pre-gap length 0:00:02.37 Peak level 98.4 %
Extraction speed 3.8 X
Track quality 99.9 %
Test CRC 989179F3
Copy CRC 989179F3
Track not present in AccurateRip database
Copy OK

Track 18 Filename I:\Various Artists - Let's Go Zydeco (1994) [FLAC] {Ace CDCHD 543}\18 - Peter King & L. Herbert - King's Zydeco.wav Pre-gap length 0:00:02.58 Peak level 98.5 %
Extraction speed 4.3 X
Track quality 100.0 %
Test CRC 31ADBAAE
Copy CRC 31ADBAAE
Track not present in AccurateRip database
Copy OK

Track 19 Filename I:\Various Artists - Let's Go Zydeco (1994) [FLAC] {Ace CDCHD 543}\19 - McZiel & Gernger - Allons a Lafayette.wav Pre-gap length 0:00:02.45 Peak level 98.5 %
Extraction speed 4.4 X
Track quality 100.0 %
Test CRC 7F00CE77
Copy CRC 7F00CE77
Track not present in AccurateRip database
Copy OK

Track 20 Filename I:\Various Artists - Let's Go Zydeco (1994) [FLAC] {Ace CDCHD 543}\20 - Albert Chevalier - Moman Couche.wav Pre-gap length 0:00:02.07 Peak level 98.4 %
Extraction speed 2.5 X
Track quality 99.8 %
Test CRC AB24D7CE
Copy CRC AB24D7CE
Track not present in AccurateRip database
Copy OK

Track 21 Filename I:\Various Artists - Let's Go Zydeco (1994) [FLAC] {Ace CDCHD 543}\21 - Canray Fontenot - Two Step de Grand Mallet.wav Pre-gap length 0:00:02.65 Peak level 99.6 %
Extraction speed 4.1 X
Track quality 100.0 %
Test CRC 5C34A9C6
Copy CRC 5C34A9C6
Track not present in AccurateRip database
Copy OK

Track 22 Filename I:\Various Artists - Let's Go Zydeco (1994) [FLAC] {Ace CDCHD 543}\22 - Boisec Ardoin & Canray Fontenot - Home Sweet Home.wav Pre-gap length 0:00:03.37 Peak level 99.6 %
Extraction speed 4.4 X
Track quality 100.0 %
Test CRC 940FDD87
Copy CRC 940FDD87
Track not present in AccurateRip database
Copy OK

None of the tracks are present in the AccurateRip database

No errors occurred

End of status report

==== Log checksum 803848DC71AA27A83E1645DE53002EC98E95F7F0C409B9DAF9D971EB65BB075E ====

AUDIOCHECKER v2.0 beta (build 457) - by Dester - [email protected]
~~~~~~~~~~~~~~~~~~~~~~~~~~~~~~~~~~
-=== DO NOT EDIT THIS FILE! ===-

Path: ...\Various Artists - Let's Go Zydeco (1994) [FLAC] {Ace CDCHD 543}

01 -=- 01 - Clifton Chenier - Cher Catin (Zydeco).wav -=- CDDA (100%)
02 -=- 02 - John Delafose - Petite et la Grosse.wav -=- CDDA (100%)
03 -=- 03 - C. J. Chenier - Used and Abused.wav -=- CDDA (100%)
04 -=- 04 - Lawrence 'Black' Ardoin - Walking Down the Interstate.wav -=- CDDA (100%)
05 -=- 05 - Clifton Chenier - Zydeco Two Step.wav -=- CDDA (100%)
06 -=- 06 - John Delafose - Crying in the Streets.wav -=- CDDA (100%)
07 -=- 07 - Lawrence 'Black' Ardoin - Midland Two Step.wav -=- CDDA (100%)
08 -=- 08 - Leo Thomas & Preston Frank's Swallow Band - Shake What You Got.wav -=- CDDA (100%)
09 -=- 09 - Sam Brothers 5 - Lafayette Special.wav -=- CDDA (100%)
10 -=- 10 - John Delafose - Lonesome Road.wav -=- CDDA (100%)
11 -=- 11 - Clifton Chenier - I'm Coming Home.wav -=- CDDA (100%)
12 -=- 12 - Lawrence 'Black' Ardoin - I've Been There.wav -=- CDDA (100%)
13 -=- 13 - John Delafose - Mardi Gras Song.wav -=- CDDA (100%)
14 -=- 14 - Clifton Chenier - Je Suis En Recolteur (I'm A Farmer).wav -=- CDDA (100%)
15 -=- 15 - C. J. Chenier - Check Out The Zydeco.wav -=- CDDA (100%)
16 -=- 16 - Lightin' Hopkins - Zolo Go (Zydeco).wav -=- ERROR
17 -=- 17 - Willie Green - Green's Zydeco.wav -=- CDDA (100%)
18 -=- 18 - Peter King & L. Herbert - King's Zydeco.wav -=- CDDA (100%)
19 -=- 19 - McZiel & Gernger - Allons a Lafayette.wav -=- CDDA (100%)
20 -=- 20 - Albert Chevalier - Moman Couche.wav -=- CDDA (100%)
21 -=- 21 - Canray Fontenot - Two Step de Grand Mallet.wav -=- CDDA (100%)
22 -=- 22 - Boisec Ardoin & Canray Fontenot - Home Sweet Home.wav -=- CDDA (99%)

Summary 99,95% CDDA

16628980

Thanks to DJGarrik!
DOWNLOAD LINKS
Buy Premium From My Links To Get Resumable Support & Max Speed & To Support Me


Links are Interchangeable - No Password - Single Extraction
Direct Download

Tags: Various, Artists, Zydeco

Various Artists - Let's Go Zydeco! (1994) RE-UP Download via Hotfile Rapidshare Fileserve Megaupload & FileSonic, Various Artists - Let's Go Zydeco! (1994) RE-UP free torrent downloads included crack, serial, keygen.Various Artists - Let's Go Zydeco! (1994) RE-UP Fast Download via Rapidshare Hotfile Fileserve Filesonic Megaupload, Various Artists - Let's Go Zydeco! (1994) RE-UP Torrents and Emule Download or anything related.
Leave a Comment
Your Name:
E-Mail:
Add Comments:

Enter Code: