Foreigner - Double Vision (1978) [Mobile Fidelity Sound Lab, UDSACD 2051]

Download Now

Foreigner - Double Vision (1978) [Mobile Fidelity Sound Lab, UDSACD 2051]

Foreigner - Double Vision (1978)
EAC | Flac(Image) + Cue + Log & MP3 CBR 320Kbps
2011 | Mobile Fidelity Sound Lab, UDSACD 2051 | ~ 271 or 111 Mb | Scans Included
Classic Rock / Hard Rock / AOR

"Foreigner promptly followed up its blockbuster debut with the equally successful Double Vision LP in 1978, which featured the FM mega-hits "Hot Blooded" and the driving title track. Opting not to mess with a good formula, the band wisely sticks to the polished hard rock sound that made its first record such a hit..."


Tracklist:

01. Hot Blooded (4:29)
02. Blue Morning, Blue Day (3:13)
03. You're All I Am (3:25)
04. Back Where You Belong (3:16)
05. Love Has Taken Its Toll (3:32)
06. Double Vision (3:45)
07. Tramontane (Instrumental) (3:56)
08. I Have Waited So Long (4:07)
09. Lonely Children (3:38)
10. Spellbinder (4:53)

Musicians:

* Dennis Elliott - drums, vocals
* Ed Gagliardi - bass guitar, vocals
* Lou Gramm - lead vocals, percussion
* Al Greenwood - synthesizer, keyboards
* Mick Jones - guitar, piano, keyboards, vocals
* Ian McDonald - guitar, keyboards, vocals, reeds
* Ian Lloyd - backing vocals


Exact Audio Copy V1.0 beta 3 from 29. August 2011

EAC extraction logfile from 22. February 2012, 18:30

Foreigner / Double Vision [MFSL UDSACD 2051]

Used drive : Optiarc DVD RW AD-7200S Adapter: 2 ID: 1

Read mode : Secure
Utilize accurate stream : Yes
Defeat audio cache : Yes
Make use of C2 pointers : No

Read offset correction

: 48
Overread into Lead-In and Lead-Out : No
Fill up missing offset samples with silence : Yes
Delete leading and trailing silent blocks : No
Null samples used in CRC calculations : Yes
Used interface
: Installed external ASPI interface

Used output format : User Defined Encoder
Selected bitrate : 1024 kBit/s
Quality : High
Add ID3 tag : No
Command line compressor : C:\Program Files\Exact Audio Copy\wavpack.exe
Additional command line options : -hlmx2 %source% %dest%

TOC of the extracted CD Track | Start | Length | Start sector | End sector
--1 | 0:00.00 | 4:29.25 | 0 | 20199 2 | 4:29.25 | 3:13.19 | 20200 | 34693 3 | 7:42.44 | 3:24.71 | 34694 | 50064 4 | 11:07.40 | 3:15.44 | 50065 | 64733 5 | 14:23.09 | 3:32.12 | 64734 | 80645 6 | 17:55.21 | 3:44.61 | 80646 | 97506 7 | 21:40.07 | 3:56.32 | 97507 | 115238 8 | 25:36.39 | 4:07.09 | 115239 | 133772 9 | 29:43.48 | 3:37.72 | 133773 | 150119
10 | 33:21.45 | 4:53.28 | 150120 | 172122

Range status and errors

Selected range Filename C:\lossless\Foreigner\Foreigner - Double Vision [MFSL UDSACD 2051].wav Peak level 100.0 %
Extraction speed 3.7 X
Range quality 100.0 %
Test CRC 45EF1A1C
Copy CRC 45EF1A1C
Copy OK

No errors occurred


AccurateRip summary

Track 1 accurately ripped (confidence 2) [7EA68A95] (AR v2)
Track 2 accurately ripped (confidence 2) [5BE310BF] (AR v2)
Track 3 accurately ripped (confidence 2) [93963A3E] (AR v2)
Track 4 accurately ripped (confidence 2) [928F9E36] (AR v2)
Track 5 accurately ripped (confidence 2) [54380E88] (AR v2)
Track 6 accurately ripped (confidence 2) [08E84E2D] (AR v2)
Track 7 accurately ripped (confidence 2) [E56D2DEE] (AR v2)
Track 8 accurately ripped (confidence 2) [2A54BC04] (AR v2)
Track 9 accurately ripped (confidence 2) [2C152EA6] (AR v2)
Track 10 accurately ripped (confidence 2) 4A3B2C4 (AR v2)

All tracks accurately ripped

End of status report

- CUETools DB Plugin V2.1.3

[CTDB TOCID: UeRvYiEZJ28XeWumMj.1dW6Gw_w-] found, Submit result: database access error: The remote name could not be resolved: 'db.cuetools.net'
[345e5823] (2/2) Accurately ripped

==== Log checksum 8219BA788E882F9D58510F16740D7BDC7089F194440BDB10A32809DEE0B953CB ====

foobar2000 1.2.9 / Dynamic Range Meter 1.1.1
log date: 2015-08-23 11:43:15

Analyzed: Foreigner / Double Vision [MFSL UDSACD 2051]

DR Peak RMS Duration Track

DR10 0.00 dB -11.86 dB 4:29 01-Hot Blooded
DR10 -0.06 dB -11.93 dB 3:13 02-Blue Morning, Blue Day
DR10 -0.01 dB -14.43 dB 3:25 03-You're All I Am
DR10 -0.29 dB -13.16 dB 3:16 04-Back Where You Belong
DR12 -0.11 dB -14.17 dB 3:32 05-Love Has Taken Its Toll
DR12 0.00 dB -14.14 dB 3:45 06-Double Vision
DR9 -0.13 dB -12.39 dB 3:56 07-Tramontane (Instrumental)
DR11 -0.93 dB -14.55 dB 4:07 08-I Have Waited So Long
DR11 -0.15 dB -13.91 dB 3:38 09-Lonely Children
DR11 -0.07 dB -15.31 dB 4:53 10-Spellbinder

Number of tracks: 10
Official DR value: DR11

Samplerate: 44100 Hz
Channels: 2
Bits per sample: 16
Bitrate: 885 kbps
Codec: FLAC

[CUETools log; Date: 23.08.2015 11:25:47; Version: 2.1.4]
[CTDB TOCID: UeRvYiEZJ28XeWumMj.1dW6Gw_w-] found.
Track | CTDB Status
1 | (24/24) Accurately ripped
2 | (24/24) Accurately ripped
3 | (24/24) Accurately ripped
4 | (24/24) Accurately ripped
5 | (24/24) Accurately ripped
6 | (24/24) Accurately ripped
7 | (24/24) Accurately ripped
8 | (24/24) Accurately ripped
9 | (24/24) Accurately ripped
10 | (24/24) Accurately ripped
[AccurateRip ID: 000e063d-00703b7c-8208f60a] found.
Track [ CRC | V2 ] Status
01 [67bb175f|7ea68a95] (03+47/50) Accurately ripped
02 [c0eccbfc|5be310bf] (04+47/51) Accurately ripped
03 [4d3eaa39|93963a3e] (03+45/48) Accurately ripped
04 [99473146|928f9e36] (03+45/48) Accurately ripped
05 [2d683668|54380e88] (03+47/50) Accurately ripped
06 [430625ea|08e84e2d] (04+47/51) Accurately ripped
07 [5f18398e|e56d2dee] (03+45/48) Accurately ripped
08 [ce5a5d90|2a54bc04] (03+45/48) Accurately ripped
09 [5b8961a4|2c152ea6] (03+45/48) Accurately ripped
10 [8e7174e2|b4a3b2c4] (03+45/48) Accurately ripped

Track Peak [ CRC32 ] [W/O NULL] [ LOG ]
-- 100,0 [45EF1A1C] [01C2BB2E] CRC32
01 100,0 [C4DFCD50] [A6E667D7]
02 99,3 [F996C018] [727F71C9]
03 99,9 [47841766] [385DDF4A]
04 96,6 [4F0DD93C] [40A7F64A]
05 98,7 [D78D7994] [0611548D]
06 100,0 [451AE77D] [4409E95C]
07 98,5 [8BA339FD] [2EEE956C]
08 89,8 [32E79DBA] [FB95A6C5]
09 98,2 [0301FBD7] [8DBD9DB9]
10 99,2 [36EF03DA] [95A2B250]

Foreigner - Double Vision (1978) [Mobile Fidelity Sound Lab, UDSACD 2051]

password: asd
DOWNLOAD LINKS:
Buy Premium To Support Me & Get Resumable Support & Max Speed


Links are Interchangeable - No Password - Single Extraction
Direct Download

Tags: Foreigner, Double, Vision, Mobile, Fidelity, UDSACD

Foreigner - Double Vision (1978) [Mobile Fidelity Sound Lab, UDSACD 2051] Download via Hotfile Rapidshare Fileserve Megaupload & FileSonic, Foreigner - Double Vision (1978) [Mobile Fidelity Sound Lab, UDSACD 2051] free torrent downloads included crack, serial, keygen.Foreigner - Double Vision (1978) [Mobile Fidelity Sound Lab, UDSACD 2051] Fast Download via Rapidshare Hotfile Fileserve Filesonic Megaupload, Foreigner - Double Vision (1978) [Mobile Fidelity Sound Lab, UDSACD 2051] Torrents and Emule Download or anything related.
Leave a Comment
Your Name:
E-Mail:
Add Comments:

Enter Code: