Various Artists - The Very Best of Country: 75 Original Recordings (2013) [3CD] {Not Now Music}

Download Now


Various Artists - The Very Best of Country: 75 Original Recordings (2013) [3CD] {Not Now Music}
Various Artists - The Very Best of Country: 75 Original Recordings (2013) [3CD] {Not Now Music}
EAC rip (secure mode) | FLAC (tracks)+CUE+LOG -> 1.13 Gb | MP3 @320 -> 461 Mb
Full Artwork @ 300 dpi (jpg) -> 24 Mb | 5% repair rar
© 2013 Not Now Music | NOT3CD102
Country / Country Pop / Honky Tonk / Nashville Sound / Progressive Country / Rockabilly

"Country music is all about characters and the stories they tell. That, prior to the advent of the phonograph and, later, radio, was exactly how the songs were passed down through the generations. And the good news is we not only have some great songs here but we also have some very memorable characters telling them. Some of those characters enjoyed long careers, like Tennessee Ernie Ford who began performing at the age four in 1923 and was elected to the Country Music Hall of Fame in 1990, the year before his death. Others like Patsy Cline were taken from us all too soon, in her case in a 1963 plane crash. Cline came to overright fame on a TV talent contest and went on to become a classic country balladeer with some glossy, string-laden productions. 'Crazy', from 1961, was her greatest hit and has been covered in subsequent years by kd lang among others."

Various Artists - The Very Best of Country: 75 Original Recordings (2013) [3CD] {Not Now Music}

"Like Porter Wagoner, George Jones enjoyed solo success as well as a double act, in his case with his former wife Tammy Wynette. The Possum, as he's affectionately known, needs little introduction to any country fan and has been credited with writing and performing some of the genre's most affecting songs. The emotion of early work like the much-covered. 'She Thinks I Still Care' remains unsurpassed.

Jones retired from touring in 2013, at around the same tme Glen Campbell also bowed out. Born in Arkansas in 1936, Glen graduated from sessin musician - his guitar picking won him a role in the Beach Boys' band - to superstar in 1967. 'Turn Around, Look At Me' was a small early-Sixties hit of the Crest label.

Conway Twitty was born plain Harold Jenkins before finding a new handle on fame and a transatlantic chart-topper with 1958's'It's Only Make Believe'. We feature 'Portrait Of a Fool' - which certainly doesen't refer to him, as he founted a lucrative theme park in Tennessee called Twitty City! He occasionally duetted with Loretta Lynn, whom we also featur here. She was an influeintial woman in country music, fighting stereotypes and enabling others that followed like her sister Crystal Gayle to find success. She was the firs female CMA entertainer of the Year, the first woman country millionaire and told her story in the autobiography (later movie) Coalminer's Daughter.

The musical revolution spearheaded by Elvis Presley took it cues from country, mixing it with black rhythms to create rock'n'roll. Hank Snow can claim to have given the King a helping hand to stardom, having formed a booking agency with his manager, Colonel Tom Parker. The wily Parker edged him out of the Presley picture, but slif the spotlight he way by having his charge cover Snow-related material such as 'Old Shep' and 'A Fool Such As I'.

Johnny Cash passed through Sun Records just post-Presley and played an influential role in a number of genres, including country and gospel. From humble beginings in Arkansas during the Great Depression, the forged a career that spanned nearly half a century and produced music righ up until his death in 2003. Cash fought his demons daily in the from of drugs and alcohol and his turbulent life would be inmortalised on the silver screen as the 2005 motion picture Walk the Line.

Marty Robbins was another long-serving country legend. Just two months before his death in 1982, Tammy Wynnete presented him with a plaque signifying hid induction into the Country Music Hall of Fame -, the final honour for a multi-facted performer who was named Artist of the Decade for the Sixties by the Academy of Country Music. Our there selection include the signature song 'El Paso'.

We don't have the space to profile all our artists in detail, but mention must be made of a performer on disc three. Clint Eastwood is, of course, best known as an actor but also taugh himself to play piano and compose, writing soundtracks for movies such as Unforgiven, Million Dollar Baby, Mystic River, Hereafter and Changeling.

When a TV actor in Western series Raw Hide which ran from 1959 to 1965, he cut the ballad 'Unknown Girl of my Dreams'. He would go on to record several cowboy classics, but this first musical foray is a bonus for all movie buffs with a taste for country."


Various Artists - The Very Best of Country: 75 Original Recordings (2013) [3CD] {Not Now Music}


tracklist:
Disc 1:

01. Patsy Cline - Crazy
02. Willie Nelson - Funny How Time Slips Away
03. Johnny Cash - Five Feet High and Rising
04. Don Gibson - Sea of heartbreak
05. Clint Eastwood - Rowdy
06. Lorretta Lynn - Success
07. Ray Price - Heartaches by the Number
08. Glen Campbell - Truck Driving Man
09. Dottie West - I Should Start Running
10. Leroy von Dyke - Walk on By
11. George Hamilton IV - If You Don't Know I Ain't Gonna Tell You
12. Faron Young - Hello Walls
13. Johnny Cash - Tennessee Flat Top Box
14. Marty Robbins - A White Sport Coat (and a Pink Carnation)
15. Jimmy Dean - Big Bad John
16. George Jones - She Thinks I Still Care
17. Tennessee Ernie Ford - Sixteen Tons
18. Johnny Horton - When It's Springtime in Alaska
19. Skeeter Davis - My Last Date (With You)
20. Claude King - The Comancheros
21. Glen Campbell - Turn Around Look at Me
22. Hank Snow - I've Been Everywhere
23. Marion Worth - I Think I Know
24. Johnny Cash - Delia's Gone
25. Dolly Parton - The Love You Gave

Various Artists - The Very Best of Country: 75 Original Recordings (2013) [3CD] {Not Now Music}


Disc 2:
01. George Jones - Aching Breaking Heart
02. Jim Reeves - The Blizzard
03. Johnny Tillotson - It Keeps Right on a Hurtin'
04. Patsy Cline - I Fall the Pieces
05. Johnny Cash - Peace in the Valley
06. Ray Price - Crazy Arms
07. Kitty Wells - Unloved Unwarted
08. Marty Robbins - Singin' the Blues
09. Glen Campbell - Long Blac Limousine
10. Willie Nelson - Touch Me
11. Stonewall Jackson - A Wound Time Can't Erase
12. Porter Wagoner - A Satisfied Mind
13. Loretta Lynn - I'm a Honky Tonk Girl
14. Johnny Cash - In Them Old Cottonfields Back Home
15. James O'Gwynn - My Name Is Mud
16. Ricky Nelson - Half Breed
17. Carl Smith - The Best Dreesed Beggar (in Town)
18. Buck Owens - Foolin' Around
19. Patsy Cline - Heartaches
20. Johnny Horton - North to Alaska
21. Lefty Frizzell - The Long Black Veil
22. Leroy van Dyke - Black Cloud
23. Melba Montgomery - I'm No Longer in Your Heart
24. Don Gibson - Oh Lonsome Me
25. Johnny Cash - I'm Free from the Chain Gang Now

Various Artists - The Very Best of Country: 75 Original Recordings (2013) [3CD] {Not Now Music}


Disc 3:
01. Dolly Parton - It's Shure Gonna Hurt
02. Bobby Helms - My Special Angel
03. Glen Campbell - Valley of Death
04. Johnny Cash - Forty Shades of Green
05. Patsy Cline - She's Got You
06. Jim Reeves - He'll have to Go
07. Ned Miller - From a Jack to a King
08. Faron Young - Backtrack
09. Buck Ovens - Under Your Spell Again
10. Marty Robbins - El Paso
11. Don Gibson - Lonesome Number One
12. Stonewall Jackson - Second Choice
13. Dottie West - Angel on Paper
14. Johnny Tillotson - Send Me the Pillow You Dream On
15. Johnny Cash - Busted
16. Clint Eastwood - Unknown Girl of my Dreams
17. Willie Nelson & Shirley Collie - Willingly
18. Jim Reeves - Adios Amigo
19. Laude King - The Burning of Atlanta
20. Johnny Horton - Battle of New Orleans
21. Conway Twitty - Portrait of a Fool
22. Jimmy Dean - PT 109
23. 'Little' Jimmy Dickens - Twenty Cigaretes
24. Johnny Cash - In the Jailhouse Now
25. Hank Snow - I Don't Hurt Anymore

Various Artists - The Very Best of Country: 75 Original Recordings (2013) [3CD] {Not Now Music}



Exact Audio Copy V1.0 beta 4 from 7. December 2014

EAC extraction logfile from 19. February 2015, 20:57

Various Artists / The Very best of Country: 75 Original Recordings (Disc 1)

Used drive : TSSTcorpCDDVDW SN-208FB Adapter: 1 ID: 0

Read mode : Secure
Utilize accurate stream : Yes
Defeat audio cache : Yes
Make use of C2 pointers : No

Read offset correction

: 6
Overread into Lead-In and Lead-Out : No
Fill up missing offset samples with silence : Yes
Delete leading and trailing silent blocks : No
Null samples used in CRC calculations : Yes
Used interface
: Native Win32 interface for Win NT & 2000
Gap handling
: Appended to previous track

Used output format : User Defined Encoder
Selected bitrate : 1024 kBit/s
Quality : High
Add ID3 tag : No
Command line compressor : C:\Program Files (x86)\Kodeki za Glasbo\FLAC\flac.exe
Additional command line options : -8 -V -T "ARTIST=%artist%" -T "TITLE=%title%" -T "ALBUM=%albumtitle%" -T "DATE=%year%" -T "TRACKNUMBER=%tracknr%" -T "TOTALTRACKS=%numtracks%" -T "GENRE=%genre%" -T "ALBUMARTIST=%albumartist%" -T "ALBUM ARTIST=%albumartist%" -T "COMMENT=EAC Secure Mode, Test & Copy, AccurateRip, FLAC -8" %source%

TOC of the extracted CD Track | Start | Length | Start sector | End sector
--1 | 0:00.00 | 2:44.64 | 0 | 12363 2 | 2:44.64 | 3:03.38 | 12364 | 26126 3 | 5:48.27 | 1:46.64 | 26127 | 34140 4 | 7:35.16 | 2:33.45 | 34141 | 45660 5 | 10:08.61 | 2:47.21 | 45661 | 58206 6 | 12:56.07 | 2:40.09 | 58207 | 70215 7 | 15:36.16 | 2:59.55 | 70216 | 83695 8 | 18:35.71 | 2:04.32 | 83696 | 93027 9 | 20:40.28 | 2:41.22 | 93028 | 105124
10 | 23:21.50 | 2:23.56 | 105125 | 115905
11 | 25:45.31 | 2:47.12 | 115906 | 128442
12 | 28:32.43 | 2:23.40 | 128443 | 139207
13 | 30:56.08 | 3:00.08 | 139208 | 152715
14 | 33:56.16 | 2:30.56 | 152716 | 164021
15 | 36:26.72 | 3:02.27 | 164022 | 177698
16 | 39:29.24 | 2:34.51 | 177699 | 189299
17 | 42:04.00 | 2:38.10 | 189300 | 201159
18 | 44:42.10 | 2:36.50 | 201160 | 212909
19 | 47:18.60 | 2:34.44 | 212910 | 224503
20 | 49:53.29 | 2:12.38 | 224504 | 234441
21 | 52:05.67 | 2:35.38 | 234442 | 246104
22 | 54:41.30 | 2:46.26 | 246105 | 258580
23 | 57:27.56 | 3:01.42 | 258581 | 272197
24 | 60:29.23 | 2:01.33 | 272198 | 281305
25 | 62:30.56 | 2:13.44 | 281306 | 291324

Track 1 Filename M:\3. my rip in preparation\VA - The Very best of Country-75 Original Recordings (2013) [FLAC] (with Digipac 3CD) {Not Now Music NOT3CD102}\CD1\01 - Patsy Cline - Crazy.wav Pre-gap length 0:00:02.00 Peak level 98.3 %
Extraction speed 0.9 X
Track quality 100.0 %
Test CRC 30906698
Copy CRC 30906698
Track not present in AccurateRip database
Copy OK

Track 2 Filename M:\3. my rip in preparation\VA - The Very best of Country-75 Original Recordings (2013) [FLAC] (with Digipac 3CD) {Not Now Music NOT3CD102}\CD1\02 - Willie Nelson - Funny How Time Slips Away.wav Pre-gap length 0:00:01.77 Peak level 98.4 %
Extraction speed 1.0 X
Track quality 100.0 %
Test CRC B9287CDC
Copy CRC B9287CDC
Track not present in AccurateRip database
Copy OK

Track 3 Filename M:\3. my rip in preparation\VA - The Very best of Country-75 Original Recordings (2013) [FLAC] (with Digipac 3CD) {Not Now Music NOT3CD102}\CD1\03 - Johnny Cash - Five Feet High and Rising.wav Pre-gap length 0:00:01.77 Peak level 98.3 %
Extraction speed 0.7 X
Track quality 99.9 %
Test CRC 16B1C601
Copy CRC 16B1C601
Track not present in AccurateRip database
Copy OK

Track 4 Filename M:\3. my rip in preparation\VA - The Very best of Country-75 Original Recordings (2013) [FLAC] (with Digipac 3CD) {Not Now Music NOT3CD102}\CD1\04 - Don Gibson - Sea of heartbreak.wav Pre-gap length 0:00:01.77 Peak level 98.3 %
Extraction speed 1.1 X
Track quality 100.0 %
Test CRC BCD66FB9
Copy CRC BCD66FB9
Track not present in AccurateRip database
Copy OK

Track 5 Filename M:\3. my rip in preparation\VA - The Very best of Country-75 Original Recordings (2013) [FLAC] (with Digipac 3CD) {Not Now Music NOT3CD102}\CD1\05 - Clint Eastwood - Rowdy.wav Pre-gap length 0:00:01.77 Peak level 98.3 %
Extraction speed 0.9 X
Track quality 99.9 %
Test CRC 706964F2
Copy CRC 706964F2
Track not present in AccurateRip database
Copy OK

Track 6 Filename M:\3. my rip in preparation\VA - The Very best of Country-75 Original Recordings (2013) [FLAC] (with Digipac 3CD) {Not Now Music NOT3CD102}\CD1\06 - Lorretta Lynn - Success.wav Pre-gap length 0:00:01.77 Peak level 98.6 %
Extraction speed 1.2 X
Track quality 100.0 %
Test CRC BFD0240B
Copy CRC BFD0240B
Track not present in AccurateRip database
Copy OK

Track 7 Filename M:\3. my rip in preparation\VA - The Very best of Country-75 Original Recordings (2013) [FLAC] (with Digipac 3CD) {Not Now Music NOT3CD102}\CD1\07 - Ray Price - Heartaches by the Number.wav Pre-gap length 0:00:01.77 Peak level 98.4 %
Extraction speed 1.2 X
Track quality 100.0 %
Test CRC A1D46E6E
Copy CRC A1D46E6E
Track not present in AccurateRip database
Copy OK

Track 8 Filename M:\3. my rip in preparation\VA - The Very best of Country-75 Original Recordings (2013) [FLAC] (with Digipac 3CD) {Not Now Music NOT3CD102}\CD1\08 - Glen Campbell - Truck Driving Man.wav Pre-gap length 0:00:01.77 Peak level 98.4 %
Extraction speed 1.2 X
Track quality 100.0 %
Test CRC 8250844C
Copy CRC 8250844C
Track not present in AccurateRip database
Copy OK

Track 9 Filename M:\3. my rip in preparation\VA - The Very best of Country-75 Original Recordings (2013) [FLAC] (with Digipac 3CD) {Not Now Music NOT3CD102}\CD1\09 - Dottie West - I Should Start Running.wav Pre-gap length 0:00:01.77 Peak level 98.4 %
Extraction speed 1.3 X
Track quality 100.0 %
Test CRC 9E23D60E
Copy CRC 9E23D60E
Track not present in AccurateRip database
Copy OK

Track 10 Filename M:\3. my rip in preparation\VA - The Very best of Country-75 Original Recordings (2013) [FLAC] (with Digipac 3CD) {Not Now Music NOT3CD102}\CD1\10 - Leroy von Dyke - Walk on By.wav Pre-gap length 0:00:01.77 Peak level 98.3 %
Extraction speed 1.0 X
Track quality 99.9 %
Test CRC 3B10B93C
Copy CRC 3B10B93C
Track not present in AccurateRip database
Copy OK

Track 11 Filename M:\3. my rip in preparation\VA - The Very best of Country-75 Original Recordings (2013) [FLAC] (with Digipac 3CD) {Not Now Music NOT3CD102}\CD1\11 - George Hamilton IV - If You Don't Know I Ain't Gonna Tell You.wav Pre-gap length 0:00:01.77 Peak level 98.4 %
Extraction speed 1.4 X
Track quality 100.0 %
Test CRC 818D2B86
Copy CRC 818D2B86
Track not present in AccurateRip database
Copy OK

Track 12 Filename M:\3. my rip in preparation\VA - The Very best of Country-75 Original Recordings (2013) [FLAC] (with Digipac 3CD) {Not Now Music NOT3CD102}\CD1\12 - Faron Young - Hello Walls.wav Pre-gap length 0:00:01.77 Peak level 98.3 %
Extraction speed 1.4 X
Track quality 100.0 %
Test CRC E02FF36B
Copy CRC E02FF36B
Track not present in AccurateRip database
Copy OK

Track 13 Filename M:\3. my rip in preparation\VA - The Very best of Country-75 Original Recordings (2013) [FLAC] (with Digipac 3CD) {Not Now Music NOT3CD102}\CD1\13 - Johnny Cash - Tennessee Flat Top Box.wav Pre-gap length 0:00:01.77 Peak level 98.3 %
Extraction speed 1.5 X
Track quality 100.0 %
Test CRC 9368D54C
Copy CRC 9368D54C
Track not present in AccurateRip database
Copy OK

Track 14 Filename M:\3. my rip in preparation\VA - The Very best of Country-75 Original Recordings (2013) [FLAC] (with Digipac 3CD) {Not Now Music NOT3CD102}\CD1\14 - Marty Robbins - A White Sport Coat (and a Pink Carnation).wav Pre-gap length 0:00:01.77 Peak level 98.3 %
Extraction speed 1.2 X
Track quality 99.9 %
Test CRC E2537E3A
Copy CRC E2537E3A
Track not present in AccurateRip database
Copy OK

Track 15 Filename M:\3. my rip in preparation\VA - The Very best of Country-75 Original Recordings (2013) [FLAC] (with Digipac 3CD) {Not Now Music NOT3CD102}\CD1\15 - Jimmy Dean - Big Bad John.wav Pre-gap length 0:00:01.77 Peak level 98.4 %
Extraction speed 1.5 X
Track quality 100.0 %
Test CRC C72FB6E6
Copy CRC C72FB6E6
Track not present in AccurateRip database
Copy OK

Track 16 Filename M:\3. my rip in preparation\VA - The Very best of Country-75 Original Recordings (2013) [FLAC] (with Digipac 3CD) {Not Now Music NOT3CD102}\CD1\16 - George Jones - She Thinks I Still Care.wav Pre-gap length 0:00:01.77 Peak level 98.4 %
Extraction speed 1.2 X
Track quality 99.9 %
Test CRC 1FD45F43
Copy CRC 1FD45F43
Track not present in AccurateRip database
Copy OK

Track 17 Filename M:\3. my rip in preparation\VA - The Very best of Country-75 Original Recordings (2013) [FLAC] (with Digipac 3CD) {Not Now Music NOT3CD102}\CD1\17 - Tennessee Ernie Ford - Sixteen Tons.wav Pre-gap length 0:00:01.77 Peak level 98.8 %
Extraction speed 1.5 X
Track quality 100.0 %
Test CRC 2DCCA6BF
Copy CRC 2DCCA6BF
Track not present in AccurateRip database
Copy OK

Track 18 Filename M:\3. my rip in preparation\VA - The Very best of Country-75 Original Recordings (2013) [FLAC] (with Digipac 3CD) {Not Now Music NOT3CD102}\CD1\18 - Johnny Horton - When It's Springtime in Alaska.wav Pre-gap length 0:00:01.77 Peak level 98.4 %
Extraction speed 1.3 X
Track quality 99.9 %
Test CRC A8CE43BE
Copy CRC A8CE43BE
Track not present in AccurateRip database
Copy OK

Track 19 Filename M:\3. my rip in preparation\VA - The Very best of Country-75 Original Recordings (2013) [FLAC] (with Digipac 3CD) {Not Now Music NOT3CD102}\CD1\19 - Skeeter Davis - My Last Date (With You).wav Pre-gap length 0:00:01.77 Peak level 98.3 %
Extraction speed 1.6 X
Track quality 100.0 %
Test CRC 934E67B5
Copy CRC 934E67B5
Track not present in AccurateRip database
Copy OK

Track 20 Filename M:\3. my rip in preparation\VA - The Very best of Country-75 Original Recordings (2013) [FLAC] (with Digipac 3CD) {Not Now Music NOT3CD102}\CD1\20 - Claude King - The Comancheros.wav Pre-gap length 0:00:01.77 Peak level 98.4 %
Extraction speed 1.5 X
Track quality 100.0 %
Test CRC 717631A5
Copy CRC 717631A5
Track not present in AccurateRip database
Copy OK

Track 21 Filename M:\3. my rip in preparation\VA - The Very best of Country-75 Original Recordings (2013) [FLAC] (with Digipac 3CD) {Not Now Music NOT3CD102}\CD1\21 - Glen Campbell - Turn Around Look at Me.wav Pre-gap length 0:00:01.77 Peak level 98.3 %
Extraction speed 1.6 X
Track quality 100.0 %
Test CRC 51E34F71
Copy CRC 51E34F71
Track not present in AccurateRip database
Copy OK

Track 22 Filename M:\3. my rip in preparation\VA - The Very best of Country-75 Original Recordings (2013) [FLAC] (with Digipac 3CD) {Not Now Music NOT3CD102}\CD1\22 - Hank Snow - I've Been Everywhere.wav Pre-gap length 0:00:01.77 Peak level 98.3 %
Extraction speed 1.4 X
Track quality 99.9 %
Test CRC DB8A39C1
Copy CRC DB8A39C1
Track not present in AccurateRip database
Copy OK

Track 23 Filename M:\3. my rip in preparation\VA - The Very best of Country-75 Original Recordings (2013) [FLAC] (with Digipac 3CD) {Not Now Music NOT3CD102}\CD1\23 - Marion Worth - I Think I Know.wav Pre-gap length 0:00:01.77 Peak level 98.4 %
Extraction speed 1.4 X
Track quality 99.9 %
Test CRC 2D7FCA87
Copy CRC 2D7FCA87
Track not present in AccurateRip database
Copy OK

Track 24 Filename M:\3. my rip in preparation\VA - The Very best of Country-75 Original Recordings (2013) [FLAC] (with Digipac 3CD) {Not Now Music NOT3CD102}\CD1\24 - Johnny Cash - Delia's Gone.wav Pre-gap length 0:00:01.77 Peak level 98.4 %
Extraction speed 1.6 X
Track quality 100.0 %
Test CRC BC0626BB
Copy CRC BC0626BB
Track not present in AccurateRip database
Copy OK

Track 25 Filename M:\3. my rip in preparation\VA - The Very best of Country-75 Original Recordings (2013) [FLAC] (with Digipac 3CD) {Not Now Music NOT3CD102}\CD1\25 - Dolly Parton - The Love You Gave.wav Pre-gap length 0:00:01.77 Peak level 98.8 %
Extraction speed 1.6 X
Track quality 100.0 %
Test CRC B6A7C919
Copy CRC B6A7C919
Track not present in AccurateRip database
Copy OK

None of the tracks are present in the AccurateRip database

No errors occurred

End of status report

- CUETools DB Plugin V2.1.4

[CTDB TOCID: 7gVrszFslGzWZTEDyFNp_NQTnYQ-] disk not present in database
Submit result: 7gVrszFslGzWZTEDyFNp_NQTnYQ- has been uploaded

==== Log checksum 678CC616F118D4D01C8ED0C44A11374E43AF25D47CC4B1D546CC0B78B3BBD991 ====

Exact Audio Copy V1.0 beta 4 from 7. December 2014

EAC extraction logfile from 20. February 2015, 12:48

Various Artists / The Very best of Country: 75 Original Recordings (Disc 2)

Used drive : TSSTcorpCDDVDW SN-208FB Adapter: 1 ID: 0

Read mode : Secure
Utilize accurate stream : Yes
Defeat audio cache : Yes
Make use of C2 pointers : No

Read offset correction

: 6
Overread into Lead-In and Lead-Out : No
Fill up missing offset samples with silence : Yes
Delete leading and trailing silent blocks : No
Null samples used in CRC calculations : Yes
Used interface
: Native Win32 interface for Win NT & 2000
Gap handling
: Appended to previous track

Used output format : User Defined Encoder
Selected bitrate : 1024 kBit/s
Quality : High
Add ID3 tag : No
Command line compressor : C:\Program Files (x86)\Kodeki za Glasbo\FLAC\flac.exe
Additional command line options : -8 -V -T "ARTIST=%artist%" -T "TITLE=%title%" -T "ALBUM=%albumtitle%" -T "DATE=%year%" -T "TRACKNUMBER=%tracknr%" -T "TOTALTRACKS=%numtracks%" -T "GENRE=%genre%" -T "ALBUMARTIST=%albumartist%" -T "ALBUM ARTIST=%albumartist%" -T "COMMENT=EAC Secure Mode, Test & Copy, AccurateRip, FLAC -8" %source%

TOC of the extracted CD Track | Start | Length | Start sector | End sector
--1 | 0:00.00 | 2:49.71 | 0 | 12745 2 | 2:49.71 | 3:23.42 | 12746 | 28012 3 | 6:13.38 | 2:54.28 | 28013 | 41090 4 | 9:07.66 | 2:49.61 | 41091 | 53826 5 | 11:57.52 | 2:48.11 | 53827 | 66437 6 | 14:45.63 | 2:31.59 | 66438 | 77821 7 | 17:17.47 | 2:22.01 | 77822 | 88472 8 | 19:39.48 | 2:27.22 | 88473 | 99519 9 | 22:06.70 | 3:02.09 | 99520 | 113178
10 | 25:09.04 | 2:14.53 | 113179 | 123281
11 | 27:23.57 | 2:40.28 | 123282 | 135309
12 | 30:04.10 | 2:47.60 | 135310 | 147894
13 | 32:51.70 | 2:17.04 | 147895 | 158173
14 | 35:08.74 | 2:33.32 | 158174 | 169680
15 | 37:42.31 | 2:23.55 | 169681 | 180460
16 | 40:06.11 | 2:04.49 | 180461 | 189809
17 | 42:10.60 | 2:14.03 | 189810 | 199862
18 | 44:24.63 | 2:39.08 | 199863 | 211795
19 | 47:03.71 | 2:12.51 | 211796 | 221746
20 | 49:16.47 | 2:49.42 | 221747 | 234463
21 | 52:06.14 | 3:04.56 | 234464 | 248319
22 | 55:10.70 | 2:15.07 | 248320 | 258451
23 | 57:26.02 | 2:35.56 | 258452 | 270132
24 | 60:01.58 | 2:32.21 | 270133 | 281553
25 | 62:34.04 | 1:50.74 | 281554 | 289877

Track 1 Filename M:\3. my rip in preparation\VA - The Very best of Country-75 Original Recordings (2013) [FLAC] (with Digipac 3CD) {Not Now Music NOT3CD102}\CD2\01 - George Jones - Aching Breaking Heart.wav Pre-gap length 0:00:02.00 Peak level 98.3 %
Extraction speed 0.9 X
Track quality 99.9 %
Test CRC AC811078
Copy CRC AC811078
Track not present in AccurateRip database
Copy OK

Track 2 Filename M:\3. my rip in preparation\VA - The Very best of Country-75 Original Recordings (2013) [FLAC] (with Digipac 3CD) {Not Now Music NOT3CD102}\CD2\02 - Jim Reeves - The Blizzard.wav Pre-gap length 0:00:01.77 Peak level 98.6 %
Extraction speed 1.2 X
Track quality 100.0 %
Test CRC 3CE3A834
Copy CRC 3CE3A834
Track not present in AccurateRip database
Copy OK

Track 3 Filename M:\3. my rip in preparation\VA - The Very best of Country-75 Original Recordings (2013) [FLAC] (with Digipac 3CD) {Not Now Music NOT3CD102}\CD2\03 - Johnny Tillotson - It Keeps Right on a Hurtin'.wav Pre-gap length 0:00:01.77 Peak level 98.4 %
Extraction speed 1.3 X
Track quality 100.0 %
Test CRC 53CB7B12
Copy CRC 53CB7B12
Track not present in AccurateRip database
Copy OK

Track 4 Filename M:\3. my rip in preparation\VA - The Very best of Country-75 Original Recordings (2013) [FLAC] (with Digipac 3CD) {Not Now Music NOT3CD102}\CD2\04 - Patsy Cline - I Fall the Pieces.wav Pre-gap length 0:00:01.77 Peak level 98.4 %
Extraction speed 1.3 X
Track quality 100.0 %
Test CRC 7A05741E
Copy CRC 7A05741E
Track not present in AccurateRip database
Copy OK

Track 5 Filename M:\3. my rip in preparation\VA - The Very best of Country-75 Original Recordings (2013) [FLAC] (with Digipac 3CD) {Not Now Music NOT3CD102}\CD2\05 - Johnny Cash - Peace in the Valley.wav Pre-gap length 0:00:01.77 Peak level 98.4 %
Extraction speed 1.4 X
Track quality 100.0 %
Test CRC B813C3FC
Copy CRC B813C3FC
Track not present in AccurateRip database
Copy OK

Track 6 Filename M:\3. my rip in preparation\VA - The Very best of Country-75 Original Recordings (2013) [FLAC] (with Digipac 3CD) {Not Now Music NOT3CD102}\CD2\06 - Ray Price - Crazy Arms.wav Pre-gap length 0:00:01.77 Peak level 98.4 %
Extraction speed 1.5 X
Track quality 100.0 %
Test CRC E152C188
Copy CRC E152C188
Track not present in AccurateRip database
Copy OK

Track 7 Filename M:\3. my rip in preparation\VA - The Very best of Country-75 Original Recordings (2013) [FLAC] (with Digipac 3CD) {Not Now Music NOT3CD102}\CD2\07 - Kitty Wells - Unloved Unwarted.wav Pre-gap length 0:00:01.77 Peak level 98.6 %
Extraction speed 1.5 X
Track quality 100.0 %
Test CRC 0C0FD298
Copy CRC 0C0FD298
Track not present in AccurateRip database
Copy OK

Track 8 Filename M:\3. my rip in preparation\VA - The Very best of Country-75 Original Recordings (2013) [FLAC] (with Digipac 3CD) {Not Now Music NOT3CD102}\CD2\08 - Marty Robbins - Singin' the Blues.wav Pre-gap length 0:00:01.77 Peak level 98.8 %
Extraction speed 1.5 X
Track quality 100.0 %
Test CRC D99B0B99
Copy CRC D99B0B99
Track not present in AccurateRip database
Copy OK

Track 9 Filename M:\3. my rip in preparation\VA - The Very best of Country-75 Original Recordings (2013) [FLAC] (with Digipac 3CD) {Not Now Music NOT3CD102}\CD2\09 - Glen Campbell - Long Blac Limousine.wav Pre-gap length 0:00:01.77 Peak level 98.4 %
Extraction speed 1.7 X
Track quality 100.0 %
Test CRC E930A915
Copy CRC E930A915
Track not present in AccurateRip database
Copy OK

Track 10 Filename M:\3. my rip in preparation\VA - The Very best of Country-75 Original Recordings (2013) [FLAC] (with Digipac 3CD) {Not Now Music NOT3CD102}\CD2\10 - Willie Nelson - Touch Me.wav Pre-gap length 0:00:01.77 Peak level 98.5 %
Extraction speed 1.6 X
Track quality 100.0 %
Test CRC 41992F7E
Copy CRC 41992F7E
Track not present in AccurateRip database
Copy OK

Track 11 Filename M:\3. my rip in preparation\VA - The Very best of Country-75 Original Recordings (2013) [FLAC] (with Digipac 3CD) {Not Now Music NOT3CD102}\CD2\11 - Stonewall Jackson - A Wound Time Can't Erase.wav Pre-gap length 0:00:01.77 Peak level 98.3 %
Extraction speed 1.7 X
Track quality 100.0 %
Test CRC 677688FE
Copy CRC 677688FE
Track not present in AccurateRip database
Copy OK

Track 12 Filename M:\3. my rip in preparation\VA - The Very best of Country-75 Original Recordings (2013) [FLAC] (with Digipac 3CD) {Not Now Music NOT3CD102}\CD2\12 - Porter Wagoner - A Satisfied Mind.wav Pre-gap length 0:00:01.77 Peak level 98.7 %
Extraction speed 1.8 X
Track quality 100.0 %
Test CRC 082CB062
Copy CRC 082CB062
Track not present in AccurateRip database
Copy OK

Track 13 Filename M:\3. my rip in preparation\VA - The Very best of Country-75 Original Recordings (2013) [FLAC] (with Digipac 3CD) {Not Now Music NOT3CD102}\CD2\13 - Loretta Lynn - I'm a Honky Tonk Girl.wav Pre-gap length 0:00:01.77 Peak level 98.3 %
Extraction speed 1.8 X
Track quality 100.0 %
Test CRC 8AACEC90
Copy CRC 8AACEC90
Track not present in AccurateRip database
Copy OK

Track 14 Filename M:\3. my rip in preparation\VA - The Very best of Country-75 Original Recordings (2013) [FLAC] (with Digipac 3CD) {Not Now Music NOT3CD102}\CD2\14 - Johnny Cash - In Them Old Cottonfields Back Home.wav Pre-gap length 0:00:01.77 Peak level 98.7 %
Extraction speed 1.8 X
Track quality 100.0 %
Test CRC C6FA30F2
Copy CRC C6FA30F2
Track not present in AccurateRip database
Copy OK

Track 15 Filename M:\3. my rip in preparation\VA - The Very best of Country-75 Original Recordings (2013) [FLAC] (with Digipac 3CD) {Not Now Music NOT3CD102}\CD2\15 - James O'Gwynn - My Name Is Mud.wav Pre-gap length 0:00:01.77 Peak level 98.8 %
Extraction speed 1.6 X
Track quality 99.9 %
Test CRC EEB9E56C
Copy CRC EEB9E56C
Track not present in AccurateRip database
Copy OK

Track 16 Filename M:\3. my rip in preparation\VA - The Very best of Country-75 Original Recordings (2013) [FLAC] (with Digipac 3CD) {Not Now Music NOT3CD102}\CD2\16 - Ricky Nelson - Half Breed.wav Pre-gap length 0:00:01.77 Peak level 98.5 %
Extraction speed 1.8 X
Track quality 100.0 %
Test CRC 7C94F087
Copy CRC 7C94F087
Track not present in AccurateRip database
Copy OK

Track 17 Filename M:\3. my rip in preparation\VA - The Very best of Country-75 Original Recordings (2013) [FLAC] (with Digipac 3CD) {Not Now Music NOT3CD102}\CD2\17 - Carl Smith - The Best Dreesed Beggar (in Town).wav Pre-gap length 0:00:01.77 Peak level 98.4 %
Extraction speed 1.9 X
Track quality 100.0 %
Test CRC C62825D5
Copy CRC C62825D5
Track not present in AccurateRip database
Copy OK

Track 18 Filename M:\3. my rip in preparation\VA - The Very best of Country-75 Original Recordings (2013) [FLAC] (with Digipac 3CD) {Not Now Music NOT3CD102}\CD2\18 - Buck Owens - Foolin' Around.wav Pre-gap length 0:00:01.77 Peak level 98.7 %
Extraction speed 2.0 X
Track quality 100.0 %
Test CRC 85320106
Copy CRC 85320106
Track not present in AccurateRip database
Copy OK

Track 19 Filename M:\3. my rip in preparation\VA - The Very best of Country-75 Original Recordings (2013) [FLAC] (with Digipac 3CD) {Not Now Music NOT3CD102}\CD2\19 - Patsy Cline - Heartaches.wav Pre-gap length 0:00:01.77 Peak level 98.4 %
Extraction speed 2.0 X
Track quality 100.0 %
Test CRC 51BBA53A
Copy CRC 51BBA53A
Track not present in AccurateRip database
Copy OK

Track 20 Filename M:\3. my rip in preparation\VA - The Very best of Country-75 Original Recordings (2013) [FLAC] (with Digipac 3CD) {Not Now Music NOT3CD102}\CD2\20 - Johnny Horton - North to Alaska.wav Pre-gap length 0:00:01.77 Peak level 98.5 %
Extraction speed 2.1 X
Track quality 100.0 %
Test CRC EB1A8706
Copy CRC EB1A8706
Track not present in AccurateRip database
Copy OK

Track 21 Filename M:\3. my rip in preparation\VA - The Very best of Country-75 Original Recordings (2013) [FLAC] (with Digipac 3CD) {Not Now Music NOT3CD102}\CD2\21 - Lefty Frizzell - The Long Black Veil.wav Pre-gap length 0:00:01.77 Peak level 98.8 %
Extraction speed 2.2 X
Track quality 100.0 %
Test CRC B806BA09
Copy CRC B806BA09
Track not present in AccurateRip database
Copy OK

Track 22 Filename M:\3. my rip in preparation\VA - The Very best of Country-75 Original Recordings (2013) [FLAC] (with Digipac 3CD) {Not Now Music NOT3CD102}\CD2\22 - Leroy van Dyke - Black Cloud.wav Pre-gap length 0:00:01.77 Peak level 98.8 %
Extraction speed 1.7 X
Track quality 99.9 %
Test CRC B6A4E125
Copy CRC B6A4E125
Track not present in AccurateRip database
Copy OK

Track 23 Filename M:\3. my rip in preparation\VA - The Very best of Country-75 Original Recordings (2013) [FLAC] (with Digipac 3CD) {Not Now Music NOT3CD102}\CD2\23 - Melba Montgomery - I'm No Longer in Your Heart.wav Pre-gap length 0:00:01.77 Peak level 98.4 %
Extraction speed 2.2 X
Track quality 100.0 %
Test CRC 576ADC35
Copy CRC 576ADC35
Track not present in AccurateRip database
Copy OK

Track 24 Filename M:\3. my rip in preparation\VA - The Very best of Country-75 Original Recordings (2013) [FLAC] (with Digipac 3CD) {Not Now Music NOT3CD102}\CD2\24 - Don Gibson - Oh Lonsome Me.wav Pre-gap length 0:00:01.77 Peak level 98.5 %
Extraction speed 2.2 X
Track quality 100.0 %
Test CRC 3739AA11
Copy CRC 3739AA11
Track not present in AccurateRip database
Copy OK

Track 25 Filename M:\3. my rip in preparation\VA - The Very best of Country-75 Original Recordings (2013) [FLAC] (with Digipac 3CD) {Not Now Music NOT3CD102}\CD2\25 - Johnny Cash - I'm Free from the Chain Gang Now.wav Pre-gap length 0:00:01.77 Peak level 98.8 %
Extraction speed 2.1 X
Track quality 100.0 %
Test CRC 1E73A7F5
Copy CRC 1E73A7F5
Track not present in AccurateRip database
Copy OK

None of the tracks are present in the AccurateRip database

No errors occurred

End of status report

- CUETools DB Plugin V2.1.4

[CTDB TOCID: Q_3QASBCBi6G1Zez3K.yc3PSTyo-] disk not present in database
Submit result: Q_3QASBCBi6G1Zez3K.yc3PSTyo- has been uploaded

==== Log checksum 1B1250F1DE0F0FBBE1616F96FA25282DC62D21643973E727B5DDAFFBFCBB8D38 ====

Exact Audio Copy V1.0 beta 4 from 7. December 2014

EAC extraction logfile from 20. February 2015, 16:17

Various Artists / The Very best of Country: 75 Original Recordings (Disc 3)

Used drive : TSSTcorpCDDVDW SN-208FB Adapter: 1 ID: 0

Read mode : Secure
Utilize accurate stream : Yes
Defeat audio cache : Yes
Make use of C2 pointers : No

Read offset correction

: 6
Overread into Lead-In and Lead-Out : No
Fill up missing offset samples with silence : Yes
Delete leading and trailing silent blocks : No
Null samples used in CRC calculations : Yes
Used interface
: Native Win32 interface for Win NT & 2000
Gap handling
: Appended to previous track

Used output format : User Defined Encoder
Selected bitrate : 1024 kBit/s
Quality : High
Add ID3 tag : No
Command line compressor : C:\Program Files (x86)\Kodeki za Glasbo\FLAC\flac.exe
Additional command line options : -8 -V -T "ARTIST=%artist%" -T "TITLE=%title%" -T "ALBUM=%albumtitle%" -T "DATE=%year%" -T "TRACKNUMBER=%tracknr%" -T "TOTALTRACKS=%numtracks%" -T "GENRE=%genre%" -T "ALBUMARTIST=%albumartist%" -T "ALBUM ARTIST=%albumartist%" -T "COMMENT=EAC Secure Mode, Test & Copy, AccurateRip, FLAC -8" %source%

TOC of the extracted CD Track | Start | Length | Start sector | End sector
--1 | 0:00.00 | 2:20.16 | 0 | 10515 2 | 2:20.16 | 2:58.31 | 10516 | 23896 3 | 5:18.47 | 2:13.18 | 23897 | 33889 4 | 7:31.65 | 2:55.55 | 33890 | 47069 5 | 10:27.45 | 3:02.16 | 47070 | 60735 6 | 13:29.61 | 2:22.06 | 60736 | 71391 7 | 15:51.67 | 2:15.66 | 71392 | 81582 8 | 18:07.58 | 2:05.04 | 81583 | 90961 9 | 20:12.62 | 2:43.64 | 90962 | 103250
10 | 22:56.51 | 4:41.11 | 103251 | 124336
11 | 27:37.62 | 2:21.07 | 124337 | 134918
12 | 29:58.69 | 2:40.21 | 134919 | 146939
13 | 32:39.15 | 2:36.66 | 146940 | 158705
14 | 35:16.06 | 2:22.22 | 158706 | 169377
15 | 37:38.28 | 2:17.41 | 169378 | 179693
16 | 39:55.69 | 2:07.71 | 179694 | 189289
17 | 42:03.65 | 2:42.66 | 189290 | 201505
18 | 44:46.56 | 2:31.69 | 201506 | 212899
19 | 47:18.50 | 2:32.56 | 212900 | 224355
20 | 49:51.31 | 2:31.64 | 224356 | 235744
21 | 52:23.20 | 2:31.40 | 235745 | 247109
22 | 54:54.60 | 3:09.70 | 247110 | 261354
23 | 58:04.55 | 2:42.69 | 261355 | 273573
24 | 60:47.49 | 2:23.09 | 273574 | 284307
25 | 63:10.58 | 3:05.61 | 284308 | 298243

Track 1 Filename M:\3. my rip in preparation\VA - The Very best of Country-75 Original Recordings (2013) [FLAC] (with Digipac 3CD) {Not Now Music NOT3CD102}\CD3\01 - Dolly Parton - It's Shure Gonna Hurt.wav Pre-gap length 0:00:02.00 Peak level 98.6 %
Extraction speed 0.9 X
Track quality 100.0 %
Test CRC B96B75CC
Copy CRC B96B75CC
Track not present in AccurateRip database
Copy OK

Track 2 Filename M:\3. my rip in preparation\VA - The Very best of Country-75 Original Recordings (2013) [FLAC] (with Digipac 3CD) {Not Now Music NOT3CD102}\CD3\02 - Bobby Helms - My Special Angel.wav Pre-gap length 0:00:01.77 Peak level 98.4 %
Extraction speed 1.0 X
Track quality 100.0 %
Test CRC BE84B71C
Copy CRC BE84B71C
Track not present in AccurateRip database
Copy OK

Track 3 Filename M:\3. my rip in preparation\VA - The Very best of Country-75 Original Recordings (2013) [FLAC] (with Digipac 3CD) {Not Now Music NOT3CD102}\CD3\03 - Glen Campbell - Valley of Death.wav Pre-gap length 0:00:01.77 Peak level 98.4 %
Extraction speed 1.0 X
Track quality 100.0 %
Test CRC 53F26506
Copy CRC 53F26506
Track not present in AccurateRip database
Copy OK

Track 4 Filename M:\3. my rip in preparation\VA - The Very best of Country-75 Original Recordings (2013) [FLAC] (with Digipac 3CD) {Not Now Music NOT3CD102}\CD3\04 - Johnny Cash - Forty Shades of Green.wav Pre-gap length 0:00:01.77 Peak level 98.5 %
Extraction speed 1.1 X
Track quality 100.0 %
Test CRC 7125021A
Copy CRC 7125021A
Track not present in AccurateRip database
Copy OK

Track 5 Filename M:\3. my rip in preparation\VA - The Very best of Country-75 Original Recordings (2013) [FLAC] (with Digipac 3CD) {Not Now Music NOT3CD102}\CD3\05 - Patsy Cline - She's Got You.wav Pre-gap length 0:00:01.77 Peak level 98.4 %
Extraction speed 1.2 X
Track quality 100.0 %
Test CRC 8A589D60
Copy CRC 8A589D60
Track not present in AccurateRip database
Copy OK

Track 6 Filename M:\3. my rip in preparation\VA - The Very best of Country-75 Original Recordings (2013) [FLAC] (with Digipac 3CD) {Not Now Music NOT3CD102}\CD3\06 - Jim Reeves - He'll have to Go.wav Pre-gap length 0:00:01.77 Peak level 98.3 %
Extraction speed 0.9 X
Track quality 99.9 %
Test CRC EF1DEBFD
Copy CRC EF1DEBFD
Track not present in AccurateRip database
Copy OK

Track 7 Filename M:\3. my rip in preparation\VA - The Very best of Country-75 Original Recordings (2013) [FLAC] (with Digipac 3CD) {Not Now Music NOT3CD102}\CD3\07 - Ned Miller - From a Jack to a King.wav Pre-gap length 0:00:01.77 Peak level 98.4 %
Extraction speed 1.2 X
Track quality 100.0 %
Test CRC 9F04ED64
Copy CRC 9F04ED64
Track not present in AccurateRip database
Copy OK

Track 8 Filename M:\3. my rip in preparation\VA - The Very best of Country-75 Original Recordings (2013) [FLAC] (with Digipac 3CD) {Not Now Music NOT3CD102}\CD3\08 - Faron Young - Backtrack.wav Pre-gap length 0:00:01.77 Peak level 98.4 %
Extraction speed 1.2 X
Track quality 100.0 %
Test CRC ADF5328D
Copy CRC ADF5328D
Track not present in AccurateRip database
Copy OK

Track 9 Filename M:\3. my rip in preparation\VA - The Very best of Country-75 Original Recordings (2013) [FLAC] (with Digipac 3CD) {Not Now Music NOT3CD102}\CD3\09 - Buck Ovens - Under Your Spell Again.wav Pre-gap length 0:00:01.77 Peak level 98.3 %
Extraction speed 1.3 X
Track quality 100.0 %
Test CRC 1724C036
Copy CRC 1724C036
Track not present in AccurateRip database
Copy OK

Track 10 Filename M:\3. my rip in preparation\VA - The Very best of Country-75 Original Recordings (2013) [FLAC] (with Digipac 3CD) {Not Now Music NOT3CD102}\CD3\10 - Marty Robbins - El Paso.wav Pre-gap length 0:00:01.77 Peak level 98.6 %
Extraction speed 1.5 X
Track quality 100.0 %
Test CRC 218AE776
Copy CRC 218AE776
Track not present in AccurateRip database
Copy OK

Track 11 Filename M:\3. my rip in preparation\VA - The Very best of Country-75 Original Recordings (2013) [FLAC] (with Digipac 3CD) {Not Now Music NOT3CD102}\CD3\11 - Don Gibson - Lonesome Number One.wav Pre-gap length 0:00:01.77 Peak level 98.4 %
Extraction speed 1.1 X
Track quality 99.9 %
Test CRC B8FE0C11
Copy CRC B8FE0C11
Track not present in AccurateRip database
Copy OK

Track 12 Filename M:\3. my rip in preparation\VA - The Very best of Country-75 Original Recordings (2013) [FLAC] (with Digipac 3CD) {Not Now Music NOT3CD102}\CD3\12 - Stonewall Jackson - Second Choice.wav Pre-gap length 0:00:01.77 Peak level 98.8 %
Extraction speed 1.4 X
Track quality 100.0 %
Test CRC 830B63EA
Copy CRC 830B63EA
Track not present in AccurateRip database
Copy OK

Track 13 Filename M:\3. my rip in preparation\VA - The Very best of Country-75 Original Recordings (2013) [FLAC] (with Digipac 3CD) {Not Now Music NOT3CD102}\CD3\13 - Dottie West - Angel on Paper.wav Pre-gap length 0:00:01.77 Peak level 98.4 %
Extraction speed 1.4 X
Track quality 100.0 %
Test CRC 08F8AEFD
Copy CRC 08F8AEFD
Track not present in AccurateRip database
Copy OK

Track 14 Filename M:\3. my rip in preparation\VA - The Very best of Country-75 Original Recordings (2013) [FLAC] (with Digipac 3CD) {Not Now Music NOT3CD102}\CD3\14 - Johnny Tillotson - Send Me the Pillow You Dream On.wav Pre-gap length 0:00:01.77 Peak level 98.4 %
Extraction speed 1.4 X
Track quality 100.0 %
Test CRC 72409ED8
Copy CRC 72409ED8
Track not present in AccurateRip database
Copy OK

Track 15 Filename M:\3. my rip in preparation\VA - The Very best of Country-75 Original Recordings (2013) [FLAC] (with Digipac 3CD) {Not Now Music NOT3CD102}\CD3\15 - Johnny Cash - Busted.wav Pre-gap length 0:00:01.77 Peak level 98.8 %
Extraction speed 1.4 X
Track quality 100.0 %
Test CRC EC57282A
Copy CRC EC57282A
Track not present in AccurateRip database
Copy OK

Track 16 Filename M:\3. my rip in preparation\VA - The Very best of Country-75 Original Recordings (2013) [FLAC] (with Digipac 3CD) {Not Now Music NOT3CD102}\CD3\16 - Clint Eastwood - Unknown Girl of my Dreams.wav Pre-gap length 0:00:01.77 Peak level 98.5 %
Extraction speed 1.4 X
Track quality 100.0 %
Test CRC 44386217
Copy CRC 44386217
Track not present in AccurateRip database
Copy OK

Track 17 Filename M:\3. my rip in preparation\VA - The Very best of Country-75 Original Recordings (2013) [FLAC] (with Digipac 3CD) {Not Now Music NOT3CD102}\CD3\17 - Willie Nelson & Shirley Collie - Willingly.wav Pre-gap length 0:00:01.77 Peak level 98.4 %
Extraction speed 1.5 X
Track quality 100.0 %
Test CRC E6EA743F
Copy CRC E6EA743F
Track not present in AccurateRip database
Copy OK

Track 18 Filename M:\3. my rip in preparation\VA - The Very best of Country-75 Original Recordings (2013) [FLAC] (with Digipac 3CD) {Not Now Music NOT3CD102}\CD3\18 - Jim Reeves - Adios Amigo.wav Pre-gap length 0:00:01.77 Peak level 98.3 %
Extraction speed 1.5 X
Track quality 100.0 %
Test CRC 93F20F31
Copy CRC 93F20F31
Track not present in AccurateRip database
Copy OK

Track 19 Filename M:\3. my rip in preparation\VA - The Very best of Country-75 Original Recordings (2013) [FLAC] (with Digipac 3CD) {Not Now Music NOT3CD102}\CD3\19 - Laude King - The Burning of Atlanta.wav Pre-gap length 0:00:01.77 Peak level 98.4 %
Extraction speed 1.6 X
Track quality 100.0 %
Test CRC 4CC1F2F2
Copy CRC 4CC1F2F2
Track not present in AccurateRip database
Copy OK

Track 20 Filename M:\3. my rip in preparation\VA - The Very best of Country-75 Original Recordings (2013) [FLAC] (with Digipac 3CD) {Not Now Music NOT3CD102}\CD3\20 - Johnny Horton - Battle of New Orleans.wav Pre-gap length 0:00:01.77 Peak level 98.8 %
Extraction speed 1.6 X
Track quality 100.0 %
Test CRC 03E6056F
Copy CRC 03E6056F
Track not present in AccurateRip database
Copy OK

Track 21 Filename M:\3. my rip in preparation\VA - The Very best of Country-75 Original Recordings (2013) [FLAC] (with Digipac 3CD) {Not Now Music NOT3CD102}\CD3\21 - Conway Twitty - Portrait of a Fool.wav Pre-gap length 0:00:01.77 Peak level 98.4 %
Extraction speed 1.6 X
Track quality 100.0 %
Test CRC 8E4834DA
Copy CRC 8E4834DA
Track not present in AccurateRip database
Copy OK

Track 22 Filename M:\3. my rip in preparation\VA - The Very best of Country-75 Original Recordings (2013) [FLAC] (with Digipac 3CD) {Not Now Music NOT3CD102}\CD3\22 - Jimmy Dean - PT 109.wav Pre-gap length 0:00:01.77 Peak level 98.6 %
Extraction speed 1.7 X
Track quality 100.0 %
Test CRC 809D03DD
Copy CRC 809D03DD
Track not present in AccurateRip database
Copy OK

Track 23 Filename M:\3. my rip in preparation\VA - The Very best of Country-75 Original Recordings (2013) [FLAC] (with Digipac 3CD) {Not Now Music NOT3CD102}\CD3\23 - 'Little' Jimmy Dickens - Twenty Cigaretes.wav Pre-gap length 0:00:01.77 Peak level 98.4 %
Extraction speed 1.7 X
Track quality 100.0 %
Test CRC AC153FD0
Copy CRC AC153FD0
Track not present in AccurateRip database
Copy OK

Track 24 Filename M:\3. my rip in preparation\VA - The Very best of Country-75 Original Recordings (2013) [FLAC] (with Digipac 3CD) {Not Now Music NOT3CD102}\CD3\24 - Johnny Cash - In the Jailhouse Now.wav Pre-gap length 0:00:01.77 Peak level 98.6 %
Extraction speed 1.6 X
Track quality 100.0 %
Test CRC 9ED26796
Copy CRC 9ED26796
Track not present in AccurateRip database
Copy OK

Track 25 Filename M:\3. my rip in preparation\VA - The Very best of Country-75 Original Recordings (2013) [FLAC] (with Digipac 3CD) {Not Now Music NOT3CD102}\CD3\25 - Hank Snow - I Don't Hurt Anymore.wav Pre-gap length 0:00:01.77 Peak level 98.3 %
Extraction speed 1.8 X
Track quality 100.0 %
Test CRC FD75EB9C
Copy CRC FD75EB9C
Track not present in AccurateRip database
Copy OK

None of the tracks are present in the AccurateRip database

No errors occurred

End of status report

- CUETools DB Plugin V2.1.4

[CTDB TOCID: f9qjsCpJgrRlXUoDEkBO8tpD3qo-] disk not present in database
Submit result: f9qjsCpJgrRlXUoDEkBO8tpD3qo- has been uploaded

==== Log checksum 0DA7E02F345C4AB4155E88EB959C4C2DECAC95C3318ED5175615B54F3CE6DF97 ====

Various Artists - The Very Best of Country: 75 Original Recordings (2013) [3CD] {Not Now Music}


All thanks goes to the original releaser!
DOWNLOAD:
Buy Premium To Support Me & Get Resumable Support & Max Speed


Links are Interchangeable - No Password
Direct Download

Tags: Various, Artists, Country, Original, Recordings

Various Artists - The Very Best of Country: 75 Original Recordings (2013) [3CD] {Not Now Music} Download via Hotfile Rapidshare Fileserve Megaupload & FileSonic, Various Artists - The Very Best of Country: 75 Original Recordings (2013) [3CD] {Not Now Music} free torrent downloads included crack, serial, keygen.Various Artists - The Very Best of Country: 75 Original Recordings (2013) [3CD] {Not Now Music} Fast Download via Rapidshare Hotfile Fileserve Filesonic Megaupload, Various Artists - The Very Best of Country: 75 Original Recordings (2013) [3CD] {Not Now Music} Torrents and Emule Download or anything related.
Leave a Comment
Your Name:
E-Mail:
Add Comments:

Enter Code: