Gary Numan + Tubeway Army - Replicas/The Plan: Selections from the Albums (1987)

Download Now

Gary Numan + Tubeway Army - Replicas/The Plan: Selections from the Albums (1987)

Gary Numan + Tubeway Army - Replicas / The Plan (1987)
EAC | FLAC | Image (Cue&Log) ~ 494 Mb (incl 5%) | Mp3 (CBR320) ~ 217 Mb (incl 5%) | Scans included
Genre: New Wave, Synth-Pop, Electronic, Post-Punk | Label: Beggars Banquet | # BEGA 7 CD | Time: 01:11:45

"Upgrading an earlier two-fer CD that curiously omitted great swathes of both albums, the coupling of 1979's breakthrough Replicas and the 1978 demos that comprised The Plan is both chronologically and musically askance -- one entire LP, Tubeway Army's eponymous debut, divided these two projects in time, and while it, too, barely hinted at the utter re-evaluation that Gary Numan would soon be making, the jolt would have been a lot less pronounced had some kind of internal logic been adhered to. No complaints, of course, about the bang for your buck. No less than 38 tracks are spread across the two discs, as the original 12-track The Plan and ten-song Replicas are joined by a wealth of bonus tracks, each offering up a full snapshot of Numan's activities at those particular points in time. The Plan adds three more of the demos that were recorded with the original LP's worth, then adds on the six songs recorded during sessions for the band's first two singles, on either side of the main attraction; Replicas is appended by half a dozen session outtakes, two of which were period B-sides."

"In April 1979, Gary Numan/Tubeway Army made an incredible musical statement with lyrics about androids, machines and shadowy government officials and a fresh sound that quickly became the path for many bands to follow on the path up the pop music charts.

Replicas is a groundbreaking concept album that could have been made into a Sci-Fi movie, with Numan playing the role of narrator of this bleak landscape that is paced by Are 'Friends' Electric? and the iconic Down in the Park. Me! I Disconnect from You, the title cut and I Nearly Married a Human each tell a story of a technological universe devoid of heart and soul, but there is a fascinating accessibility in the electronics; welcome to the twilight zone of clubland. The bonus tracks of B-sides and outtakes bolster what already was an important release that wrote the introductory chapter to a genre of music that exploded onto the scene in the 1980s.

The Plan was released in October 1984 by Numan's then former record label (Numan had left to form his own label) and are early demo recordings from 1978. The 24 tracks - originally The Plan was a 12-track album - is immersed in the punk style, though there are elements in the direction Numan was going to take Tubeway Army when a recording contract was secured. Several numbers were later reworked once Numan had the opportunity to truly explore his artistic vision.

Review by Best Of All, Amazon.com
"




Tracklist:

01. Me! I Disconnect From You (03:22)
02. Are 'Friends' Electric? (05:23)
03. The Mach Man (03:07)
04. Praying To The Aliens (03:56)
05. Down In The Park (04:22)
06. You Are In My Vision (03:13)
07. Replicas (04:59)
08. It Must Have Been Years (04:01)
09. When Machines Rock (03:13)
10. I Nearly Married A Human (06:29)
11. This Is My Life (02:16)
12. Critics (01:51)
13. The Monday Troop (02:57)
14. Mean Street (03:15)
15. Thoughts No. 2 (03:24)
16. Basic J (02:52)
17. Ice (02:16)
18. Crime Of Passion (03:35)
19. Check It (03:35)
20. Out Of Sight (03:29)


Exact Audio Copy V1.0 beta 3 from 29. August 2011

EAC extraction logfile from 21. June 2012, 3:12

Gary Numan / Tubeway Army / Replicas/The Plan (Beggars Banquet, BEGA 7 CD)

Used drive : PLEXTOR DVDR PX-880SA Adapter: 5 ID: 0

Read mode : Secure
Utilize accurate stream : Yes
Defeat audio cache : Yes
Make use of C2 pointers : No

Read offset correction

: 6
Overread into Lead-In and Lead-Out : No
Fill up missing offset samples with silence : Yes
Delete leading and trailing silent blocks : No
Null samples used in CRC calculations : Yes
Used interface
: Native Win32 interface for Win NT & 2000

Used output format : User Defined Encoder
Selected bitrate : 1024 kBit/s
Quality : High
Add ID3 tag : No
Command line compressor : C:\Program Files\FLAC\flac.exe
Additional command line options : -8 -V %source% -o %dest%

TOC of the extracted CD Track | Start | Length | Start sector | End sector
--1 | 0:00.00 | 3:22.72 | 0 | 15221 2 | 3:22.72 | 5:23.53 | 15222 | 39499 3 | 8:46.50 | 3:07.35 | 39500 | 53559 4 | 11:54.10 | 3:56.72 | 53560 | 71331 5 | 15:51.07 | 4:22.08 | 71332 | 90989 6 | 20:13.15 | 3:13.40 | 90990 | 105504 7 | 23:26.55 | 4:59.30 | 105505 | 127959 8 | 28:26.10 | 4:01.10 | 127960 | 146044 9 | 32:27.20 | 3:13.12 | 146045 | 160531
10 | 35:40.32 | 6:29.40 | 160532 | 189746
11 | 42:09.72 | 2:16.10 | 189747 | 199956
12 | 44:26.07 | 1:51.68 | 199957 | 208349
13 | 46:18.00 | 2:57.42 | 208350 | 221666
14 | 49:15.42 | 3:15.68 | 221667 | 236359
15 | 52:31.35 | 3:24.50 | 236360 | 251709
16 | 55:56.10 | 2:52.22 | 251710 | 264631
17 | 58:48.32 | 2:16.05 | 264632 | 274836
18 | 61:04.37 | 3:35.35 | 274837 | 290996
19 | 64:39.72 | 3:35.70 | 290997 | 307191
20 | 68:15.67 | 3:29.20 | 307192 | 322886

Range status and errors

Selected range Filename C:\Mysterons [Skull_of_Sheeps]\Gary Numan , Tubeway Army [1987] Replicas,The Plan (Beggars Banquet, BEGA 7 CD)\Gary Numan , Tubeway Army - Replicas,The Plan (BEGA 7 CD).wav Peak level 93.4 %
Extraction speed 2.3 X
Range quality 99.9 %
Test CRC B3F55C0B
Copy CRC B3F55C0B
Copy OK

No errors occurred


AccurateRip summary

Track 1 accurately ripped (confidence 4) [7767CE84] (AR v1)
Track 2 accurately ripped (confidence 4) [9E07B5AE] (AR v1)
Track 3 accurately ripped (confidence 3) [624BF2C9] (AR v1)
Track 4 accurately ripped (confidence 3) [47A6AD04] (AR v1)
Track 5 accurately ripped (confidence 4) [6CBEFF07] (AR v1)
Track 6 accurately ripped (confidence 3) [72E3C810] (AR v1)
Track 7 accurately ripped (confidence 4) [C648746C] (AR v1)
Track 8 accurately ripped (confidence 3) [DC83CC44] (AR v1)
Track 9 accurately ripped (confidence 3) [88D66499] (AR v1)
Track 10 accurately ripped (confidence 3) [A1A3A73E] (AR v1)
Track 11 accurately ripped (confidence 4) [F9E25197] (AR v1)
Track 12 accurately ripped (confidence 4) [9C7AB478] (AR v1)
Track 13 accurately ripped (confidence 4) [D5EEC038] (AR v1)
Track 14 accurately ripped (confidence 4) [CFE42115] (AR v1)
Track 15 accurately ripped (confidence 4) [58D42A56] (AR v1)
Track 16 accurately ripped (confidence 4) [7A476F2D] (AR v1)
Track 17 accurately ripped (confidence 4) [6E38A377] (AR v1)
Track 18 accurately ripped (confidence 4) [47F955BA] (AR v1)
Track 19 accurately ripped (confidence 4) [4E830C6B] (AR v1)
Track 20 accurately ripped (confidence 4) [2D288FD3] (AR v1)

All tracks accurately ripped

End of status report

- CUETools DB Plugin V2.1.3

[CTDB TOCID: 2utWerFaZzyoBvWG9.1C7O4Uuj8-] found, Submit result: 2utWerFaZzyoBvWG9.1C7O4Uuj8- has been confirmed
[771305ed] (1/1) Accurately ripped

foobar2000 1.2 / Dynamic Range Meter 1.1.1
log date: 2015-08-26 16:02:05

Analyzed: Gary Numan / Tubeway Army / Replicas/The Plan (Beggars Banquet, BEGA 7 CD)

DR Peak RMS Duration Track

DR15 -0.73 dB -18.29 dB 3:23 01-Me! I Disconnect From You
DR13 -0.59 dB -16.67 dB 5:24 02-Are 'Friends' Electric?
DR13 -1.98 dB -17.14 dB 3:07 03-The Mach Man
DR14 -2.56 dB -18.32 dB 3:57 04-Praying To The Aliens
DR13 -1.59 dB -17.47 dB 4:22 05-Down In The Park
DR13 -1.09 dB -16.18 dB 3:14 06-You Are In My Vision
DR14 -2.12 dB -18.17 dB 4:59 07-Replicas
DR12 -1.56 dB -16.02 dB 4:01 08-It Must Have Been Years
DR12 -0.80 dB -15.61 dB 3:13 09-When Machines Rock
DR11 -3.27 dB -18.22 dB 6:30 10-I Nearly Married A Human
DR13 -2.06 dB -17.78 dB 2:16 11-This Is My Life
DR13 -3.41 dB -20.25 dB 1:52 12-Critics
DR13 -6.66 dB -23.47 dB 2:58 13-The Monday Troop
DR15 -4.67 dB -21.73 dB 3:16 14-Mean Street
DR13 -5.51 dB -19.94 dB 3:25 15-Thoughts No. 2
DR12 -4.14 dB -18.55 dB 2:52 16-Basic J
DR13 -3.22 dB -18.36 dB 2:16 17-Ice
DR15 -3.34 dB -22.10 dB 3:35 18-Crime Of Passion
DR13 -2.64 dB -19.31 dB 3:36 19-Check It
DR14 -1.43 dB -16.61 dB 3:29 20-Out Of Sight

Number of tracks: 20
Official DR value: DR13

Samplerate: 44100 Hz
Channels: 2
Bits per sample: 16
Bitrate: 834 kbps
Codec: FLAC

Gary Numan + Tubeway Army - Replicas/The Plan: Selections from the Albums (1987)

Gary Numan + Tubeway Army - Replicas/The Plan: Selections from the Albums (1987)

All thanks to original releaser - Mysterons

Password: designol

DOWNLOAD LINKS
Buy Premium From My Links To Get Resumable Support & Max Speed & To Support Me


Links are Interchangeable - No Password - Single Extraction
Direct Download

Tags: Tubeway, Replicas, Selections, Albums

Gary Numan + Tubeway Army - Replicas/The Plan: Selections from the Albums (1987) Download via Hotfile Rapidshare Fileserve Megaupload & FileSonic, Gary Numan + Tubeway Army - Replicas/The Plan: Selections from the Albums (1987) free torrent downloads included crack, serial, keygen.Gary Numan + Tubeway Army - Replicas/The Plan: Selections from the Albums (1987) Fast Download via Rapidshare Hotfile Fileserve Filesonic Megaupload, Gary Numan + Tubeway Army - Replicas/The Plan: Selections from the Albums (1987) Torrents and Emule Download or anything related.
Leave a Comment
Your Name:
E-Mail:
Add Comments:

Enter Code: