Alice Cooper - Flush the Fashion (1980) [Warner-Pioneer 1990] *RE-UP

Download Now

Alice Cooper - Flush the Fashion (1980) [Warner-Pioneer 1990] *RE-UP

Alice Cooper - Flush the Fashion (1980)
EAC-FLAC Image with CUE & LOG - 202 MB | Scans | MP3 CBR 320 Kbps - 66 MB
Rock / Hard Rock / New Wave | TT - 28:41 mins | Label: Warner-Pioneer Corp. | Cat. # WPCP-3497

Flush the Fashion is an album by Alice Cooper, released in 1980. Musically the album was a drastic change of style for Alice Cooper, leaning towards a new wave influence. Though the lead single "Clones (We're All)" only touched the Billboard Top 40, the album was Cooper's most successful album in 4 years and is widely considered by fans as a hidden gem in his musical catalogue.
The album's ten tracks touch on themes such as the loss of identity, taking on other roles, and the usual Alice Cooper-esque dementia. This is evident even in the lyrics of Flush the Fashion's cover songs (for example the "Clones" single). Cooper also performs several "story" songs, presenting a series of intriguing vignettes in lieu of more traditional subject matter.

"allmusic.com says:
After several self-indulgent albums in the late '70s (Lace and Whiskey, From the Inside), Alice Cooper decided to reinvent himself as a new waver for 1980's Flush the Fashion. As a result of a hooking up with Cars producer Roy Thomas Baker, the sound is glossier; Baker also replaced the gritty guitar riffs that served as the basis for past Cooper rock compositions with icy synthesizers. The best-known song ended up being the cover "Clones (We're All)," which was in turn covered by the Smashing Pumpkins for their 1995 box set The Aeroplane Flies High. Other highlights include the stately sounds of "Pain," the brief album-opening "Talk Talk," and one of the album's few riff rockers, "Grim Facts" (although the lyrics from the latter aren't quite up to snuff with those from "Talk Talk"). It was around this time that Cooper relapsed into alcoholism, and his subsequent early-'80s releases (Special Forces, Zipper Catches Skin, Dada) became more unpredictable and more uncharacteristic of the expected Alice Cooper direction and sound."


Tracks:

01. Talk Talk
02. Clones (We're All)
03. Pain
04. Leather Boots
05. Aspirin Damage
06. Nuclear Infected
07. Grim Facts
08. Model Citizen
09. Dance Yourself To Death
10. Headlines

Produced by Roy Thomas Baker.

More information @ Wikipedia

Отчёт EAC об извлечении, выполненном 15. июня 2009, 23:50 для диска:
Alice Cooper / Flush the Fashion

Дисковод: PIONEER DVD-RW DVR-216D Adapter: 0 ID: 1
Режим чтения: Достоверный (C2: нет, Точный поток: да, Отключение кэша: да)
Коррекция смещения при чтении: 96
Способность читать области Lead-in и Lead-out : Нет

Выходной формат: C:\Program Files\Monkey's Audio\MAC.exe (Monkey's Audio (без потерь)) High Lossless Compression

Другие параметры:
Заполнение пропущенных сэмплов тишиной : Да
Удаление блоков с тишиной в начале и конце : Нет
Установленный внешний ASPI-интерфейс

Характеристики диапазона извлечения и сообщения об ошибках
Выбранный диапазон
Имя файла E:\A\Alice Cooper\13-Flush The Fashion 1980\Alice Cooper - Flush the Fashion.wav Пиковый уровень 100.0 %
Качество диапазона 100.0 %
CRC FC06C5FC
Копирование... OK

Ошибок не произошло

Конец отчёта

_______________________

CUETools log; Date: 24.04.2011 2:06:10; Version: 2.0.9
[AccurateRip ID: 000a8945-0054b573-7a06b90a] found.
Track [ CRC ] Status
01 [4ba62fb3] (2/2) Accurately ripped
02 [02f6333d] (2/2) Accurately ripped
03 [d86198e5] (2/2) Accurately ripped
04 [7bef8f25] (2/2) Accurately ripped
05 [dbb39f5a] (2/2) Accurately ripped
06 [67ef2369] (2/2) Accurately ripped
07 [c3a0b401] (2/2) Accurately ripped
08 [4aa64f26] (2/2) Accurately ripped
09 187206b (2/2) Accurately ripped
10 [f96800bc] (2/2) Accurately ripped

Track Peak [ CRC32 ] [W/O NULL]
-- 99,9 [FC06C5FC] [3E0EC1FD]
01 90,7 [3C5005FA] [944BCE21]
02 94,6 [C41666DD] [9B93401C]
03 97,1 [1D71965F] [5547ACD8]
04 92,1 [65E5D555] [11A6F43F]
05 86,4 [5B667D5A] [206788F6]
06 89,7 [FC9C362C] [95AF428E]
07 99,9 [A990AD53] [E3EC1B28]
08 80,6 [136DBF3D] DBA4119
09 95,6 [176B29E2] B0C03B2
10 92,2 [C91839A6] [036E4D1F]
DOWNLOAD LINKS
Buy Premium From My Links To Get Resumable Support & Max Speed & To Support Me


Links are Interchangeable - No Password - Single Extraction
Direct Download

Tags: Cooper, Fashion, Warner

Alice Cooper - Flush the Fashion (1980) [Warner-Pioneer 1990] *RE-UP Download via Hotfile Rapidshare Fileserve Megaupload & FileSonic, Alice Cooper - Flush the Fashion (1980) [Warner-Pioneer 1990] *RE-UP free torrent downloads included crack, serial, keygen.Alice Cooper - Flush the Fashion (1980) [Warner-Pioneer 1990] *RE-UP Fast Download via Rapidshare Hotfile Fileserve Filesonic Megaupload, Alice Cooper - Flush the Fashion (1980) [Warner-Pioneer 1990] *RE-UP Torrents and Emule Download or anything related.
Leave a Comment
Your Name:
E-Mail:
Add Comments:

Enter Code: