Rumon Gamba - Arnold: Ballet Music (2009)

Download Now

Rumon Gamba - Arnold: Ballet Music (2009)

Rumon Gamba - Arnold: Ballet Music (2009)
EAC Rip | Flac (Image + cue + log) | 309 MB | MP3 320Kbps CBR | 181 MB | 1 CD | Full Scans
Genre: Classical | Label: Chandos | Catalog Number: 10550

"Rumon Gamba: ‘Having recorded symphonies and film music by Malcolm Arnold and knowing how well his music is received by audiences around the world, I was surprised that there was no disc dedicated solely to his music for the ballet. The four scores featured here on this disc have such strong musical ideas and dramatic narrative, to say nothing of their sheer beauty and passion, that they come alive as pieces of music in their own right. And such contrasts on this programme - brutality and energy (Electra), sweeping romanticism (Rinaldo and Armida) and humour in all its guises (Sweeney Todd). I particularly enjoyed recording Rinaldo and Armida which deserves its place in the repertoire alongside those ballet scores we hear all too often in the concert hall.'"

"Reviews: Fans of Malcolm Arnold will want this disc as a matter of course; the music is wholly characteristic. Though nominally ballet music, there's little here that sounds especially danceable, which doesn't mean it's not rhythmic. Rather, these scores sound just like film music, and accordingly they are most interesting where they are most atmospheric--Rinaldo and Armida and Sweeney Todd, principally. Electra is largely atonal but sounds like Arnold anyway, while Homage to the Queen is one of those British pageant pieces that you'd have to be a hardcore monarchist to love. Still, it's brilliantly scored and lots of fun, and you kind of get the idea that Arnold wasn't taking it all that seriously (heretical though the notion may be). The performances are as vigorous and colorful as the music itself, and the sonics are first-rate. Not great Arnold, perhaps, but as I said, it's all very typical, and for many listeners that will be more than enough."


Tracklisting:

[1]-[6] Suite from ‘Homage to the Queen', Op. 42 (1953)

[7]-[12] Rinaldo and Armida, Op.49 (1954)
Dance-drama in One Act

[13]-[19] Concert Suite from ‘Sweeney Todd', Op. 68a (1959)

[20]-[22] Electra, Op. 79 (1963)
Ballet in One Act

Exact Audio Copy V1.1 from 23. June 2015

EAC extraction logfile from 2. August 2015, 14:36

BBC Philharmonic, Rumon Gamba / Arnold - Ballet Music

Used drive : HL-DT-STDVDRAM GU70N Adapter: 1 ID: 0

Read mode : Secure
Utilize accurate stream : Yes
Defeat audio cache : Yes
Make use of C2 pointers : No

Read offset correction

: 48
Overread into Lead-In and Lead-Out : No
Fill up missing offset samples with silence : Yes
Delete leading and trailing silent blocks : No
Null samples used in CRC calculations : Yes
Used interface
: Native Win32 interface for Win NT & 2000

Used output format : User Defined Encoder
Selected bitrate : 128 kBit/s
Quality : High
Add ID3 tag : No
Command line compressor : C:\Program Files (x86)\Exact Audio Copy\Flac\flac.exe
Additional command line options : -V -8 -T "Date=%year%" -T "Genre=%genre%" %source%

TOC of the extracted CD Track | Start | Length | Start sector | End sector
--1 | 0:00.00 | 4:35.18 | 0 | 206422 | 4:35.18 | 1:09.65 | 20643 | 258823 | 5:45.08 | 5:17.10 | 25883 | 496674 | 11:02.18 | 1:03.00 | 49668 | 543925 | 12:05.18 | 5:12.45 | 54393 | 778376 | 17:17.63 | 2:35.50 | 77838 | 895127 | 19:53.38 | 3:20.35 | 89513 | 1045478 | 23:13.73 | 4:22.20 | 104548 | 1242179 | 27:36.18 | 2:04.59 | 124218 | 133576
10 | 29:41.02 | 3:54.36 | 133577 | 151162
11 | 33:35.38 | 4:12.55 | 151163 | 170117
12 | 37:48.18 | 3:10.55 | 170118 | 184422
13 | 40:58.73 | 3:17.50 | 184423 | 199247
14 | 44:16.48 | 1:33.65 | 199248 | 206287
15 | 45:50.38 | 1:58.18 | 206288 | 215155
16 | 47:48.56 | 2:11.67 | 215156 | 225047
17 | 50:00.48 | 1:37.70 | 225048 | 232392
18 | 51:38.43 | 5:39.45 | 232393 | 257862
19 | 57:18.13 | 4:04.70 | 257863 | 276232
20 | 61:23.08 | 4:09.40 | 276233 | 294947
21 | 65:32.48 | 6:30.60 | 294948 | 324257
22 | 72:03.33 | 4:10.42 | 324258 | 343049

Range status and errors

Selected range Filename C:\temp\Arnold - Ballet Music\Arnold - Ballet Music.wav Peak level 98.1 %
Extraction speed 2.3 X
Range quality 99.9 %
Test CRC 751BA7AF
Copy CRC 751BA7AF
Copy OK

No errors occurred

AccurateRip summary

Track 1 accurately ripped (confidence 3) [ACF770CA] (AR v2)
Track 2 accurately ripped (confidence 4) [28262E7C] (AR v2)
Track 3 accurately ripped (confidence 4) [86C284A8] (AR v2)
Track 4 accurately ripped (confidence 4) A495085 (AR v2)
Track 5 accurately ripped (confidence 4) [8D7E520C] (AR v2)
Track 6 accurately ripped (confidence 4) [A8CF6C3F] (AR v2)
Track 7 accurately ripped (confidence 4) [6A1D3C93] (AR v2)
Track 8 accurately ripped (confidence 4) [7CEB747A] (AR v2)
Track 9 accurately ripped (confidence 4) [255EC303] (AR v2)
Track 10 accurately ripped (confidence 4) [3B595102] (AR v2)
Track 11 accurately ripped (confidence 4) [3F1DA0A1] (AR v2)
Track 12 accurately ripped (confidence 4) [74A8113E] (AR v2)
Track 13 accurately ripped (confidence 4) [26C9D114] (AR v2)
Track 14 accurately ripped (confidence 4) [805CEE50] (AR v2)
Track 15 accurately ripped (confidence 4) [6028FE3A] (AR v2)
Track 16 accurately ripped (confidence 4) [E8F92B7D] (AR v2)
Track 17 accurately ripped (confidence 4) [6544B2B9] (AR v2)
Track 18 accurately ripped (confidence 4) [08174742] (AR v2)
Track 19 accurately ripped (confidence 4) [14B79370] (AR v2)
Track 20 accurately ripped (confidence 4) [AA34F572] (AR v2)
Track 21 accurately ripped (confidence 4) C4265B5 (AR v2)
Track 22 accurately ripped (confidence 4) [1AE64F62] (AR v2)

All tracks accurately ripped

End of status report

==== Log checksum A9E2797ABF9B9FFAFF755C3A4174B872D1762540DA34874FC94AB860BC894AF5 ====
DOWNLOAD LINKS
Buy Premium From My Links To Get Resumable Support & Max Speed & To Support Me


Links are Interchangeable - No Password - Single Extraction
Direct Download

Tags: Arnold, Ballet

Rumon Gamba - Arnold: Ballet Music (2009) Download via Hotfile Rapidshare Fileserve Megaupload & FileSonic, Rumon Gamba - Arnold: Ballet Music (2009) free torrent downloads included crack, serial, keygen.Rumon Gamba - Arnold: Ballet Music (2009) Fast Download via Rapidshare Hotfile Fileserve Filesonic Megaupload, Rumon Gamba - Arnold: Ballet Music (2009) Torrents and Emule Download or anything related.
Leave a Comment
Your Name:
E-Mail:
Add Comments:

Enter Code: