VA - Brazil Classics 3: Forro Etc. (1991) {Luaka Bop}

Download Now

VA - Brazil Classics 3: Forro Etc. (1991) {Luaka Bop}

VA - Brazil Classics 3: Forro Etc. (1991) {Luaka Bop}
EAC Rip | FLAC with CUE and log | scans | 370 mb
MP3 CBR 320kbps | RAR | 132 mb
Genre: Brazilian, forro

Brazil Classics 3: Forro Etc. is a 1991 compilation CD released by the Luaka Bop. For this edition, they explore the different aspects of a style of Brazilian music called forro. This was compiled by David Byrne of the Talking Heads.
VA - Brazil Classics 3: Forro Etc. (1991) {Luaka Bop}

1. Luiz Gonzaga - O Fole Roncou (2:45)
2. Gal Costa - Festa Do Interior (3:14)
3. Jackson Do Pandeiro - Tum-Tum-Tum (2:33)
4. Luiz Gonzaga - Danado De Bom (2:43)
5. Dominguinhos - Querubim (2:48)
6. Anastácia - O Succeso Da Zefinha (2:07)
7. Nando Cordel & Amelinha - É De Dar Água Na Boca (3:59)
8. Dominguinhos - Vou Com Vocé (2:04)
9. Gonzaguinha - Asa Branca (3:22)
10. Clemilda - Recordaçao De Vaqueiro (2:37)
11. Jorge De Altinho & Dominguinhos - Bom Demais (3:22)
12. Marinalva Tarde Nordestina (3:16)
13. Luiz Gonzaga - A Feira De Caruaru (3:12)
14. Genival Lacerda - Aniversário Da Seu Vava (3:26)
15. Jackson Do Pandeiro - Chiclete Com Banana (2:38)
16. Trio Nordestino - Rejeição (2:09)
17. João do Vale - Estrela Miúda (2:56)
18. Luiz Gonzaga & Elba Ramalho - Sanfoninha Choradeira (2:59)

Exact Audio Copy V1.1 from 23. June 2015

EAC extraction logfile from 21. August 2015, 21:27

Various Artists / Brazil Classics 3: Forro Etc.

Used drive : TEAC DVD-ROM DV-28SW Adapter: 1 ID: 0

Read mode : Secure
Utilize accurate stream : Yes
Defeat audio cache : Yes
Make use of C2 pointers : No

Read offset correction

: 6
Overread into Lead-In and Lead-Out : No
Fill up missing offset samples with silence : Yes
Delete leading and trailing silent blocks : No
Null samples used in CRC calculations : Yes
Used interface
: Native Win32 interface for Win NT & 2000
Gap handling
: Appended to previous track

Used output format : Internal WAV Routines
Sample format : 44.100 Hz; 16 Bit; Stereo

TOC of the extracted CD Track | Start | Length | Start sector | End sector
--1 | 0:00.00 | 2:47.30 | 0 | 12554 2 | 2:47.30 | 3:13.20 | 12555 | 27049 3 | 6:00.50 | 2:32.65 | 27050 | 38514 4 | 8:33.40 | 2:47.60 | 38515 | 51099 5 | 11:21.25 | 2:47.30 | 51100 | 63654 6 | 14:08.55 | 2:10.00 | 63655 | 73404 7 | 16:18.55 | 3:58.45 | 73405 | 91299 8 | 20:17.25 | 2:06.07 | 91300 | 100756 9 | 22:23.32 | 3:22.18 | 100757 | 115924
10 | 25:45.50 | 2:39.50 | 115925 | 127899
11 | 28:25.25 | 3:20.57 | 127900 | 142956
12 | 31:46.07 | 3:17.18 | 142957 | 157749
13 | 35:03.25 | 3:16.40 | 157750 | 172489
14 | 38:19.65 | 3:28.67 | 172490 | 188156
15 | 41:48.57 | 2:35.55 | 188157 | 199836
16 | 44:24.37 | 2:11.05 | 199837 | 209666
17 | 46:35.42 | 3:00.25 | 209667 | 223191
18 | 49:35.67 | 3:00.15 | 223192 | 236706

Track 1 Filename C:\My Documents\My FLAC\VA - Brazil Classics 3. Forro Etc. (1991) [FLAC] {Luaka Bop}\01 - Luiz Gonzaga - O Fole Roncou.wav Pre-gap length 0:00:02.00 Peak level 87.3 %
Extraction speed 2.6 X
Track quality 100.0 %
Test CRC C6111943
Copy CRC C6111943
Accurately ripped (confidence 2) [C18BCFA7] (AR v2)
Copy OK

Track 2 Filename C:\My Documents\My FLAC\VA - Brazil Classics 3. Forro Etc. (1991) [FLAC] {Luaka Bop}\02 - Gal Costa - Festa Do Interior.wav Pre-gap length 0:00:00.30 Peak level 91.4 %
Extraction speed 2.9 X
Track quality 100.0 %
Test CRC F65EC3D2
Copy CRC F65EC3D2
Accurately ripped (confidence 2) [A0436359] (AR v2)
Copy OK

Track 3 Filename C:\My Documents\My FLAC\VA - Brazil Classics 3. Forro Etc. (1991) [FLAC] {Luaka Bop}\03 - Jackson Do Pandeiro - Tum-Tum-Tum.wav Pre-gap length 0:00:00.50 Peak level 89.9 %
Extraction speed 3.0 X
Track quality 100.0 %
Test CRC 9E1182BE
Copy CRC 9E1182BE
Accurately ripped (confidence 2) [96F7614D] (AR v2)
Copy OK

Track 4 Filename C:\My Documents\My FLAC\VA - Brazil Classics 3. Forro Etc. (1991) [FLAC] {Luaka Bop}\04 - Luiz Gonzaga - Danado De Bom.wav Peak level 100.0 %
Extraction speed 3.1 X
Track quality 100.0 %
Test CRC CA4ED24E
Copy CRC CA4ED24E
Accurately ripped (confidence 2) [03BC231F] (AR v2)
Copy OK

Track 5 Filename C:\My Documents\My FLAC\VA - Brazil Classics 3. Forro Etc. (1991) [FLAC] {Luaka Bop}\05 - Dominguinhos - Querubim.wav Pre-gap length 0:00:00.25 Peak level 100.0 %
Extraction speed 3.3 X
Track quality 100.0 %
Test CRC AAB1C9BE
Copy CRC AAB1C9BE
Accurately ripped (confidence 2) [C669FB96] (AR v2)
Copy OK

Track 6 Filename C:\My Documents\My FLAC\VA - Brazil Classics 3. Forro Etc. (1991) [FLAC] {Luaka Bop}\06 - Anastácia - O Succeso Da Zefinha.wav Pre-gap length 0:00:00.33 Peak level 68.3 %
Extraction speed 3.3 X
Track quality 100.0 %
Test CRC EBEED70F
Copy CRC EBEED70F
Accurately ripped (confidence 2) [E2CA3FE6] (AR v2)
Copy OK

Track 7 Filename C:\My Documents\My FLAC\VA - Brazil Classics 3. Forro Etc. (1991) [FLAC] {Luaka Bop}\07 - Nando Cordel & Amelinha - É De Dar Água Na Boca.wav Pre-gap length 0:00:01.40 Peak level 100.0 %
Extraction speed 3.9 X
Track quality 100.0 %
Test CRC 0411E9B7
Copy CRC 0411E9B7
Accurately ripped (confidence 2) [74C80173] (AR v2)
Copy OK

Track 8 Filename C:\My Documents\My FLAC\VA - Brazil Classics 3. Forro Etc. (1991) [FLAC] {Luaka Bop}\08 - Dominguinhos - Vou Com Vocé.wav Pre-gap length 0:00:00.28 Peak level 93.5 %
Extraction speed 3.6 X
Track quality 100.0 %
Test CRC 7DE1ACF8
Copy CRC 7DE1ACF8
Accurately ripped (confidence 2) 907FFD5 (AR v2)
Copy OK

Track 9 Filename C:\My Documents\My FLAC\VA - Brazil Classics 3. Forro Etc. (1991) [FLAC] {Luaka Bop}\09 - Gonzaguinha - Asa Branca.wav Pre-gap length 0:00:00.57 Peak level 83.9 %
Extraction speed 4.0 X
Track quality 100.0 %
Test CRC 59FC0113
Copy CRC 59FC0113
Accurately ripped (confidence 2) [70ADB2F2] (AR v2)
Copy OK

Track 10 Filename C:\My Documents\My FLAC\VA - Brazil Classics 3. Forro Etc. (1991) [FLAC] {Luaka Bop}\10 - Clemilda - Recordaçao De Vaqueiro.wav Peak level 80.8 %
Extraction speed 3.2 X
Track quality 99.9 %
Test CRC 7D50F5F4
Copy CRC 7D50F5F4
Accurately ripped (confidence 2) [1C910E7A] (AR v2)
Copy OK

Track 11 Filename C:\My Documents\My FLAC\VA - Brazil Classics 3. Forro Etc. (1991) [FLAC] {Luaka Bop}\11 - Jorge De Altinho & Dominguinhos - Bom Demais.wav Pre-gap length 0:00:01.38 Peak level 82.0 %
Extraction speed 4.3 X
Track quality 100.0 %
Test CRC F8551225
Copy CRC F8551225
Accurately ripped (confidence 2) [FEB70B23] (AR v2)
Copy OK

Track 12 Filename C:\My Documents\My FLAC\VA - Brazil Classics 3. Forro Etc. (1991) [FLAC] {Luaka Bop}\12 - Marinalva - Tarde Nordestina.wav Pre-gap length 0:00:01.00 Peak level 84.9 %
Extraction speed 4.4 X
Track quality 100.0 %
Test CRC A39D1078
Copy CRC A39D1078
Accurately ripped (confidence 2) [2EEDAEBD] (AR v2)
Copy OK

Track 13 Filename C:\My Documents\My FLAC\VA - Brazil Classics 3. Forro Etc. (1991) [FLAC] {Luaka Bop}\13 - Luiz Gonzaga - A Feira De Caruaru.wav Pre-gap length 0:00:00.03 Peak level 72.1 %
Extraction speed 3.8 X
Track quality 99.9 %
Test CRC 5CCAE7CC
Copy CRC 5CCAE7CC
Accurately ripped (confidence 2) CC23760 (AR v2)
Copy OK

Track 14 Filename C:\My Documents\My FLAC\VA - Brazil Classics 3. Forro Etc. (1991) [FLAC] {Luaka Bop}\14 - Genival Lacerda - Aniversário Da Seu Vava.wav Pre-gap length 0:00:02.60 Peak level 89.1 %
Extraction speed 4.8 X
Track quality 100.0 %
Test CRC 1B33E36F
Copy CRC 1B33E36F
Accurately ripped (confidence 2) [7B3CC406] (AR v2)
Copy OK

Track 15 Filename C:\My Documents\My FLAC\VA - Brazil Classics 3. Forro Etc. (1991) [FLAC] {Luaka Bop}\15 - Jackson Do Pandeiro - Chiclete Com Banana.wav Pre-gap length 0:00:01.57 Peak level 89.1 %
Extraction speed 4.6 X
Track quality 100.0 %
Test CRC 6325893E
Copy CRC 6325893E
Accurately ripped (confidence 2) [6BA5E0DF] (AR v2)
Copy OK

Track 16 Filename C:\My Documents\My FLAC\VA - Brazil Classics 3. Forro Etc. (1991) [FLAC] {Luaka Bop}\16 - João do Vale - Rejeição.wav Peak level 84.0 %
Extraction speed 4.6 X
Track quality 100.0 %
Test CRC 802E66BC
Copy CRC 802E66BC
Accurately ripped (confidence 2) [A6998120] (AR v2)
Copy OK

Track 17 Filename C:\My Documents\My FLAC\VA - Brazil Classics 3. Forro Etc. (1991) [FLAC] {Luaka Bop}\17 - Trio Nordestino - Estrela Miúda.wav Pre-gap length 0:00:02.20 Peak level 89.1 %
Extraction speed 4.5 X
Track quality 100.0 %
Test CRC CE34B2DF
Copy CRC CE34B2DF
Accurately ripped (confidence 2) [F8891391] (AR v2)
Copy OK

Track 18 Filename C:\My Documents\My FLAC\VA - Brazil Classics 3. Forro Etc. (1991) [FLAC] {Luaka Bop}\18 - Luiz Gonzaga & Elba Ramalho - Sanfoninha Choradeira.wav Pre-gap length 0:00:00.67 Peak level 76.9 %
Extraction speed 5.0 X
Track quality 100.0 %
Test CRC 17B8595B
Copy CRC 17B8595B
Accurately ripped (confidence 2) [D52E858B] (AR v2)
Copy OK

All tracks accurately ripped

No errors occurred

End of status report

- CUETools DB Plugin V2.1.6

[CTDB TOCID: 1uGil4Y97k.JPHZJt8W8NFArHXo-] found
Submit result: 1uGil4Y97k.JPHZJt8W8NFArHXo- has been confirmed
Track | CTDB Status
1 | (3/3) Accurately ripped
2 | (3/3) Accurately ripped
3 | (3/3) Accurately ripped
4 | (3/3) Accurately ripped
5 | (3/3) Accurately ripped
6 | (3/3) Accurately ripped
7 | (3/3) Accurately ripped
8 | (3/3) Accurately ripped
9 | (3/3) Accurately ripped
10 | (3/3) Accurately ripped
11 | (3/3) Accurately ripped
12 | (3/3) Accurately ripped
13 | (3/3) Accurately ripped
14 | (3/3) Accurately ripped
15 | (3/3) Accurately ripped
16 | (2/3) Accurately ripped
17 | (3/3) Accurately ripped
18 | (3/3) Accurately ripped

VA - Brazil Classics 3: Forro Etc. (1991) {Luaka Bop}

DOWNLOAD LINKS
Buy Premium From My Links To Get Resumable Support & Max Speed & To Support Me


Links are Interchangeable - No Password - Single Extraction
Direct Download

Tags: Brazil, Classics

VA - Brazil Classics 3: Forro Etc. (1991) {Luaka Bop} Download via Hotfile Rapidshare Fileserve Megaupload & FileSonic, VA - Brazil Classics 3: Forro Etc. (1991) {Luaka Bop} free torrent downloads included crack, serial, keygen.VA - Brazil Classics 3: Forro Etc. (1991) {Luaka Bop} Fast Download via Rapidshare Hotfile Fileserve Filesonic Megaupload, VA - Brazil Classics 3: Forro Etc. (1991) {Luaka Bop} Torrents and Emule Download or anything related.
Leave a Comment
Your Name:
E-Mail:
Add Comments:

Enter Code: