Styx - Gold (2006)

Download Now

Styx - Gold (2006)

Styx - Gold (2006)
EAC | Flac(Image) + Cue + Log & MP3 CBR 320Kbps
2CD | A&M Records, B000210402 | ~ 1077 or 354 Mb | Scans(jpg) -> 47 Mb
Classic Rock / Arena Rock

~ Org released in 2004 as "Come Sail Away: The Styx Anthology" ~

"Styx may have had their musical roots in the UK's burgeoning late-'60s/early-'70s prog-rock bombast, but they were true pioneers in at least one sense: The Chicago-bred quintet virtually defined the hugely successful "corp rock" boom that followed a decade after prog's original fortunes tarnished..."


Tracklist CD1:

01. Best Thing (3:15)
02. You Need Love (3:44)
03. Lady (2:58)
04. Winner Take All (3:05)
05. Rock & Roll Feeling (3:02)
06. Light Up (4:21)
07. Lorelei (3:23)
08. Prelude 12 (1:20)
09. Suite Madame Blue (6:33)
10. Shooz (4:47)
11. Mademoiselle (4:00)
12. Crystal Ball (4:34)
13. The Grand Illusion (4:37)
14. Fooling Yourself (The Angry Young Man) (5:31)
15. Come Sail Away (6:05)
16. Miss America (4:58)
17. Man In The Wilderness (6:57)

Track 1 from the album STYX, 1972
Tracks 2-3 from the album STYX II, 1973
Track 4 from the album THE SERPENT IS RISING, 1973
Track 5 from the album MAN OF MIRACLES, 1974
Tracks 6-9 from the album EQUINOX, 1975
Tracks 10-12 from the album CRYSTAL BALL, 1976
Tracks 13-17 from the album THE GRAND ILLUSION, 1977
Tracks 1-5 Courtesy of Wooden Nickel Records
Tracks 6-17 Courtesy of A&M Records, Inc.


Exact Audio Copy V0.99 prebeta 5 from 4. May 2009

EAC extraction logfile from 13. May 2010, 22:07

Styx / Come Sail Away - The Styx Anthology (Disc One)

Used drive : PIONEER DVDRW DVR-K17B Adapter: 0 ID: 0

Read mode : Secure
Utilize accurate stream : Yes
Defeat audio cache : Yes
Make use of C2 pointers : No

Read offset correction

: 48
Overread into Lead-In and Lead-Out : No
Fill up missing offset samples with silence : Yes
Delete leading and trailing silent blocks : No
Null samples used in CRC calculations : Yes
Used interface
: Native Win32 interface for Win NT & 2000
Gap handling
: Appended to previous track

Used output format : User Defined Encoder
Selected bitrate : 320 kBit/s
Quality : High
Add ID3 tag : No
Command line compressor : C:\Program Files (x86)\Exact Audio Copy\FLAC\FLAC.EXE
Additional command line options : -6 -V -T "ARTIST=%a" -T "TITLE=%t" -T "ALBUM=%g" -T "DATE=%y" -T "TRACKNUMBER=%n" -T "GENRE=%m" -T "COMMENT=%e" %s -o %d

TOC of the extracted CD Track | Start | Length | Start sector | End sector
--1 | 0:00.00 | 3:15.37 | 0 | 14661 2 | 3:15.37 | 3:44.53 | 14662 | 31514 3 | 7:00.15 | 2:58.02 | 31515 | 44866 4 | 9:58.17 | 3:05.58 | 44867 | 58799 5 | 13:04.00 | 3:02.40 | 58800 | 72489 6 | 16:06.40 | 4:21.12 | 72490 | 92076 7 | 20:27.52 | 3:23.38 | 92077 | 107339 8 | 23:51.15 | 1:20.27 | 107340 | 113366 9 | 25:11.42 | 6:33.40 | 113367 | 142881
10 | 31:45.07 | 4:47.53 | 142882 | 164459
11 | 36:32.60 | 4:00.20 | 164460 | 182479
12 | 40:33.05 | 4:34.02 | 182480 | 203031
13 | 45:07.07 | 4:37.50 | 203032 | 223856
14 | 49:44.57 | 5:31.33 | 223857 | 248714
15 | 55:16.15 | 6:05.00 | 248715 | 276089
16 | 61:21.15 | 4:58.65 | 276090 | 298504
17 | 66:20.05 | 6:57.19 | 298505 | 329798

Track 1 Filename C:\FLAC\Styx - 2004 - Come Sail Away - The Styx Anthology (Disc One) [FLAC]\01 - Best Thing.wav Pre-gap length 0:00:02.00 Peak level 98.8 %
Track quality 100.0 %
Test CRC 58F878C1
Copy CRC 58F878C1
Accurately ripped (confidence 80) [A8FBC245]
Copy OK

Track 2 Filename C:\FLAC\Styx - 2004 - Come Sail Away - The Styx Anthology (Disc One) [FLAC]\02 - You Need Love.wav Pre-gap length 0:00:01.09 Peak level 99.8 %
Track quality 100.0 %
Test CRC F1EFD342
Copy CRC F1EFD342
Accurately ripped (confidence 79) 905845F
Copy OK

Track 3 Filename C:\FLAC\Styx - 2004 - Come Sail Away - The Styx Anthology (Disc One) [FLAC]\03 - Lady.wav Peak level 98.8 %
Track quality 100.0 %
Test CRC 02B5F5FD
Copy CRC 02B5F5FD
Accurately ripped (confidence 79) [A51E1882]
Copy OK

Track 4 Filename C:\FLAC\Styx - 2004 - Come Sail Away - The Styx Anthology (Disc One) [FLAC]\04 - Winner Take All.wav Peak level 95.3 %
Track quality 100.0 %
Test CRC BE445CCD
Copy CRC BE445CCD
Accurately ripped (confidence 79) [D30D58EE]
Copy OK

Track 5 Filename C:\FLAC\Styx - 2004 - Come Sail Away - The Styx Anthology (Disc One) [FLAC]\05 - Rock & Roll Feeling.wav Pre-gap length 0:00:01.70 Peak level 98.8 %
Track quality 100.0 %
Test CRC 44B94C49
Copy CRC 44B94C49
Accurately ripped (confidence 80) [3D21367D]
Copy OK

Track 6 Filename C:\FLAC\Styx - 2004 - Come Sail Away - The Styx Anthology (Disc One) [FLAC]\06 - Light Up.wav Peak level 100.0 %
Track quality 100.0 %
Test CRC 2360B3D5
Copy CRC 2360B3D5
Accurately ripped (confidence 78) [060726F1]
Copy OK

Track 7 Filename C:\FLAC\Styx - 2004 - Come Sail Away - The Styx Anthology (Disc One) [FLAC]\07 - Lorelei.wav Pre-gap length 0:00:00.53 Peak level 98.5 %
Track quality 100.0 %
Test CRC 545DF3E2
Copy CRC 545DF3E2
Accurately ripped (confidence 79) [6EE14A80]
Copy OK

Track 8 Filename C:\FLAC\Styx - 2004 - Come Sail Away - The Styx Anthology (Disc One) [FLAC]\08 - Prelude 12.wav Pre-gap length 0:00:00.93 Peak level 76.1 %
Track quality 99.8 %
Test CRC F8C1980E
Copy CRC F8C1980E
Accurately ripped (confidence 79) [65C2A5DC]
Copy OK

Track 9 Filename C:\FLAC\Styx - 2004 - Come Sail Away - The Styx Anthology (Disc One) [FLAC]\09 - Suite Madame Blue.wav Peak level 98.8 %
Track quality 100.0 %
Test CRC EBDB196F
Copy CRC EBDB196F
Accurately ripped (confidence 78) [1DCE1811]
Copy OK

Track 10 Filename C:\FLAC\Styx - 2004 - Come Sail Away - The Styx Anthology (Disc One) [FLAC]\10 - Shooz.wav Pre-gap length 0:00:00.89 Peak level 98.8 %
Track quality 100.0 %
Test CRC D837737D
Copy CRC D837737D
Accurately ripped (confidence 78) 8994421
Copy OK

Track 11 Filename C:\FLAC\Styx - 2004 - Come Sail Away - The Styx Anthology (Disc One) [FLAC]\11 - Mademoiselle.wav Pre-gap length 0:00:01.10 Peak level 98.8 %
Track quality 100.0 %
Test CRC 4A94DFC7
Copy CRC 4A94DFC7
Accurately ripped (confidence 79) [34A347C6]
Copy OK

Track 12 Filename C:\FLAC\Styx - 2004 - Come Sail Away - The Styx Anthology (Disc One) [FLAC]\12 - Crystal Ball.wav Pre-gap length 0:00:00.50 Peak level 98.8 %
Track quality 100.0 %
Test CRC 76B800AD
Copy CRC 76B800AD
Accurately ripped (confidence 76) [408226D8]
Copy OK

Track 13 Filename C:\FLAC\Styx - 2004 - Come Sail Away - The Styx Anthology (Disc One) [FLAC]\13 - The Grand Illusion.wav Peak level 100.0 %
Track quality 100.0 %
Test CRC 778DC3A7
Copy CRC 778DC3A7
Accurately ripped (confidence 79) [D9D19361]
Copy OK

Track 14 Filename C:\FLAC\Styx - 2004 - Come Sail Away - The Styx Anthology (Disc One) [FLAC]\14 - Fooling Yourself (The Angry Young Man).wav Pre-gap length 0:00:00.56 Peak level 98.8 %
Track quality 100.0 %
Test CRC 835C7D3A
Copy CRC 835C7D3A
Accurately ripped (confidence 79) [EE0B6F11]
Copy OK

Track 15 Filename C:\FLAC\Styx - 2004 - Come Sail Away - The Styx Anthology (Disc One) [FLAC]\15 - Come Sail Away.wav Pre-gap length 0:00:01.97 Peak level 98.3 %
Track quality 100.0 %
Test CRC 2FCCA012
Copy CRC 2FCCA012
Accurately ripped (confidence 79) [CA63A981]
Copy OK

Track 16 Filename C:\FLAC\Styx - 2004 - Come Sail Away - The Styx Anthology (Disc One) [FLAC]\16 - Miss America.wav Peak level 98.8 %
Track quality 99.9 %
Test CRC E0458355
Copy CRC E0458355
Accurately ripped (confidence 80) [3915B4F2]
Copy OK

Track 17 Filename C:\FLAC\Styx - 2004 - Come Sail Away - The Styx Anthology (Disc One) [FLAC]\17 - Man In The Wilderness.wav Peak level 98.8 %
Track quality 100.0 %
Test CRC 4A806C16
Copy CRC 4A806C16
Accurately ripped (confidence 68) [499E68C7]
Copy OK

All tracks accurately ripped

No errors occurred

End of status report

foobar2000 1.2.9 / Dynamic Range Meter 1.1.1
log date: 2015-08-25 16:52:29

Analyzed: Styx / Come Sail Away - The Styx Anthology (Disc One)

DR Peak RMS Duration Track

DR8 -0.10 dB -9.80 dB 3:15 01-Best Thing
DR8 -0.01 dB -8.73 dB 3:45 02-You Need Love
DR7 -0.10 dB -10.44 dB 2:58 03-Lady
DR7 -0.41 dB -9.73 dB 3:06 04-Winner Take All
DR7 -0.10 dB -8.92 dB 3:03 05-Rock & Roll Feeling
DR7 0.00 dB -8.95 dB 4:21 06-Light Up
DR6 -0.12 dB -9.12 dB 3:24 07-Lorelei
DR13 -2.37 dB -19.78 dB 1:20 08-Prelude 12
DR6 -0.10 dB -9.32 dB 6:34 09-Suite Madame Blue
DR7 -0.10 dB -8.47 dB 4:48 10-Shooz
DR8 -0.10 dB -9.78 dB 4:00 11-Mademoiselle
DR7 -0.10 dB -11.09 dB 4:34 12-Crystal Ball
DR8 0.00 dB -9.42 dB 4:38 13-The Grand Illusion
DR8 -0.10 dB -11.05 dB 5:31 14-Fooling Yourself (The Angry Young Man)
DR7 -0.15 dB -10.93 dB 6:05 15-Come Sail Away
DR8 -0.10 dB -10.15 dB 4:59 16-Miss America
DR7 -0.10 dB -9.78 dB 6:57 17-Man In The Wilderness

Number of tracks: 17
Official DR value: DR8

Samplerate: 44100 Hz
Channels: 2
Bits per sample: 16
Bitrate: 958 kbps
Codec: FLAC

[CUETools log; Date: 25.08.2015 16:52:30; Version: 2.1.4]
[CTDB TOCID: OfkOn.QMaT8yUUqpHj1X8wJqwqg-] found.
Track | CTDB Status
1 | (55/56) Accurately ripped
2 | (55/56) Accurately ripped
3 | (55/56) Accurately ripped
4 | (55/56) Accurately ripped
5 | (55/56) Accurately ripped
6 | (55/56) Accurately ripped
7 | (55/56) Accurately ripped
8 | (55/56) Accurately ripped
9 | (55/56) Accurately ripped
10 | (55/56) Accurately ripped
11 | (55/56) Accurately ripped
12 | (55/56) Accurately ripped
13 | (55/56) Accurately ripped
14 | (54/56) Accurately ripped
15 | (53/56) Accurately ripped
16 | (54/56) Accurately ripped
17 | (54/56) Accurately ripped
[AccurateRip ID: 0027bf8a-0205847a-04112d11] found.
Track [ CRC | V2 ] Status
01 [a8fbc245|72a76ffa] (107+076/204) Accurately ripped
02 905845f|b2f533c5 (106+075/202) Accurately ripped
03 [a51e1882|8206e099] (109+078/208) Accurately ripped
04 [d30d58ee|ead169b7] (106+074/201) Accurately ripped
05 [3d21367d|7c8f6b0e] (106+074/201) Accurately ripped
06 [060726f1|c6facdc0] (104+076/201) Accurately ripped
07 [6ee14a80|c04d0be0] (109+075/205) Accurately ripped
08 [65c2a5dc|cba11fba] (107+076/204) Accurately ripped
09 [1dce1811|21beb9db] (107+077/205) Accurately ripped
10 8994421|77a32a07 (106+075/202) Accurately ripped
11 [34a347c6|dafb3b99] (105+075/201) Accurately ripped
12 [408226d8|c7af8419] (103+076/199) Accurately ripped
13 [d9d19361|cb6c4274] (106+077/204) Accurately ripped
14 [ee0b6f11|b36d193f] (104+076/201) Accurately ripped
15 [ca63a981|54e7ebbc] (105+076/202) Accurately ripped
16 [3915b4f2|21079696] (105+074/200) Accurately ripped
17 [499e68c7|a3172de5] (089+071/182) Accurately ripped
Offsetted by -664:
01 bd2805d (004/204) Accurately ripped
02 [82c2a4fd] (004/202) Accurately ripped
03 [56c262d0] (004/208) Accurately ripped
04 [1c06b9b6] (004/201) Accurately ripped
05 [6a8d27f6] (004/201) Accurately ripped
06 [5ee94630] (004/201) Accurately ripped
07 [9cefdb18] (004/205) Accurately ripped
08 [595d00a8] (004/204) Accurately ripped
09 [1fe0bd3d] (004/205) Accurately ripped
10 [01c9dc61] (004/202) Accurately ripped
11 [e74a7c46] (004/201) Accurately ripped
12 [12b7837a] (004/199) Accurately ripped
13 fc35a3f (004/204) Accurately ripped
14 [5b0150e1] (004/201) Accurately ripped
15 [293d7947] (004/202) Accurately ripped
16 [da0ba8dd] (004/200) Accurately ripped
17 [4b789916] (004/182) Accurately ripped

Track Peak [ CRC32 ] [W/O NULL] [ LOG ]
-- 100,0 [C4266B21] [96E12BB4]
01 98,8 [58F878C1] [DEFC6DB7] CRC32
02 99,8 [F1EFD342] [84CDFE7F] CRC32
03 98,8 [02B5F5FD] [1A931C28] CRC32
04 95,3 E445CCD [571E0BF2] CRC32
05 98,8 [44B94C49] [56B68202] CRC32
06 100,0 [2360B3D5] [D59C0F10] CRC32
07 98,5 [545DF3E2] [C3A05182] CRC32
08 76,1 [F8C1980E] [8047F984] CRC32
09 98,8 [EBDB196F] [1318B203] CRC32
10 98,8 [D837737D] [ABE80888] CRC32
11 98,8 [4A94DFC7] [1D03D91B] CRC32
12 98,8 [76B800AD] [C1E8C164] CRC32
13 100,0 [778DC3A7] [02697C36] CRC32
14 98,8 [835C7D3A] [5EADD6BA] CRC32
15 98,3 [2FCCA012] [A39862AF] CRC32
16 98,8 [E0458355] [8EE0493B] CRC32
17 98,8 [4A806C16] [C1062D20] CRC32

Styx - Gold (2006)

Tracklist CD2:

01. Blue Collar Man (Long Nights) (4:06)
02. Sing For The Day (4:57)
03. Renegade (4:13)
04. Pieces Of Eight (4:45)
05. Lights (4:38)
06. Babe (4:27)
07. Borrowed Time (4:59)
08. Boat On The River (3:12)
09. A.D. 1928 (1:07)
10. Rockin' The Paradise (3:35)
11. Too Much Time On My Hands (4:33)
12. The Best Of Times (4:19)
13. Snowblind (4:59)
14. Mr. Roboto (5:28)
15. Love Is The Ritual (3:49)
16. Show Me The Way (4:37)
17. Dear John (3:04)
18. One With Everything (5:56)

Tracks 1-4 from the album PIECES OF EIGHT, 1978
Tracks 5-8 from the album CORNERSTONE, 1979
Tracks 9-13 from the album PARADISE THEATER, 1981
Track 14 from the album KILROY WAS HERE, 1983
Tracks 15-16 from the album EDGE OF THE CENTURY, 1990
Track 17 from the album RETURN TO PARADISE, 1997
Track 18 from the album CYCLORAMA, 2003
Tracks 1-16 Courtesy of A&M Records, Inc.
Tracks 17-18 Courtesy of Sanctuary Records Group


Exact Audio Copy V0.99 prebeta 5 from 4. May 2009

EAC extraction logfile from 13. May 2010, 23:01

Styx / Come Sail Away - The Styx Anthology (Disc Two)

Used drive : PIONEER DVDRW DVR-K17B Adapter: 0 ID: 0

Read mode : Secure
Utilize accurate stream : Yes
Defeat audio cache : Yes
Make use of C2 pointers : No

Read offset correction

: 48
Overread into Lead-In and Lead-Out : No
Fill up missing offset samples with silence : Yes
Delete leading and trailing silent blocks : No
Null samples used in CRC calculations : Yes
Used interface
: Native Win32 interface for Win NT & 2000
Gap handling
: Appended to previous track

Used output format : User Defined Encoder
Selected bitrate : 320 kBit/s
Quality : High
Add ID3 tag : No
Command line compressor : C:\Program Files (x86)\Exact Audio Copy\FLAC\FLAC.EXE
Additional command line options : -6 -V -T "ARTIST=%a" -T "TITLE=%t" -T "ALBUM=%g" -T "DATE=%y" -T "TRACKNUMBER=%n" -T "GENRE=%m" -T "COMMENT=%e" %s -o %d

TOC of the extracted CD Track | Start | Length | Start sector | End sector
--1 | 0:00.00 | 4:06.65 | 0 | 18514 2 | 4:06.65 | 4:57.65 | 18515 | 40854 3 | 9:04.55 | 4:13.67 | 40855 | 59896 4 | 13:18.47 | 4:45.55 | 59897 | 81326 5 | 18:04.27 | 4:38.35 | 81327 | 102211 6 | 22:42.62 | 4:27.63 | 102212 | 122299 7 | 27:10.50 | 4:59.22 | 122300 | 144746 8 | 32:09.72 | 3:12.70 | 144747 | 159216 9 | 35:22.67 | 1:07.08 | 159217 | 164249
10 | 36:30.00 | 3:35.10 | 164250 | 180384
11 | 40:05.10 | 4:33.37 | 180385 | 200896
12 | 44:38.47 | 4:19.05 | 200897 | 220326
13 | 48:57.52 | 4:59.18 | 220327 | 242769
14 | 53:56.70 | 5:28.20 | 242770 | 267389
15 | 59:25.15 | 3:49.25 | 267390 | 284589
16 | 63:14.40 | 4:37.17 | 284590 | 305381
17 | 67:51.57 | 3:04.03 | 305382 | 319184
18 | 70:55.60 | 5:56.07 | 319185 | 345891

Track 1 Filename C:\FLAC\Styx - 2004 - Come Sail Away - The Styx Anthology (Disc Two) [FLAC]\01 - Blue Collar Man (Long Nights).wav Pre-gap length 0:00:02.00 Peak level 98.8 %
Track quality 100.0 %
Test CRC EFB115A0
Copy CRC EFB115A0
Accurately ripped (confidence 77) [ECFF9FEB]
Copy OK

Track 2 Filename C:\FLAC\Styx - 2004 - Come Sail Away - The Styx Anthology (Disc Two) [FLAC]\02 - Sing For The Day.wav Pre-gap length 0:00:00.93 Peak level 98.8 %
Track quality 99.9 %
Test CRC 92B10177
Copy CRC 92B10177
Accurately ripped (confidence 75) [2348762D]
Copy OK

Track 3 Filename C:\FLAC\Styx - 2004 - Come Sail Away - The Styx Anthology (Disc Two) [FLAC]\03 - Renegade.wav Pre-gap length 0:00:00.60 Peak level 98.8 %
Track quality 100.0 %
Test CRC 3991FAE0
Copy CRC 3991FAE0
Accurately ripped (confidence 78) 176FBD5
Copy OK

Track 4 Filename C:\FLAC\Styx - 2004 - Come Sail Away - The Styx Anthology (Disc Two) [FLAC]\04 - Pieces Of Eight.wav Peak level 98.8 %
Track quality 100.0 %
Test CRC B8D21E25
Copy CRC B8D21E25
Accurately ripped (confidence 77) [AD3DD5B6]
Copy OK

Track 5 Filename C:\FLAC\Styx - 2004 - Come Sail Away - The Styx Anthology (Disc Two) [FLAC]\05 - Lights.wav Pre-gap length 0:00:01.20 Peak level 98.8 %
Track quality 100.0 %
Test CRC B5D3D003
Copy CRC B5D3D003
Accurately ripped (confidence 77) [31BECCF4]
Copy OK

Track 6 Filename C:\FLAC\Styx - 2004 - Come Sail Away - The Styx Anthology (Disc Two) [FLAC]\06 - Babe.wav Pre-gap length 0:00:00.26 Peak level 98.8 %
Track quality 100.0 %
Test CRC BECF79DF
Copy CRC BECF79DF
Accurately ripped (confidence 77) [C430FF0C]
Copy OK

Track 7 Filename C:\FLAC\Styx - 2004 - Come Sail Away - The Styx Anthology (Disc Two) [FLAC]\07 - Borrowed Time.wav Pre-gap length 0:00:01.66 Peak level 98.8 %
Track quality 100.0 %
Test CRC 2CB028C3
Copy CRC 2CB028C3
Accurately ripped (confidence 77) [62D5C06A]
Copy OK

Track 8 Filename C:\FLAC\Styx - 2004 - Come Sail Away - The Styx Anthology (Disc Two) [FLAC]\08 - Boat On The River.wav Pre-gap length 0:00:01.00 Peak level 98.8 %
Track quality 99.9 %
Test CRC D7A08BD3
Copy CRC D7A08BD3
Accurately ripped (confidence 77) [3CFF7C7F]
Copy OK

Track 9 Filename C:\FLAC\Styx - 2004 - Come Sail Away - The Styx Anthology (Disc Two) [FLAC]\09 - A.D. 1928.wav Pre-gap length 0:00:01.89 Peak level 98.8 %
Track quality 100.0 %
Test CRC FE76D07A
Copy CRC FE76D07A
Accurately ripped (confidence 75) [52B142A2]
Copy OK

Track 10 Filename C:\FLAC\Styx - 2004 - Come Sail Away - The Styx Anthology (Disc Two) [FLAC]\10 - Rockin' The Paradise.wav Peak level 98.8 %
Track quality 100.0 %
Test CRC 747BE316
Copy CRC 747BE316
Accurately ripped (confidence 76) [421D1117]
Copy OK

Track 11 Filename C:\FLAC\Styx - 2004 - Come Sail Away - The Styx Anthology (Disc Two) [FLAC]\11 - Too Much Time On My Hands.wav Peak level 98.8 %
Track quality 100.0 %
Test CRC 6942F1A4
Copy CRC 6942F1A4
Accurately ripped (confidence 78) C9B72FC
Copy OK

Track 12 Filename C:\FLAC\Styx - 2004 - Come Sail Away - The Styx Anthology (Disc Two) [FLAC]\12 - The Best Of Times.wav Pre-gap length 0:00:01.06 Peak level 98.8 %
Track quality 100.0 %
Test CRC 03B5B3F7
Copy CRC 03B5B3F7
Accurately ripped (confidence 78) [3524B8E9]
Copy OK

Track 13 Filename C:\FLAC\Styx - 2004 - Come Sail Away - The Styx Anthology (Disc Two) [FLAC]\13 - Snowblind.wav Pre-gap length 0:00:00.93 Peak level 98.8 %
Track quality 100.0 %
Test CRC CAC55344
Copy CRC CAC55344
Accurately ripped (confidence 75) [377E21DE]
Copy OK

Track 14 Filename C:\FLAC\Styx - 2004 - Come Sail Away - The Styx Anthology (Disc Two) [FLAC]\14 - Mr. Roboto.wav Pre-gap length 0:00:01.24 Peak level 98.8 %
Track quality 100.0 %
Test CRC 7A286696
Copy CRC 7A286696
Accurately ripped (confidence 76) [5DCE9FDC]
Copy OK

Track 15 Filename C:\FLAC\Styx - 2004 - Come Sail Away - The Styx Anthology (Disc Two) [FLAC]\15 - Love Is The Ritual.wav Pre-gap length 0:00:00.89 Peak level 98.8 %
Track quality 100.0 %
Test CRC 13405ED2
Copy CRC 13405ED2
Accurately ripped (confidence 75) [DBD95FCB]
Copy OK

Track 16 Filename C:\FLAC\Styx - 2004 - Come Sail Away - The Styx Anthology (Disc Two) [FLAC]\16 - Show Me The Way.wav Pre-gap length 0:00:00.97 Peak level 98.8 %
Track quality 100.0 %
Test CRC 4781EA34
Copy CRC 4781EA34
Accurately ripped (confidence 76) [A769B46B]
Copy OK

Track 17 Filename C:\FLAC\Styx - 2004 - Come Sail Away - The Styx Anthology (Disc Two) [FLAC]\17 - Dear John.wav Pre-gap length 0:00:01.36 Peak level 79.3 %
Track quality 100.0 %
Test CRC 1BEA5D88
Copy CRC 1BEA5D88
Accurately ripped (confidence 75) [6E9E736C]
Copy OK

Track 18 Filename C:\FLAC\Styx - 2004 - Come Sail Away - The Styx Anthology (Disc Two) [FLAC]\18 - One With Everything.wav Pre-gap length 0:00:00.64 Peak level 89.0 %
Track quality 100.0 %
Test CRC 99C28DCF
Copy CRC 99C28DCF
Accurately ripped (confidence 70) [63542C68]
Copy OK

All tracks accurately ripped

No errors occurred

End of status report

foobar2000 1.2.9 / Dynamic Range Meter 1.1.1
log date: 2015-08-25 16:52:07

Analyzed: Styx / Come Sail Away - The Styx Anthology (Disc Two)

DR Peak RMS Duration Track

DR8 -0.10 dB -9.44 dB 4:07 01-Blue Collar Man (Long Nights)
DR8 -0.10 dB -9.61 dB 4:58 02-Sing For The Day
DR8 -0.10 dB -10.39 dB 4:14 03-Renegade
DR7 -0.10 dB -10.14 dB 4:46 04-Pieces Of Eight
DR8 -0.10 dB -10.33 dB 4:38 05-Lights
DR8 -0.10 dB -11.31 dB 4:28 06-Babe
DR7 -0.10 dB -9.35 dB 4:59 07-Borrowed Time
DR8 -0.10 dB -10.34 dB 3:13 08-Boat On The River
DR10 -0.10 dB -13.45 dB 1:07 09-A.D. 1928
DR7 -0.10 dB -8.06 dB 3:35 10-Rockin' The Paradise
DR8 -0.10 dB -9.24 dB 4:33 11-Too Much Time On My Hands
DR7 -0.10 dB -10.52 dB 4:19 12-The Best Of Times
DR8 -0.10 dB -11.32 dB 4:59 13-Snowblind
DR8 -0.10 dB -10.01 dB 5:28 14-Mr. Roboto
DR8 -0.10 dB -9.01 dB 3:49 15-Love Is The Ritual
DR8 -0.10 dB -10.90 dB 4:37 16-Show Me The Way
DR8 -2.01 dB -12.11 dB 3:04 17-Dear John
DR6 -1.01 dB -8.67 dB 5:56 18-One With Everything

Number of tracks: 18
Official DR value: DR8

Samplerate: 44100 Hz
Channels: 2
Bits per sample: 16
Bitrate: 972 kbps
Codec: FLAC

[CUETools log; Date: 25.08.2015 16:52:14; Version: 2.1.4]
[CTDB TOCID: H2wAuKqbMVBjUsG.yOGQg2LB44c-] found.
Track | CTDB Status
1 | (55/56) Accurately ripped
2 | (55/56) Accurately ripped
3 | (54/56) Accurately ripped
4 | (54/56) Accurately ripped
5 | (55/56) Accurately ripped
6 | (55/56) Accurately ripped
7 | (55/56) Accurately ripped
8 | (55/56) Accurately ripped
9 | (55/56) Accurately ripped
10 | (55/56) Accurately ripped
11 | (55/56) Accurately ripped
12 | (55/56) Accurately ripped
13 | (55/56) Accurately ripped
14 | (55/56) Accurately ripped
15 | (54/56) Accurately ripped
16 | (54/56) Accurately ripped
17 | (55/56) Accurately ripped
18 | (55/56) Accurately ripped
[AccurateRip ID: 0031beea-0293c920-08120312] found.
Track [ CRC | V2 ] Status
01 [ecff9feb|b4f4816d] (106+069/194) Accurately ripped
02 [2348762d|0ee833bc] (101+068/188) Accurately ripped
03 176fbd5|adb017c0 (107+070/196) Accurately ripped
04 [ad3dd5b6|9414ded2] (103+068/190) Accurately ripped
05 [31beccf4|0408fe38] (104+069/192) Accurately ripped
06 [c430ff0c|98755cb1] (105+072/196) Accurately ripped
07 [62d5c06a|9605252f] (105+067/191) Accurately ripped
08 [3cff7c7f|eacde7fd] (105+071/195) Accurately ripped
09 [52b142a2|78603dfb] (102+069/190) Accurately ripped
10 [421d1117|ab3b4479] (103+070/192) Accurately ripped
11 c9b72fc|904b64c9 (106+071/196) Accurately ripped
12 [3524b8e9|74905587] (107+072/198) Accurately ripped
13 [377e21de|5ae42338] (101+070/190) Accurately ripped
14 [5dce9fdc|7c4af4ab] (102+072/193) Accurately ripped
15 [dbd95fcb|42cd42d8] (099+070/188) Accurately ripped
16 [a769b46b|4fcdcb48] (099+070/188) Accurately ripped
17 [6e9e736c|c86e53e2] (101+070/190) Accurately ripped
18 [63542c68|27c645fe] (093+069/181) Accurately ripped
Offsetted by -664:
01 [461563fb] (004/194) Accurately ripped
02 [531fcc4d] (004/188) Accurately ripped
03 [e57ae39d] (004/196) Accurately ripped
04 [0a5b552e] (004/190) Accurately ripped
05 [5fd7934c] (004/192) Accurately ripped
06 [06b83e54] (004/196) Accurately ripped
07 [eba7929a] (004/191) Accurately ripped
08 [43a4119f] (004/195) Accurately ripped
09 [3626cff5] (004/190) Accurately ripped
10 [e89992a0] (004/192) Accurately ripped
11 [475924a4] (004/196) Accurately ripped
12 [644631b1] (004/198) Accurately ripped
13 [9a5eed26] (004/190) Accurately ripped
14 [955dfb54] (004/193) Accurately ripped
15 [0b5074c0] (004/188) Accurately ripped
16 [3988636e] (004/188) Accurately ripped
17 [1648e12c] (004/190) Accurately ripped
18 [84992058] (004/181) Accurately ripped

Track Peak [ CRC32 ] [W/O NULL] [ LOG ]
-- 98,8 [43F16BAE] [75FE3A6C]
01 98,8 [EFB115A0] [6DE5F07E] CRC32
02 98,8 [92B10177] [733FC4B0] CRC32
03 98,8 [3991FAE0] [8865029D] CRC32
04 98,8 8D21E25 [389F927F] CRC32
05 98,8 5D3D003 [49F52848] CRC32
06 98,8 ECF79DF [39C53A5D] CRC32
07 98,8 [2CB028C3] [E04C6920] CRC32
08 98,8 [D7A08BD3] 7819C61 CRC32
09 98,8 [FE76D07A] 8FE4A7F CRC32
10 98,8 [747BE316] 4CE2E2B CRC32
11 98,8 [6942F1A4] [DC91548C] CRC32
12 98,8 [03B5B3F7] [7DEEB748] CRC32
13 98,8 [CAC55344] [8238FEDC] CRC32
14 98,8 [7A286696] [FB936C5C] CRC32
15 98,8 [13405ED2] [4AE8D6DD] CRC32
16 98,8 [4781EA34] [3AAF9887] CRC32
17 79,3 [1BEA5D88] [DC3D2B49] CRC32
18 89,0 [99C28DCF] [5FD556BB] CRC32

Styx - Gold (2006)

DOWNLOAD:
Buy Premium To Support Me & Get Resumable Support & Max Speed


Links are Interchangeable - No Password
Direct Download

Styx - Gold (2006) Download via Hotfile Rapidshare Fileserve Megaupload & FileSonic, Styx - Gold (2006) free torrent downloads included crack, serial, keygen.Styx - Gold (2006) Fast Download via Rapidshare Hotfile Fileserve Filesonic Megaupload, Styx - Gold (2006) Torrents and Emule Download or anything related.
Leave a Comment
Your Name:
E-Mail:
Add Comments:

Enter Code: