VA - Big Blunts Volume 3 (1996) {Tommy Boy}

Download Now

VA - Big Blunts Volume 3 (1996) {Tommy Boy}

VA - Big Blunts Volume 3 (1996) {Tommy Boy}
EAC Rip | FLAC with CUE and log | scans | 333 mb
MP3 CBR 320kbps | RAR | 121 mb
Genre: reggae, dancehall

Subtitled More Smokin' Reggae Hits!, this is Big Blunts Volume 3, the third and last installiment in Tommy Boy Records' compilation series dedicated to reggae songs with a marijuana theme.
VA - Big Blunts Volume 3 (1996) {Tommy Boy}

1. Rahsun & Skeeta Ranks - Weed Life (Funk Mix) (4:08)
2. Nitty Kutchie, Boom Dandimite, Elephant Man, Harry Toodler & Daily Bread - I Need More Chronic (3:43)
3. Sluggy & Tuffest - So Many Spliff (3:59)
4. Jr. Reid - Sensi Breeze (3:57)
5. Baby Wayne - Weed Not Coke (3:58)
6. Screechy Dan - Ganja Smoker (3:51)
7. Chronicle - Chronic Man (3:25)
8. Rahsun & Skeeta Ranks - Weed Life (Dance Hall Reggae Version) (3:24)
9. Carlton Livingston - Trodding Through The Jungle (4:11)
10. Sister Carol - Wicked Draw A Sensi (3:22)
11. Barrington Levy - Gimme The Grass (4:06)
12. Jr. Wilson - Ganja Man (3:45)
13. Steel Pulse - Macka Spliff (4:17)
14. Horace Ferguson - Sensi Addict (4:04)

Exact Audio Copy V1.1 from 23. June 2015

EAC extraction logfile from 24. August 2015, 20:16

Various Artists / Big Blunts Volume 3

Used drive : TEAC DVD-ROM DV-28SW Adapter: 1 ID: 0

Read mode : Secure
Utilize accurate stream : Yes
Defeat audio cache : Yes
Make use of C2 pointers : No

Read offset correction

: 6
Overread into Lead-In and Lead-Out : No
Fill up missing offset samples with silence : Yes
Delete leading and trailing silent blocks : No
Null samples used in CRC calculations : Yes
Used interface
: Native Win32 interface for Win NT & 2000
Gap handling
: Appended to previous track

Used output format : Internal WAV Routines
Sample format : 44.100 Hz; 16 Bit; Stereo

TOC of the extracted CD Track | Start | Length | Start sector | End sector
--1 | 0:00.00 | 4:10.00 | 0 | 18749 2 | 4:10.00 | 3:45.10 | 18750 | 35634 3 | 7:55.10 | 4:01.42 | 35635 | 53751 4 | 11:56.52 | 3:39.43 | 53752 | 70219 5 | 15:36.20 | 4:00.65 | 70220 | 88284 6 | 19:37.10 | 3:53.44 | 88285 | 105803 7 | 23:30.54 | 3:27.36 | 105804 | 121364 8 | 26:58.15 | 3:26.07 | 121365 | 136821 9 | 30:24.22 | 4:14.00 | 136822 | 155871
10 | 34:38.22 | 3:24.68 | 155872 | 171239
11 | 38:03.15 | 4:08.19 | 171240 | 189858
12 | 42:11.34 | 3:54.21 | 189859 | 207429
13 | 46:05.55 | 4:19.52 | 207430 | 226906
14 | 50:25.32 | 4:04.43 | 226907 | 245249

Track 1 Filename C:\My Documents\My FLAC\VA - Big Blunts Volume 3 (1996) [FLAC] {Tommy Boy}\01 - Rahsun & Skeeta Ranks - Weed Life (Funk Mix).wav Pre-gap length 0:00:02.00 Peak level 97.7 %
Extraction speed 2.4 X
Track quality 99.9 %
Test CRC 410DAC19
Copy CRC 410DAC19
Accurately ripped (confidence 4) [2E5F243F] (AR v1)
Copy OK

Track 2 Filename C:\My Documents\My FLAC\VA - Big Blunts Volume 3 (1996) [FLAC] {Tommy Boy}\02 - Nitty Kutchie, Boom Dandimite, Elephant Man, Harry Toodler & Daily Bread - I Need More Chronic.wav Pre-gap length 0:00:01.43 Peak level 97.7 %
Extraction speed 3.1 X
Track quality 100.0 %
Test CRC 48ADAB61
Copy CRC 48ADAB61
Accurately ripped (confidence 4) [0585DA61] (AR v1)
Copy OK

Track 3 Filename C:\My Documents\My FLAC\VA - Big Blunts Volume 3 (1996) [FLAC] {Tommy Boy}\03 - Sluggy & Tuffest - So Many Spliff.wav Pre-gap length 0:00:01.43 Peak level 97.7 %
Extraction speed 3.3 X
Track quality 100.0 %
Test CRC 1FC14527
Copy CRC 1FC14527
Accurately ripped (confidence 4) [F6C5BC38] (AR v1)
Copy OK

Track 4 Filename C:\My Documents\My FLAC\VA - Big Blunts Volume 3 (1996) [FLAC] {Tommy Boy}\04 - Jr. Reid - Sensi Breeze.wav Pre-gap length 0:00:01.42 Peak level 97.7 %
Extraction speed 3.5 X
Track quality 100.0 %
Test CRC 1C9DB256
Copy CRC 1C9DB256
Accurately ripped (confidence 4) [DF048DF6] (AR v1)
Copy OK

Track 5 Filename C:\My Documents\My FLAC\VA - Big Blunts Volume 3 (1996) [FLAC] {Tommy Boy}\05 - Baby Wayne - Weed Not Coke.wav Pre-gap length 0:00:01.43 Peak level 97.7 %
Extraction speed 3.8 X
Track quality 100.0 %
Test CRC 9E8CFAF8
Copy CRC 9E8CFAF8
Accurately ripped (confidence 4) D8D04C3 (AR v1)
Copy OK

Track 6 Filename C:\My Documents\My FLAC\VA - Big Blunts Volume 3 (1996) [FLAC] {Tommy Boy}\06 - Screechy Dan - Ganja Smoke.wav Pre-gap length 0:00:01.43 Peak level 97.7 %
Extraction speed 4.0 X
Track quality 100.0 %
Test CRC 36182128
Copy CRC 36182128
Accurately ripped (confidence 4) [F67E0011] (AR v1)
Copy OK

Track 7 Filename C:\My Documents\My FLAC\VA - Big Blunts Volume 3 (1996) [FLAC] {Tommy Boy}\07 - Chronicle - Chronic Man.wav Pre-gap length 0:00:01.42 Peak level 97.7 %
Extraction speed 3.3 X
Track quality 99.9 %
Test CRC F414CAC8
Copy CRC F414CAC8
Accurately ripped (confidence 4) [C83A38D4] (AR v1)
Copy OK

Track 8 Filename C:\My Documents\My FLAC\VA - Big Blunts Volume 3 (1996) [FLAC] {Tommy Boy}\08 - Rahsun & Skeeta Ranks - Weed Life (Dance Hall Reggae Version).wav Pre-gap length 0:00:01.43 Peak level 97.7 %
Extraction speed 4.3 X
Track quality 100.0 %
Test CRC BA89A6F4
Copy CRC BA89A6F4
Accurately ripped (confidence 4) [A3685423] (AR v1)
Copy OK

Track 9 Filename C:\My Documents\My FLAC\VA - Big Blunts Volume 3 (1996) [FLAC] {Tommy Boy}\09 - Carlton Livingston - Trodding Through The Jungle.wav Pre-gap length 0:00:01.42 Peak level 97.7 %
Extraction speed 4.5 X
Track quality 100.0 %
Test CRC CC5C048F
Copy CRC CC5C048F
Accurately ripped (confidence 4) [E6AF0BCC] (AR v1)
Copy OK

Track 10 Filename C:\My Documents\My FLAC\VA - Big Blunts Volume 3 (1996) [FLAC] {Tommy Boy}\10 - Sister Carol - Wicked Draw A Sensi.wav Pre-gap length 0:00:01.42 Peak level 97.7 %
Extraction speed 4.3 X
Track quality 100.0 %
Test CRC 10707CC7
Copy CRC 10707CC7
Accurately ripped (confidence 4) [A83A5B0A] (AR v1)
Copy OK

Track 11 Filename C:\My Documents\My FLAC\VA - Big Blunts Volume 3 (1996) [FLAC] {Tommy Boy}\11 - Barrington Levy - Gimme The Grass.wav Pre-gap length 0:00:01.43 Peak level 97.7 %
Extraction speed 4.8 X
Track quality 100.0 %
Test CRC 8AF81370
Copy CRC 8AF81370
Accurately ripped (confidence 4) [398C60DD] (AR v1)
Copy OK

Track 12 Filename C:\My Documents\My FLAC\VA - Big Blunts Volume 3 (1996) [FLAC] {Tommy Boy}\12 - Jr. Wilson - Ganja Man.wav Pre-gap length 0:00:01.42 Peak level 89.1 %
Extraction speed 4.9 X
Track quality 100.0 %
Test CRC 21F3DC85
Copy CRC 21F3DC85
Accurately ripped (confidence 4) [36C3806E] (AR v1)
Copy OK

Track 13 Filename C:\My Documents\My FLAC\VA - Big Blunts Volume 3 (1996) [FLAC] {Tommy Boy}\13 - Steel Pulse - Macka Spliff.wav Pre-gap length 0:00:01.43 Peak level 92.2 %
Extraction speed 5.2 X
Track quality 100.0 %
Test CRC DD62B3EE
Copy CRC DD62B3EE
Accurately ripped (confidence 4) [3A354173] (AR v1)
Copy OK

Track 14 Filename C:\My Documents\My FLAC\VA - Big Blunts Volume 3 (1996) [FLAC] {Tommy Boy}\14 - Horace Ferguson - Sensi Addict.wav Pre-gap length 0:00:01.42 Peak level 97.7 %
Extraction speed 4.6 X
Track quality 100.0 %
Test CRC AFBA978E
Copy CRC AFBA978E
Accurately ripped (confidence 4) [DD97BBE6] (AR v1)
Copy OK

All tracks accurately ripped

No errors occurred

End of status report

- CUETools DB Plugin V2.1.6

[CTDB TOCID: 4JkXRipcAvbx6U9oAy_DPThF3v0-] found
Submit result: The request was aborted: The request was canceled.
Track | CTDB Status
1 | (2/2) Accurately ripped
2 | (2/2) Accurately ripped
3 | (2/2) Accurately ripped
4 | (2/2) Accurately ripped
5 | (2/2) Accurately ripped
6 | (2/2) Accurately ripped
7 | (2/2) Accurately ripped
8 | (2/2) Accurately ripped
9 | (2/2) Accurately ripped
10 | (2/2) Accurately ripped
11 | (2/2) Accurately ripped
12 | (2/2) Accurately ripped
13 | (2/2) Accurately ripped
14 | (2/2) Accurately ripped

VA - Big Blunts Volume 3 (1996) {Tommy Boy}

DOWNLOAD LINKS
Buy Premium From My Links To Get Resumable Support & Max Speed & To Support Me


Links are Interchangeable - No Password - Single Extraction
Direct Download

Tags: Blunts

VA - Big Blunts Volume 3 (1996) {Tommy Boy} Download via Hotfile Rapidshare Fileserve Megaupload & FileSonic, VA - Big Blunts Volume 3 (1996) {Tommy Boy} free torrent downloads included crack, serial, keygen.VA - Big Blunts Volume 3 (1996) {Tommy Boy} Fast Download via Rapidshare Hotfile Fileserve Filesonic Megaupload, VA - Big Blunts Volume 3 (1996) {Tommy Boy} Torrents and Emule Download or anything related.
Leave a Comment
Your Name:
E-Mail:
Add Comments:

Enter Code: