Emerson, Lake & Palmer - Trilogy (1972) [1987, Warner-Pioneer 32XD-749, Japan]

Download Now

Emerson, Lake & Palmer - Trilogy (1972) [1987, Warner-Pioneer 32XD-749, Japan]

Emerson, Lake & Palmer - Trilogy (1972)
EAC | Flac(Image) + Cue + Log & MP3 CBR 320Kbps
Warner-Pioneer, 32XD-749 | ~ 266 or 103 Mb | Scans(600dpi, jpg) -> 31 Mb
Progressive Rock

"After the heavily distorted bass and doomsday church organ of Emerson, Lake & Palmer's debut album, the exhilarating prog rock of epic proportions on Tarkus, and the violent removal of the sacred aura of classical tunes on Pictures at an Exhibition, Trilogy, ELP's fourth album, features the trio settling down in more crowd-pleasing pastures. Actually, the group was gaining in maturity what they lost in raw energy...."


Tracklist:

01. The Endless Enigma (Part One) - 6:42
02. Fugue - 1:57
03. The Endless Enigma (Part Two) - 2:05
04. From The Beginning - 4:17
05. The Sheriff - 3:23
06. Hoedown (Taken From Rodeo) - 3:47
07. Trilogy - 8:54
08. Living Sin - 3:14
09. Abaddon's Bolero - 8:08

Exact Audio Copy V1.0 beta 4 from 7. December 2014

EAC extraction logfile from 20. February 2015, 0:10

Emerson, Lake & Palmer / Trilogy (1987, 32XD-749)

Used drive : ATAPI iHAS124 B Adapter: 1 ID: 0

Read mode : Secure
Utilize accurate stream : Yes
Defeat audio cache : Yes
Make use of C2 pointers : No

Read offset correction

: 6
Overread into Lead-In and Lead-Out : No
Fill up missing offset samples with silence : Yes
Delete leading and trailing silent blocks : No
Null samples used in CRC calculations : Yes
Used interface
: Installed external ASPI interface

Used output format : User Defined Encoder
Selected bitrate : 128 kBit/s
Quality : High
Add ID3 tag : Yes
Command line compressor : C:\Program Files (x86)\Exact Audio Copy\Flac\flac.exe
Additional command line options : -V -8 -T "Date=%year%" -T "Genre=%genre%" %source%

TOC of the extracted CD Track | Start | Length | Start sector | End sector
--1 | 0:00.37 | 6:42.03 | 37 | 30189 2 | 6:42.40 | 1:57.00 | 30190 | 38964 3 | 8:39.40 | 2:04.60 | 38965 | 48324 4 | 10:44.25 | 4:17.00 | 48325 | 67599 5 | 15:01.25 | 3:23.00 | 67600 | 82824 6 | 18:24.25 | 3:47.00 | 82825 | 99849 7 | 22:11.25 | 8:54.00 | 99850 | 139899 8 | 31:05.25 | 3:14.00 | 139900 | 154449 9 | 34:19.25 | 8:08.12 | 154450 | 191061

Range status and errors

Selected range Filename G:\CD\ELP - Trilogy.wav Peak level 100.0 %
Extraction speed 5.8 X
Range quality 100.0 %
Test CRC 449AE881
Copy CRC 449AE881
Copy OK

No errors occurred


AccurateRip summary

Track 1 accurately ripped (confidence 16) [37485D73] (AR v2)
Track 2 accurately ripped (confidence 16) [7B58B314] (AR v2)
Track 3 accurately ripped (confidence 16) [1F2EC0B4] (AR v2)
Track 4 accurately ripped (confidence 16) [081B23D2] (AR v2)
Track 5 accurately ripped (confidence 16) [34E4F949] (AR v2)
Track 6 accurately ripped (confidence 16) [27D83696] (AR v2)
Track 7 accurately ripped (confidence 15) [2F63F50F] (AR v2)
Track 8 accurately ripped (confidence 16) [DB9FC72D] (AR v2)
Track 9 accurately ripped (confidence 16) [4E8F310E] (AR v2)

All tracks accurately ripped

End of status report

- CUETools DB Plugin V2.1.4

[CTDB TOCID: .OFC72qVnJBBb97xzwteSg3BapU-] found
Submit result: already submitted
Track | CTDB Status
1 | (2/2) Accurately ripped
2 | (2/2) Accurately ripped
3 | (2/2) Accurately ripped
4 | (2/2) Accurately ripped
5 | (2/2) Accurately ripped
6 | (2/2) Accurately ripped
7 | (2/2) Accurately ripped
8 | (2/2) Accurately ripped
9 | (2/2) Accurately ripped

==== Log checksum D93036D9FA0EDB843F16CBD9F451A45B3B50E1710873D0E39B28AE42C4DF4D75 ====

foobar2000 1.2.9 / Dynamic Range Meter 1.1.1
log date: 2015-08-26 20:56:39

Analyzed: Emerson, Lake & Palmer / Trilogy (1987, 32XD-749)

DR Peak RMS Duration Track

DR11 0.00 dB -15.26 dB 6:42 01-The Endless Enigma (Part One)
DR13 -4.83 dB -23.91 dB 1:57 02-Fugue
DR10 -0.55 dB -12.77 dB 2:05 03-The Endless Enigma (Part Two)
DR15 -0.83 dB -20.46 dB 4:17 04-From The Beginning
DR11 -0.07 dB -13.35 dB 3:23 05-The Sheriff
DR12 -2.83 dB -17.97 dB 3:47 06-Hoedown (Taken From Rodeo)
DR11 -0.33 dB -14.59 dB 8:54 07-Trilogy
DR13 -0.77 dB -16.25 dB 3:14 08-Living Sin
DR12 -1.46 dB -17.85 dB 8:08 09-Abaddon's Bolero

Number of tracks: 9
Official DR value: DR12

Samplerate: 44100 Hz
Channels: 2
Bits per sample: 16
Bitrate: 850 kbps
Codec: FLAC

[CUETools log; Date: 26.08.2015 20:39:41; Version: 2.1.4]
Pregap length 00:00:37.
[CTDB TOCID: .OFC72qVnJBBb97xzwteSg3BapU-] found.
Track | CTDB Status
1 | (6/6) Accurately ripped
2 | (6/6) Accurately ripped
3 | (6/6) Accurately ripped
4 | (6/6) Accurately ripped
5 | (6/6) Accurately ripped
6 | (6/6) Accurately ripped
7 | (6/6) Accurately ripped
8 | (6/6) Accurately ripped
9 | (6/6) Accurately ripped
[AccurateRip ID: 000d04d4-0060809e-5f09f309] found.
Track [ CRC | V2 ] Status
01 [5722d03d|37485d73] (25+18/49) Accurately ripped
02 [f0915cb7|7b58b314] (24+18/48) Accurately ripped
03 [89033ffc|1f2ec0b4] (24+18/48) Accurately ripped
04 [889a26a7|081b23d2] (23+19/48) Accurately ripped
05 [e9c786ae|34e4f949] (23+19/48) Accurately ripped
06 [74563b3f|27d83696] (24+19/49) Accurately ripped
07 [a4337f69|2f63f50f] (25+18/49) Accurately ripped
08 [5a2ca187|db9fc72d] (25+18/49) Accurately ripped
09 [1cda3364|4e8f310e] (24+18/48) Accurately ripped
Offsetted by -306:
01 [7c82545c] (00/49) No match (V2 was not tested)
02 [eae02ba9] (00/48) No match (V2 was not tested)
03 [dd826461] (00/48) No match (V2 was not tested)
04 [445db8f7] (00/48) No match (V2 was not tested)
05 [e5c33268] (00/48) No match (V2 was not tested)
06 [09cb34d5] (00/49) No match (V2 was not tested)
07 [dd3bf659] (00/49) No match (V2 was not tested)
08 [47ffd399] (00/49) No match (V2 was not tested)
09 [af0b6d00] (00/48) No match (V2 was not tested)
Offsetted by 475:
01 [ae8f5622] (00/49) No match (V2 was not tested)
02 [32fdef49] (00/48) No match (V2 was not tested)
03 [2b4849c4] (00/48) No match (V2 was not tested)
04 [af9894af] (00/48) No match (V2 was not tested)
05 [4ce0a6c7] (00/48) No match (V2 was not tested)
06 [c46394ae] (00/49) No match (V2 was not tested)
07 [94742981] (00/49) No match (V2 was not tested)
08 [3950b75c] (00/49) No match (V2 was not tested)
09 9eb7d1a (00/48) No match (V2 was not tested)

Track Peak [ CRC32 ] [W/O NULL] [ LOG ]
-- 100,0 [449AE881] [D05568B6] CRC32
01 100,0 [7192331C] [F37FE5CF]
02 57,3 [709028D0] [D3BB14F1]
03 93,8 [165CA7FF] [D64D56C8]
04 90,9 [A5B6FAA1] [84205208]
05 99,2 [05F2FD8E] [687D1244]
06 72,1 [9F17A17F] [6F31AAEA]
07 96,2 [9721B47E] [C31CE97F]
08 91,4 [A041CCC8] [6AF150F5]
09 84,5 [D0D49C85] [2215FACB]

Emerson, Lake & Palmer - Trilogy (1972) [1987, Warner-Pioneer 32XD-749, Japan]

DOWNLOAD:
Buy Premium To Support Me & Get Resumable Support & Max Speed


Links are Interchangeable - No Password
Direct Download

Tags: Emerson, Palmer, Trilogy, Warner

Emerson, Lake & Palmer - Trilogy (1972) [1987, Warner-Pioneer 32XD-749, Japan] Download via Hotfile Rapidshare Fileserve Megaupload & FileSonic, Emerson, Lake & Palmer - Trilogy (1972) [1987, Warner-Pioneer 32XD-749, Japan] free torrent downloads included crack, serial, keygen.Emerson, Lake & Palmer - Trilogy (1972) [1987, Warner-Pioneer 32XD-749, Japan] Fast Download via Rapidshare Hotfile Fileserve Filesonic Megaupload, Emerson, Lake & Palmer - Trilogy (1972) [1987, Warner-Pioneer 32XD-749, Japan] Torrents and Emule Download or anything related.
Leave a Comment
Your Name:
E-Mail:
Add Comments:

Enter Code: