VA - Big Blunts Volume 2 (1996) {Tommy Boy}

Download Now

VA - Big Blunts Volume 2 (1996) {Tommy Boy}

VA - Big Blunts Volume 2 (1996) {Tommy Boy}
EAC Rip | FLAC with CUE and log | scans | 333 mb
MP3 CBR 320kbps | RAR | 120 mb
Genre: reggae, dancehall

Subtitled More Smokin' Reggae Hits!, this is Big Blunts Volume23, the second installment in Tommy Boy Records' compilation series dedicated to reggae songs with a marijuana theme. This one features three different mixes of Bounty Killer's "Eyes A Bleed", including a remix done by RZA of the Wu-Tang Clan.
VA - Big Blunts Volume 2 (1996) {Tommy Boy}

1. Bounty Killer - Eyes A Bleed (RZA Remix) (4:43)
2. Jr Cat - Chronic Meditation (3:43)
3. Baja Jedd - Ganja Smokin' (3:03)
4. Anthony Red Rose - Gi We The Weed (3:59)
5. Bounty Killer - Eyes A Bleed (3:46)
6. D Clarke & Yankee B - Ganja Man Live On (3:44)
7. Barrington Levy & Beenie Man - Under Mi Sensi (4:06)
8. Carlton Livingston - 100 Weight Of Collie Weed (3:16)
9. John Holt - Police In Helicopter (3:31)
10. Eek-A-Mouse - Ganja Smuggling (3:48)
11. Barrington Levy - Collie Weed (3:44)
12. Pato Banton - Don't Sniff Coke (4:10)
13. Lone Ranger - 1/4 Lb Of Ishen (3:57)
14. Bounty Killer - Eyes A Bleed (Tom Laroc Remix) (3:54)

Exact Audio Copy V1.1 from 23. June 2015

EAC extraction logfile from 24. August 2015, 19:40

Various Artists / Big Blunts Volume 2

Used drive : TEAC DVD-ROM DV-28SW Adapter: 1 ID: 0

Read mode : Secure
Utilize accurate stream : Yes
Defeat audio cache : Yes
Make use of C2 pointers : No

Read offset correction

: 6
Overread into Lead-In and Lead-Out : No
Fill up missing offset samples with silence : Yes
Delete leading and trailing silent blocks : No
Null samples used in CRC calculations : Yes
Used interface
: Native Win32 interface for Win NT & 2000
Gap handling
: Appended to previous track

Used output format : Internal WAV Routines
Sample format : 44.100 Hz; 16 Bit; Stereo

TOC of the extracted CD Track | Start | Length | Start sector | End sector
--1 | 0:00.00 | 4:45.30 | 0 | 21404 2 | 4:45.30 | 3:47.30 | 21405 | 38459 3 | 8:32.60 | 3:05.10 | 38460 | 52344 4 | 11:37.70 | 4:01.25 | 52345 | 70444 5 | 15:39.20 | 3:48.22 | 70445 | 87566 6 | 19:27.42 | 3:46.65 | 87567 | 104581 7 | 23:14.32 | 4:08.03 | 104582 | 123184 8 | 27:22.35 | 3:18.45 | 123185 | 138079 9 | 30:41.05 | 3:33.27 | 138080 | 154081
10 | 34:14.32 | 3:50.28 | 154082 | 171359
11 | 38:04.60 | 3:46.32 | 171360 | 188341
12 | 41:51.17 | 4:12.53 | 188342 | 207294
13 | 46:03.70 | 3:59.07 | 207295 | 225226
14 | 50:03.02 | 3:54.65 | 225227 | 242841

Track 1 Filename C:\My Documents\My FLAC\VA - Big Blunts Volume 2 (1996) [FLAC] {Tommy Boy}\01 - Bounty Killer - Eyes A Bleed (RZA Remix).wav Pre-gap length 0:00:02.00 Peak level 97.7 %
Extraction speed 2.9 X
Track quality 100.0 %
Test CRC 2D079B45
Copy CRC 2D079B45
Accurately ripped (confidence 3) [E681E4BF] (AR v2)
Copy OK

Track 2 Filename C:\My Documents\My FLAC\VA - Big Blunts Volume 2 (1996) [FLAC] {Tommy Boy}\02 - Jr Cat - Chronic Meditation.wav Pre-gap length 0:00:01.43 Peak level 97.7 %
Extraction speed 2.6 X
Track quality 99.9 %
Test CRC 0BDF0C78
Copy CRC 0BDF0C78
Accurately ripped (confidence 3) 6323031 (AR v2)
Copy OK

Track 3 Filename C:\My Documents\My FLAC\VA - Big Blunts Volume 2 (1996) [FLAC] {Tommy Boy}\03 - Baja Jedd - Ganja Smokin.wav Pre-gap length 0:00:01.43 Peak level 92.2 %
Extraction speed 3.3 X
Track quality 100.0 %
Test CRC 9FC5B825
Copy CRC 9FC5B825
Accurately ripped (confidence 3) [7D3A5ED8] (AR v2)
Copy OK

Track 4 Filename C:\My Documents\My FLAC\VA - Big Blunts Volume 2 (1996) [FLAC] {Tommy Boy}\04 - Anthony Red Rose - Gi We The Weed.wav Pre-gap length 0:00:01.43 Peak level 97.7 %
Extraction speed 3.0 X
Track quality 99.9 %
Test CRC D62AC2A5
Copy CRC D62AC2A5
Accurately ripped (confidence 3) [13926B79] (AR v2)
Copy OK

Track 5 Filename C:\My Documents\My FLAC\VA - Big Blunts Volume 2 (1996) [FLAC] {Tommy Boy}\05 - Bounty Killer - Eyes A Bleed.wav Pre-gap length 0:00:01.43 Peak level 97.7 %
Extraction speed 3.8 X
Track quality 100.0 %
Test CRC C9548665
Copy CRC C9548665
Accurately ripped (confidence 3) [1C6708F8] (AR v2)
Copy OK

Track 6 Filename C:\My Documents\My FLAC\VA - Big Blunts Volume 2 (1996) [FLAC] {Tommy Boy}\06 - D Clarke & Yankee B - Ganga Man Live On.wav Pre-gap length 0:00:01.42 Peak level 97.7 %
Extraction speed 4.0 X
Track quality 100.0 %
Test CRC 79C2365E
Copy CRC 79C2365E
Accurately ripped (confidence 3) [2CB50C78] (AR v2)
Copy OK

Track 7 Filename C:\My Documents\My FLAC\VA - Big Blunts Volume 2 (1996) [FLAC] {Tommy Boy}\07 - Barrington Levy & Beenie Man - Under Mi Sensi.wav Pre-gap length 0:00:01.42 Peak level 92.2 %
Extraction speed 4.2 X
Track quality 100.0 %
Test CRC 0EEBBDEC
Copy CRC 0EEBBDEC
Accurately ripped (confidence 3) [E9825A34] (AR v2)
Copy OK

Track 8 Filename C:\My Documents\My FLAC\VA - Big Blunts Volume 2 (1996) [FLAC] {Tommy Boy}\08 - Carlton Livingston - 100 Weight Of Collie Weed.wav Pre-gap length 0:00:01.43 Peak level 92.2 %
Extraction speed 4.3 X
Track quality 100.0 %
Test CRC BB8E7BE0
Copy CRC BB8E7BE0
Accurately ripped (confidence 3) [579174BC] (AR v2)
Copy OK

Track 9 Filename C:\My Documents\My FLAC\VA - Big Blunts Volume 2 (1996) [FLAC] {Tommy Boy}\09 - John Holt - Police In Helicopter.wav Pre-gap length 0:00:01.43 Peak level 97.7 %
Extraction speed 4.4 X
Track quality 100.0 %
Test CRC 5F647A94
Copy CRC 5F647A94
Accurately ripped (confidence 3) [9CB8D3F2] (AR v2)
Copy OK

Track 10 Filename C:\My Documents\My FLAC\VA - Big Blunts Volume 2 (1996) [FLAC] {Tommy Boy}\10 - Eek-A-Mouse - Ganja Smuggling.wav Pre-gap length 0:00:01.42 Peak level 97.7 %
Extraction speed 3.9 X
Track quality 99.9 %
Test CRC ABAFDBF2
Copy CRC ABAFDBF2
Accurately ripped (confidence 3) [DFB55B69] (AR v2)
Copy OK

Track 11 Filename C:\My Documents\My FLAC\VA - Big Blunts Volume 2 (1996) [FLAC] {Tommy Boy}\11 - Barrington Levy - Collie Weed.wav Pre-gap length 0:00:01.43 Peak level 97.7 %
Extraction speed 4.0 X
Track quality 99.9 %
Test CRC DFF29BBF
Copy CRC DFF29BBF
Accurately ripped (confidence 3) 7083D10 (AR v2)
Copy OK

Track 12 Filename C:\My Documents\My FLAC\VA - Big Blunts Volume 2 (1996) [FLAC] {Tommy Boy}\12 - Pato Banton - Don't Sniff Coke.wav Pre-gap length 0:00:01.42 Peak level 92.2 %
Extraction speed 5.0 X
Track quality 100.0 %
Test CRC CF6BB226
Copy CRC CF6BB226
Accurately ripped (confidence 3) [6B6441CD] (AR v2)
Copy OK

Track 13 Filename C:\My Documents\My FLAC\VA - Big Blunts Volume 2 (1996) [FLAC] {Tommy Boy}\13 - Lone Ranger - 1,4 Lb Of Ishen.wav Pre-gap length 0:00:01.43 Peak level 97.7 %
Extraction speed 5.2 X
Track quality 100.0 %
Test CRC 237704BA
Copy CRC 237704BA
Accurately ripped (confidence 3) [9DB398A3] (AR v2)
Copy OK

Track 14 Filename C:\My Documents\My FLAC\VA - Big Blunts Volume 2 (1996) [FLAC] {Tommy Boy}\14 - Bounty Killer - Eyes A Bleed (Tom Laroc Remix).wav Pre-gap length 0:00:01.43 Peak level 97.7 %
Extraction speed 5.3 X
Track quality 100.0 %
Test CRC 25B92941
Copy CRC 25B92941
Accurately ripped (confidence 3) [050169A1] (AR v2)
Copy OK

All tracks accurately ripped

No errors occurred

End of status report

- CUETools DB Plugin V2.1.6

[CTDB TOCID: ADh8K_yHyB6vNQN4g17jdggI_js-] found
Submit result: The request was aborted: The request was canceled.
Track | CTDB Status
1 | (3/3) Accurately ripped
2 | (3/3) Accurately ripped
3 | (3/3) Accurately ripped
4 | (3/3) Accurately ripped
5 | (3/3) Accurately ripped
6 | (3/3) Accurately ripped
7 | (3/3) Accurately ripped
8 | (3/3) Accurately ripped
9 | (3/3) Accurately ripped
10 | (3/3) Accurately ripped
11 | (3/3) Accurately ripped
12 | (3/3) Accurately ripped
13 | (3/3) Accurately ripped
14 | (3/3) Accurately ripped

VA - Big Blunts Volume 2 (1996) {Tommy Boy}

DOWNLOAD LINKS:
(Premium Recommended)


All above links are interchangable. No password
Direct Download

Tags: Blunts

VA - Big Blunts Volume 2 (1996) {Tommy Boy} Download via Hotfile Rapidshare Fileserve Megaupload & FileSonic, VA - Big Blunts Volume 2 (1996) {Tommy Boy} free torrent downloads included crack, serial, keygen.VA - Big Blunts Volume 2 (1996) {Tommy Boy} Fast Download via Rapidshare Hotfile Fileserve Filesonic Megaupload, VA - Big Blunts Volume 2 (1996) {Tommy Boy} Torrents and Emule Download or anything related.
Leave a Comment
Your Name:
E-Mail:
Add Comments:

Enter Code: