Dao Dezi - World Mix Album (1994) [EMI ‎TOCP 8562, Japan]

Download Now

Dao Dezi - World Mix Album (1994) [EMI ‎TOCP 8562, Japan]

Dao Dezi - World Mix Album (1994)
EAC | Flac(Image) + Cue + Log & MP3 CBR 320Kbps
EMI, ‎TOCP 8562 | ~ 271 or 105 Mb | Scans(png) -> 275 Mb
World / Folk / Electronic

"Eric Mouquet, the producer of this recording, has apparently taken various world music styles and added techno-pop features to produce what he calls a "World Mix" album. On this recording, he visits Brittany, the celtic nation located in the Northwest coast of France. The recording features some well-known traditional Breton pieces: Tri Martolod, La Jument de Mishao, and Ti Eliz Iza. It also features the participation of some of Brittany's best-known musicians: Tri Yann, Denez Prigent, and Manu Lann Huel..."


Tracklist:

01. Hebrides (4:54)
02. La Jument De Mishao (Love Palace Mix) (4:06)
03. Kokerikero (4:27)
04. Ti Eliz Iza (7:44)
05. Tri Martolod (3:11)
06. The King Of The Fairies (1:45)
07. Gaspesie (3:12)
08. An Tri Breur (Love Palace Mix) (3:47)
09. 11.11.93 (3:56)
10. Digor (1:30)
11. Ti Eliz Iza (Love Palace Mix) (5:45)

Exact Audio Copy V1.0 beta 1 from 15. November 2010

EAC extraction logfile from 13. November 2011, 18:16

Dao Dezi / World Mix Album (Japanese Press)

Used drive : SONY DVD RW AD-7260S Adapter: 3 ID: 0

Read mode : Secure
Utilize accurate stream : Yes
Defeat audio cache : Yes
Make use of C2 pointers : No

Read offset correction

: 48
Overread into Lead-In and Lead-Out : No
Fill up missing offset samples with silence : Yes
Delete leading and trailing silent blocks : No
Null samples used in CRC calculations : Yes
Used interface
: Native Win32 interface for Win NT & 2000

Used output format : Internal WAV Routines
Sample format : 44.100 Hz; 16 Bit; Stereo

TOC of the extracted CD Track | Start | Length | Start sector | End sector
--1 | 0:00.00 | 4:54.07 | 0 | 22056 2 | 4:54.07 | 4:06.10 | 22057 | 40516 3 | 9:00.17 | 4:27.43 | 40517 | 60584 4 | 13:27.60 | 7:44.27 | 60585 | 95411 5 | 21:12.12 | 3:11.50 | 95412 | 109786 6 | 24:23.62 | 1:45.58 | 109787 | 117719 7 | 26:09.45 | 3:12.42 | 117720 | 132161 8 | 29:22.12 | 3:47.35 | 132162 | 149221 9 | 33:09.47 | 3:56.28 | 149222 | 166949
10 | 37:06.00 | 1:30.30 | 166950 | 173729
11 | 38:36.30 | 5:45.17 | 173730 | 199621

Range status and errors

Selected range Filename U:\Deep Forest\Dao Dezi 1994 - World Mix Album (Japanese Press)\Dao Dezi - World Mix Album (Japanese Press).wav Peak level 100.0 %
Extraction speed 0.4 X
Range quality 100.0 %
Test CRC 94240B4A
Copy CRC 94240B4A
Copy OK

No errors occurred


AccurateRip summary

Track 1 not present in database
Track 2 not present in database
Track 3 not present in database
Track 4 not present in database
Track 5 not present in database
Track 6 not present in database
Track 7 not present in database
Track 8 not present in database
Track 9 not present in database
Track 10 not present in database
Track 11 not present in database

None of the tracks are present in the AccurateRip database

End of status report

foobar2000 1.2.9 / Dynamic Range Meter 1.1.1
log date: 2015-08-28 00:30:32

Analyzed: Dao Dezi / World Mix Album (Japanese Press)

DR Peak RMS Duration Track

DR9 -0.37 dB -11.57 dB 4:54 01-Hebrides
DR9 0.00 dB -10.43 dB 4:06 02-La Jument De Mishao (Love Palace mix)
DR10 -0.20 dB -12.30 dB 4:28 03-Kokerikero
DR9 -0.13 dB -12.47 dB 7:44 04-Ti Eliz Iza
DR11 -0.14 dB -12.55 dB 3:12 05-Tri Martolod
DR11 -0.08 dB -12.32 dB 1:46 06-The King Of The Fairies
DR9 -4.71 dB -16.98 dB 3:13 07-Gaspesie
DR8 -1.49 dB -11.50 dB 3:47 08-An Tri Breur (Love Palace mix)
DR12 -0.36 dB -18.30 dB 3:56 09-11.11.93
DR14 -3.50 dB -23.21 dB 1:30 10-Digor
DR10 0.00 dB -11.69 dB 5:45 11-Ti Eliz Iza (Love Palace mix)

Number of tracks: 11
Official DR value: DR10

Samplerate: 44100 Hz
Channels: 2
Bits per sample: 16
Bitrate: 831 kbps
Codec: FLAC

[CUETools log; Date: 28.08.2015 0:30:41; Version: 2.1.4]
[CTDB TOCID: 7Eloir6exPyXJhXtm8EWPFyj6nY-] disk not present in database.
[AccurateRip ID: 00135834-00a3f134-9d0a650b] disk not present in database.

Track Peak [ CRC32 ] [W/O NULL] [ LOG ]
-- 100,0 [94240B4A] [9F6013B3] CRC32
01 95,8 [CC721E4E] [7697760C]
02 100,0 [AB6E6992] [6D763402]
03 97,6 [7D331ED4] 81A4512
04 98,4 [EBA8CE41] [8CDBD5EB]
05 98,4 [7E931455] [A3D26531]
06 99,0 [2E270B7F] [0C3A9BE2]
07 58,1 [3F6D84CC] [1F8A8118]
08 84,2 [9322D77F] [210C0BC9]
09 95,9 [5CE12F52] [3802B243]
10 66,8 [C8037725] [AD22407C]
11 100,0 [0CA5E0C7] [75E18ABD]

Dao Dezi - World Mix Album (1994) [EMI ‎TOCP 8562, Japan]

DOWNLOAD LINKS:
(Premium Recommended)


All above links are interchangable. No password
Direct Download

Dao Dezi - World Mix Album (1994) [EMI ‎TOCP 8562, Japan] Download via Hotfile Rapidshare Fileserve Megaupload & FileSonic, Dao Dezi - World Mix Album (1994) [EMI ‎TOCP 8562, Japan] free torrent downloads included crack, serial, keygen.Dao Dezi - World Mix Album (1994) [EMI ‎TOCP 8562, Japan] Fast Download via Rapidshare Hotfile Fileserve Filesonic Megaupload, Dao Dezi - World Mix Album (1994) [EMI ‎TOCP 8562, Japan] Torrents and Emule Download or anything related.
Leave a Comment
Your Name:
E-Mail:
Add Comments:

Enter Code: