Thorgal (Eric Mouquet feat. Various Artists) - Thorgal (2000)

Download Now

Thorgal (Eric Mouquet feat. Various Artists) - Thorgal (2000)

Thorgal (Eric Mouquet feat. Various Artists) - Thorgal (2000)
EAC | Flac(Image) + Cue + Log & MP3 CBR 320Kbps
Universal Licensing Music (ULM), 159-524-2 | ~ 339 or 126 Mb | Scans(png) -> 173 Mb
New Age / Soundtrack

"The concept album Thorgal is filled to the brim with intelligent compositions, well-crafted arrangements, beautiful and heart-rending melodies and a couple of definitely Deep Forest-sounding tunes. And unlike many "new-age" albums, the music of Thorgal never fails to find the delicate balance between soothing ambiences, irresistible melodies and powerful rhythms..."

Thorgal (Eric Mouquet feat. Various Artists) - Thorgal at Discogs
Thorgal (Eric Mouquet feat. Various Artists) - Thorgal (2000):

Thorgal (Eric Mouquet feat. Various Artists) - Thorgal (2000)

Tracklist:

01. Ouverture (0:26)
02. Enfant Des Etoiles (3:49)
03. Mon Bel Amour (3:54)
04. Terre Du Nord (3:44)
05. Aaricia (3:46)
06. Oracle (Part. I) (1:02)
07. Louve (3:34)
08. Oracle (Part. II) (3:29)
09. Kriss De Valnor (Intro) (0:38)
10. Kriss De Valnor (5:21)
11. Shaigan Sans Merci (2:19)
12. Terre Du Milieu (5:20)
13. La Memoire Des Vivants (Part. I) (4:22)
14. La Memoire Des Vivants (Part. II) (1:06)
15. Les Elfes (1:36)
16. Jolan (3:34)
17. Rituels (2:30)
18. Deesse Frigg (2:46)

Exact Audio Copy V1.0 beta 1 from 15. November 2010

EAC extraction logfile from 9. January 2012, 18:27

Eric Mouquet / Thorgal

Used drive : SONY DVD RW AD-7260S Adapter: 3 ID: 0

Read mode : Secure
Utilize accurate stream : Yes
Defeat audio cache : Yes
Make use of C2 pointers : No

Read offset correction

: 48
Overread into Lead-In and Lead-Out : No
Fill up missing offset samples with silence : Yes
Delete leading and trailing silent blocks : No
Null samples used in CRC calculations : Yes
Used interface
: Native Win32 interface for Win NT & 2000

Used output format : Internal WAV Routines
Sample format : 44.100 Hz; 16 Bit; Stereo

TOC of the extracted CD Track | Start | Length | Start sector | End sector
--1 | 0:00.00 | 0:26.74 | 0 | 2023 2 | 0:26.74 | 3:49.53 | 2024 | 19251 3 | 4:16.52 | 3:54.74 | 19252 | 36875 4 | 8:11.51 | 3:44.62 | 36876 | 53737 5 | 11:56.38 | 3:46.07 | 53738 | 70694 6 | 15:42.45 | 1:02.74 | 70695 | 75418 7 | 16:45.44 | 3:34.28 | 75419 | 91496 8 | 20:19.72 | 3:29.40 | 91497 | 107211 9 | 23:49.37 | 0:38.52 | 107212 | 110113
10 | 24:28.14 | 5:21.28 | 110114 | 134216
11 | 29:49.42 | 2:19.51 | 134217 | 144692
12 | 32:09.18 | 5:20.36 | 144693 | 168728
13 | 37:29.54 | 4:22.05 | 168729 | 188383
14 | 41:51.59 | 1:06.47 | 188384 | 193380
15 | 42:58.31 | 1:36.74 | 193381 | 200654
16 | 44:35.30 | 3:34.60 | 200655 | 216764
17 | 48:10.15 | 2:30.53 | 216765 | 228067
18 | 50:40.68 | 2:46.49 | 228068 | 240566

Range status and errors

Selected range Filename U:\Deep Forest\Deep Forest - Projects\Eric Mouquet (Deep Forest) 2000 - Thorgal\Eric Mouquet - Thorgal.wav Peak level 97.1 %
Extraction speed 0.2 X
Range quality 100.0 %
Test CRC 8D91C257
Copy CRC 8D91C257
Copy OK

No errors occurred


AccurateRip summary

Track 1 accurately ripped (confidence 4) [054F6F2D]
Track 2 accurately ripped (confidence 4) [6B2EBA47]
Track 3 accurately ripped (confidence 4) [A1ED6691]
Track 4 accurately ripped (confidence 4) [92B54DAA]
Track 5 accurately ripped (confidence 4) [778F2E99]
Track 6 accurately ripped (confidence 4) [38F42B0C]
Track 7 accurately ripped (confidence 4) [51399AD3]
Track 8 accurately ripped (confidence 4) [82A1DDAC]
Track 9 accurately ripped (confidence 4) [2346634E]
Track 10 accurately ripped (confidence 4) [EF0DF3E1]
Track 11 accurately ripped (confidence 4) [37B7A448]
Track 12 accurately ripped (confidence 4) 7E620F8
Track 13 accurately ripped (confidence 4) [FDD3623E]
Track 14 accurately ripped (confidence 4) [6BDA9F6A]
Track 15 accurately ripped (confidence 4) [CCFF7E4D]
Track 16 accurately ripped (confidence 4) [8AB7155C]
Track 17 accurately ripped (confidence 4) [4E789FE8]
Track 18 accurately ripped (confidence 3) [7656F3C0]

All tracks accurately ripped

End of status report

foobar2000 1.2.9 / Dynamic Range Meter 1.1.1
log date: 2015-08-28 23:20:30

Analyzed: Eric Mouquet / Thorgal

DR Peak RMS Duration Track

DR10 -1.27 dB -18.21 dB 0:27 01-Ouverture
DR11 -0.26 dB -12.81 dB 3:50 02-Enfant des etoiles
DR12 -0.26 dB -17.16 dB 3:55 03-Mon bel amour
DR11 -0.26 dB -14.62 dB 3:45 04-Terre du nord
DR9 -0.26 dB -12.26 dB 3:46 05-Aaricia
DR11 -0.87 dB -16.40 dB 1:03 06-Oracle (Part 1)
DR10 -1.28 dB -15.11 dB 3:34 07-Louve
DR11 -0.26 dB -14.05 dB 3:30 08-Oracle (Part 2)
DR9 -12.55 dB -24.96 dB 0:39 09-Kriss de Valnor (intro)
DR11 -0.26 dB -15.00 dB 5:21 10-Kriss de Valnor
DR13 -1.84 dB -17.89 dB 2:20 11-Shaigan sans merci
DR10 -0.26 dB -12.99 dB 5:20 12-Terre du milieu
DR11 -0.36 dB -13.89 dB 4:22 13-La memoire des vivants (Part 1)
DR11 -1.24 dB -15.43 dB 1:07 14-La memoire des vivants (Part 2)
DR11 -0.44 dB -14.37 dB 1:37 15-Les elfes
DR11 -0.54 dB -13.75 dB 3:35 16-Jolan
DR10 -0.26 dB -14.26 dB 2:31 17-Rituels
DR13 -2.63 dB -18.68 dB 2:47 18-Deesse Frigg

Number of tracks: 18
Official DR value: DR11

Samplerate: 44100 Hz
Channels: 2
Bits per sample: 16
Bitrate: 862 kbps
Codec: FLAC

[CUETools log; Date: 28.08.2015 23:20:20; Version: 2.1.4]
[CTDB TOCID: xw0z4EPjTDjfed2ubmIgq5R0u1k-] found.
Track | CTDB Status
1 | (4/4) Accurately ripped
2 | (4/4) Accurately ripped
3 | (4/4) Accurately ripped
4 | (4/4) Accurately ripped
5 | (4/4) Accurately ripped
6 | (4/4) Accurately ripped
7 | (4/4) Accurately ripped
8 | (4/4) Accurately ripped
9 | (4/4) Accurately ripped
10 | (4/4) Accurately ripped
11 | (4/4) Accurately ripped
12 | (4/4) Accurately ripped
13 | (4/4) Accurately ripped
14 | (4/4) Accurately ripped
15 | (4/4) Accurately ripped
16 | (4/4) Accurately ripped
17 | (4/4) Accurately ripped
18 | (4/4) Accurately ripped
[AccurateRip ID: 0022d32e-01d51d47-e70c8712] found.
Track [ CRC | V2 ] Status
01 [054f6f2d|07d23938] (4+2/6) Accurately ripped
02 [6b2eba47|e9b82e2c] (4+2/6) Accurately ripped
03 [a1ed6691|cab6040a] (4+2/6) Accurately ripped
04 [92b54daa|2c44dc08] (4+2/6) Accurately ripped
05 [778f2e99|c55287b4] (4+2/6) Accurately ripped
06 [38f42b0c|83a68eff] (4+2/6) Accurately ripped
07 [51399ad3|a6e4693b] (4+2/6) Accurately ripped
08 [82a1ddac|1a8bc750] (4+2/6) Accurately ripped
09 [2346634e|1ff11e06] (4+2/6) Accurately ripped
10 [ef0df3e1|f933d125] (4+2/6) Accurately ripped
11 [37b7a448|cd034ebb] (4+2/6) Accurately ripped
12 7e620f8|bf8bfcec (4+2/6) Accurately ripped
13 [fdd3623e|4aad4890] (4+2/6) Accurately ripped
14 [6bda9f6a|73b860fb] (4+2/6) Accurately ripped
15 [ccff7e4d|e8712881] (4+2/6) Accurately ripped
16 [8ab7155c|5606aa1f] (4+2/6) Accurately ripped
17 [4e789fe8|da54519d] (4+2/6) Accurately ripped
18 [7656f3c0|3ba34be3] (3+2/5) Accurately ripped

Track Peak [ CRC32 ] [W/O NULL] [ LOG ]
-- 97,1 [8D91C257] [4851F9D6] CRC32
01 86,3 [7282F485] [2FDC047C]
02 97,1 4A7EA12 [1CFFDED9]
03 97,1 [F087B6B2] [E0B5C315]
04 97,1 [0BF87DB1] [9C605E2E]
05 97,1 [5FD0ED0D] [63605DC2]
06 90,4 [71E11D04] [128897CA]
07 86,2 [50A1FE2D] [567FFD7B]
08 97,1 [485FF04C] [04C46B25]
09 23,5 [74DA1774] [6C97E0AC]
10 97,1 [34768274] [722E56A1]
11 80,8 [A401239B] [A46E4123]
12 97,1 [D4E5918E] [A3CA895D]
13 95,9 [D69A82AA] [3B99BCCF]
14 86,6 [E999672E] [5124E417]
15 95,1 [32C19282] [6F1AA5AF]
16 94,0 [5DA77B44] [42D9983F]
17 97,1 [CE6290E0] [70331B6D]
18 73,8 [12587559] [DE210FAA]

Thorgal (Eric Mouquet feat. Various Artists) - Thorgal (2000)

All thanks go to aylaayla



Download Thorgal (Eric Mouquet feat. Various Artists) - Thorgal (2000):


DOWNLOAD LINKS
Buy Premium From My Links To Get Resumable Support & Max Speed & To Support Me


Links are Interchangeable - No Password - Single Extraction
Direct Download

Tags: Thorgal, Mouquet, Various, Artists, Thorgal

Thorgal (Eric Mouquet feat. Various Artists) - Thorgal (2000) Download via Hotfile Rapidshare Fileserve Megaupload & FileSonic, Thorgal (Eric Mouquet feat. Various Artists) - Thorgal (2000) free torrent downloads included crack, serial, keygen.Thorgal (Eric Mouquet feat. Various Artists) - Thorgal (2000) Fast Download via Rapidshare Hotfile Fileserve Filesonic Megaupload, Thorgal (Eric Mouquet feat. Various Artists) - Thorgal (2000) Torrents and Emule Download or anything related.
Leave a Comment
Your Name:
E-Mail:
Add Comments:

Enter Code: