Quintetto Basso-Valdambrini - Walking In The Night (1960) {2014 Japan Jazz Collection 1000 Columbia-RCA Series}

Download Now


Quintetto Basso-Valdambrini - Walking In The Night (1960) {2014 Japan Jazz Collection 1000 Columbia-RCA Series}
Quintetto Basso-Valdambrini - Walking In The Night (1960) {2014 Japan Jazz Collection 1000 Columbia-RCA Series}
EAC rip (secure mode) | FLAC (tracks)+CUE+LOG -> 250 Mb | MP3 @320 -> 94 Mb
Full Artwork @ 600 dpi (png) -> 195 Mb | 5% repair rar | Mono
© 2014 RCA / Sony Music Japan | SICP 4267
Jazz / Hard Bop / Modal Music / Continental Jazz

"Reissue with latest remastering. Comes with liner notes. Some of the best modern jazz Italy had to offer in the postwar years - and a record that's gone onto be the blueprint for countless recent work from groups on labels like Schema and Deja Vu! Tracks are short, but very groove-centered - often mixing modal jazz rhythms with hardbop solo energy - served up beautifully through the tenor of Gianni Basso and the trumpet of Oscar Valdambrini! The pair are hardly a household name on this side of the Atlantic, but their interplay here matches the best on Blue Note from the same time - and gets some great rhythm support from the trio of Renato Sellani on piano, Giorgio Azzolini on bass, and Gianni Carzola on drums. Most tracks here are originals by members of the group, and titles include "Lotar", "Time Was", "Bashfully", "Tea Time", "Mitigati", "Renee", "Dialogo", and "Ricordando Lester"."

Quintetto Basso-Valdambrini - Walking In The Night (1960) {2014 Japan Jazz Collection 1000 Columbia-RCA Series}


Personnel:
Gianni Basso - tenor saxophone
Oscar Valdambrini - trumpet
Renato Sellani - piano
Giorgio Azzolini - bass
Gianni Carzola - drums

tracklist:
01 - Lotar
02 - Blues For Gerry
03 - Time Was
04 - Bashfully
05 - Estroverso
06 - Tea Time
07 - Mitigati
08 - Softly
09 - Walking In The Night
10 - Renee
11 - Dialogo
12 - Ricordando Lester

Exact Audio Copy V1.1 from 23. June 2015

EAC extraction logfile from 25. August 2015, 18:23

Quintetto Basso-Valdambrini / Walking In The Night

Used drive : TSSTcorpCDDVDW SE-208DB Adapter: 7 ID: 0

Read mode : Secure
Utilize accurate stream : Yes
Defeat audio cache : Yes
Make use of C2 pointers : No

Read offset correction

: 6
Overread into Lead-In and Lead-Out : No
Fill up missing offset samples with silence : Yes
Delete leading and trailing silent blocks : No
Null samples used in CRC calculations : Yes
Used interface
: Installed external ASPI interface
Gap handling
: Appended to previous track

Used output format : User Defined Encoder
Selected bitrate : 1024 kBit/s
Quality : High
Add ID3 tag : No
Command line compressor : C:\Program Files (x86)\FLAC Frontend\tools\flac.exe
Additional command line options : -8 -V -T "ARTIST=%artist%" -T "TITLE=%title%" -T "ALBUM=%albumtitle%" -T "DATE=%year%" -T "TRACKNUMBER=%tracknr%" -T "TOTALTRACKS=%numtracks%" -T "GENRE=%genre%" -T "ALBUMARTIST=%albumartist%" -T "ALBUM ARTIST=%albumartist%" -T "COMMENT=EAC Secure Mode, Test & Copy, AccurateRip, FLAC -8" %source%

TOC of the extracted CD Track | Start | Length | Start sector | End sector
--1 | 0:00.00 | 3:13.52 | 0 | 14526 2 | 3:13.52 | 3:38.55 | 14527 | 30931 3 | 6:52.32 | 2:39.03 | 30932 | 42859 4 | 9:31.35 | 2:52.10 | 42860 | 55769 5 | 12:23.45 | 3:14.00 | 55770 | 70319 6 | 15:37.45 | 3:02.27 | 70320 | 83996 7 | 18:39.72 | 2:39.30 | 83997 | 95951 8 | 21:19.27 | 4:00.18 | 95952 | 113969 9 | 25:19.45 | 3:57.17 | 113970 | 131761
10 | 29:16.62 | 3:56.53 | 131762 | 149514
11 | 33:13.40 | 3:20.05 | 149515 | 164519
12 | 36:33.45 | 3:22.70 | 164520 | 179739

Track 1 Filename M:\_EAC\Quintetto Basso-Valdambrini - Walking In The Night (1960) [FLAC] {2014 Japan Jazz Collection 1000 Columbia-RCA Series}\01 - Lotar.wav Pre-gap length 0:00:02.00 Peak level 98.8 %
Extraction speed 1.1 X
Track quality 100.0 %
Test CRC 53F8E472
Copy CRC 53F8E472
Accurately ripped (confidence 2) [C66384AC] (AR v2)
Copy OK

Track 2 Filename M:\_EAC\Quintetto Basso-Valdambrini - Walking In The Night (1960) [FLAC] {2014 Japan Jazz Collection 1000 Columbia-RCA Series}\02 - Blues For Gerry.wav Pre-gap length 0:00:02.40 Peak level 98.8 %
Extraction speed 1.2 X
Track quality 100.0 %
Test CRC 10E3CBDA
Copy CRC 10E3CBDA
Accurately ripped (confidence 2) [FA328B23] (AR v2)
Copy OK

Track 3 Filename M:\_EAC\Quintetto Basso-Valdambrini - Walking In The Night (1960) [FLAC] {2014 Japan Jazz Collection 1000 Columbia-RCA Series}\03 - Time Was.wav Pre-gap length 0:00:02.40 Peak level 98.8 %
Extraction speed 1.1 X
Track quality 99.9 %
Test CRC A9561F29
Copy CRC A9561F29
Accurately ripped (confidence 2) [D422F870] (AR v2)
Copy OK

Track 4 Filename M:\_EAC\Quintetto Basso-Valdambrini - Walking In The Night (1960) [FLAC] {2014 Japan Jazz Collection 1000 Columbia-RCA Series}\04 - Bashfully.wav Pre-gap length 0:00:02.40 Peak level 98.8 %
Extraction speed 1.4 X
Track quality 100.0 %
Test CRC C421DD8C
Copy CRC C421DD8C
Accurately ripped (confidence 2) [F6D3EA7E] (AR v2)
Copy OK

Track 5 Filename M:\_EAC\Quintetto Basso-Valdambrini - Walking In The Night (1960) [FLAC] {2014 Japan Jazz Collection 1000 Columbia-RCA Series}\05 - Estroverso.wav Pre-gap length 0:00:02.43 Peak level 98.8 %
Extraction speed 1.5 X
Track quality 100.0 %
Test CRC 3F7BD039
Copy CRC 3F7BD039
Accurately ripped (confidence 2) [232D4A09] (AR v2)
Copy OK

Track 6 Filename M:\_EAC\Quintetto Basso-Valdambrini - Walking In The Night (1960) [FLAC] {2014 Japan Jazz Collection 1000 Columbia-RCA Series}\06 - Tea Time.wav Pre-gap length 0:00:02.43 Peak level 98.8 %
Extraction speed 1.5 X
Track quality 100.0 %
Test CRC B22DBF2E
Copy CRC B22DBF2E
Accurately ripped (confidence 2) [241A9E0B] (AR v2)
Copy OK

Track 7 Filename M:\_EAC\Quintetto Basso-Valdambrini - Walking In The Night (1960) [FLAC] {2014 Japan Jazz Collection 1000 Columbia-RCA Series}\07 - Mitigati.wav Pre-gap length 0:00:02.42 Peak level 98.8 %
Extraction speed 1.6 X
Track quality 100.0 %
Test CRC 0D035102
Copy CRC 0D035102
Accurately ripped (confidence 2) [3D8F20CD] (AR v2)
Copy OK

Track 8 Filename M:\_EAC\Quintetto Basso-Valdambrini - Walking In The Night (1960) [FLAC] {2014 Japan Jazz Collection 1000 Columbia-RCA Series}\08 - Softly.wav Pre-gap length 0:00:02.40 Peak level 98.8 %
Extraction speed 1.7 X
Track quality 100.0 %
Test CRC 394C12E5
Copy CRC 394C12E5
Accurately ripped (confidence 2) [CD73DFE2] (AR v2)
Copy OK

Track 9 Filename M:\_EAC\Quintetto Basso-Valdambrini - Walking In The Night (1960) [FLAC] {2014 Japan Jazz Collection 1000 Columbia-RCA Series}\09 - Walking In The Night.wav Pre-gap length 0:00:02.43 Peak level 98.8 %
Extraction speed 1.8 X
Track quality 100.0 %
Test CRC A5C20465
Copy CRC A5C20465
Accurately ripped (confidence 2) [0620C63C] (AR v2)
Copy OK

Track 10 Filename M:\_EAC\Quintetto Basso-Valdambrini - Walking In The Night (1960) [FLAC] {2014 Japan Jazz Collection 1000 Columbia-RCA Series}\10 - Renee.wav Pre-gap length 0:00:02.42 Peak level 98.8 %
Extraction speed 1.7 X
Track quality 99.9 %
Test CRC 3A78128D
Copy CRC 3A78128D
Accurately ripped (confidence 2) [5B3C53EF] (AR v2)
Copy OK

Track 11 Filename M:\_EAC\Quintetto Basso-Valdambrini - Walking In The Night (1960) [FLAC] {2014 Japan Jazz Collection 1000 Columbia-RCA Series}\11 - Dialogo.wav Pre-gap length 0:00:02.45 Peak level 98.8 %
Extraction speed 1.9 X
Track quality 100.0 %
Test CRC 86614185
Copy CRC 86614185
Accurately ripped (confidence 2) [C6602C02] (AR v2)
Copy OK

Track 12 Filename M:\_EAC\Quintetto Basso-Valdambrini - Walking In The Night (1960) [FLAC] {2014 Japan Jazz Collection 1000 Columbia-RCA Series}\12 - Ricordando Lester.wav Pre-gap length 0:00:02.40 Peak level 98.8 %
Extraction speed 2.0 X
Track quality 100.0 %
Test CRC 8B33B79E
Copy CRC 8B33B79E
Accurately ripped (confidence 2) [93FC799D] (AR v2)
Copy OK

All tracks accurately ripped

No errors occurred

End of status report

==== Log checksum 29D4452705E9F4FFE66DA583D45120F7916A62E74CC92E456A7FE81DE134A174 ====

Quintetto Basso-Valdambrini - Walking In The Night (1960) {2014 Japan Jazz Collection 1000 Columbia-RCA Series}

Quintetto Basso-Valdambrini - Walking In The Night (1960) {2014 Japan Jazz Collection 1000 Columbia-RCA Series}

DOWNLOAD LINKS
Buy Premium From My Links To Get Resumable Support & Max Speed & To Support Me


Links are Interchangeable - No Password - Single Extraction
Direct Download

Tags: Quintetto, Valdambrini, Walking, Collection, Columbia, Series

Quintetto Basso-Valdambrini - Walking In The Night (1960) {2014 Japan Jazz Collection 1000 Columbia-RCA Series} Download via Hotfile Rapidshare Fileserve Megaupload & FileSonic, Quintetto Basso-Valdambrini - Walking In The Night (1960) {2014 Japan Jazz Collection 1000 Columbia-RCA Series} free torrent downloads included crack, serial, keygen.Quintetto Basso-Valdambrini - Walking In The Night (1960) {2014 Japan Jazz Collection 1000 Columbia-RCA Series} Fast Download via Rapidshare Hotfile Fileserve Filesonic Megaupload, Quintetto Basso-Valdambrini - Walking In The Night (1960) {2014 Japan Jazz Collection 1000 Columbia-RCA Series} Torrents and Emule Download or anything related.
Leave a Comment
Your Name:
E-Mail:
Add Comments:

Enter Code: